  0
SECTION
  2
HEADER
  9
$ACADVER
  1
AC1015
  9
$ACADMAINTVER
 70
     6
  9
$DWGCODEPAGE
  3
ANSI_1252
  9
$INSBASE
 10
0.0
 20
0.0
 30
0.0
  9
$EXTMIN
 10
2.658609492894356
 20
2.182359726721983
 30
-0.0015258207003583
  9
$EXTMAX
 10
44.4123281447828
 20
31.19741222091125
 30
0.0000000349246037
  9
$LIMMIN
 10
0.0
 20
0.0
  9
$LIMMAX
 10
46.81102362204724
 20
33.11023622047244
  9
$ORTHOMODE
 70
     0
  9
$REGENMODE
 70
     1
  9
$FILLMODE
 70
     1
  9
$QTEXTMODE
 70
     0
  9
$MIRRTEXT
 70
     1
  9
$LTSCALE
 40
1.0
  9
$ATTMODE
 70
     1
  9
$TEXTSIZE
 40
0.1377952755905512
  9
$TRACEWID
 40
0.05
  9
$TEXTSTYLE
  7
STANDARD
  9
$CLAYER
  8
0
  9
$CELTYPE
  6
BYLAYER
  9
$CECOLOR
 62
   256
  9
$CELTSCALE
 40
1.0
  9
$DISPSILH
 70
     0
  9
$DIMSCALE
 40
1.0
  9
$DIMASZ
 40
0.3715820312499999
  9
$DIMEXO
 40
0.0
  9
$DIMDLI
 40
0.38
  9
$DIMRND
 40
0.0
  9
$DIMDLE
 40
0.0
  9
$DIMEXE
 40
0.078740157480315
  9
$DIMTP
 40
0.0
  9
$DIMTM
 40
0.0
  9
$DIMTXT
 40
0.5
  9
$DIMCEN
 40
0.09
  9
$DIMTSZ
 40
0.0
  9
$DIMTOL
 70
     0
  9
$DIMLIM
 70
     0
  9
$DIMTIH
 70
     1
  9
$DIMTOH
 70
     1
  9
$DIMSE1
 70
     0
  9
$DIMSE2
 70
     0
  9
$DIMTAD
 70
     1
  9
$DIMZIN
 70
     0
  9
$DIMBLK
  1

  9
$DIMASO
 70
     1
  9
$DIMSHO
 70
     1
  9
$DIMPOST
  1

  9
$DIMAPOST
  1

  9
$DIMALT
 70
     0
  9
$DIMALTD
 70
     2
  9
$DIMALTF
 40
25.4
  9
$DIMLFAC
 40
1.0
  9
$DIMTOFL
 70
     0
  9
$DIMTVP
 40
0.0
  9
$DIMTIX
 70
     0
  9
$DIMSOXD
 70
     0
  9
$DIMSAH
 70
     0
  9
$DIMBLK1
  1

  9
$DIMBLK2
  1

  9
$DIMSTYLE
  2
STANDARD
  9
$DIMCLRD
 70
     0
  9
$DIMCLRE
 70
     0
  9
$DIMCLRT
 70
     0
  9
$DIMTFAC
 40
1.0
  9
$DIMGAP
 40
0.06
  9
$DIMJUST
 70
     0
  9
$DIMSD1
 70
     0
  9
$DIMSD2
 70
     0
  9
$DIMTOLJ
 70
     1
  9
$DIMTZIN
 70
     0
  9
$DIMALTZ
 70
     0
  9
$DIMALTTZ
 70
     0
  9
$DIMUPT
 70
     0
  9
$DIMDEC
 70
     2
  9
$DIMTDEC
 70
     2
  9
$DIMALTU
 70
     2
  9
$DIMALTTD
 70
     2
  9
$DIMTXSTY
  7
STANDARD
  9
$DIMAUNIT
 70
     0
  9
$DIMADEC
 70
     2
  9
$DIMALTRND
 40
0.0
  9
$DIMAZIN
 70
     0
  9
$DIMDSEP
 70
    46
  9
$DIMATFIT
 70
     3
  9
$DIMFRAC
 70
     0
  9
$DIMLDRBLK
  1

  9
$DIMLUNIT
 70
     2
  9
$DIMLWD
 70
    -2
  9
$DIMLWE
 70
    -2
  9
$DIMTMOVE
 70
     0
  9
$LUNITS
 70
     2
  9
$LUPREC
 70
     2
  9
$SKETCHINC
 40
0.1
  9
$FILLETRAD
 40
0.5
  9
$AUNITS
 70
     0
  9
$AUPREC
 70
     2
  9
$MENU
  1
.
  9
$ELEVATION
 40
0.0
  9
$PELEVATION
 40
0.0
  9
$THICKNESS
 40
0.0
  9
$LIMCHECK
 70
     0
  9
$CHAMFERA
 40
0.0
  9
$CHAMFERB
 40
0.0
  9
$CHAMFERC
 40
0.0
  9
$CHAMFERD
 40
0.0
  9
$SKPOLY
 70
     0
  9
$TDCREATE
 40
2458009.825048252
  9
$TDUCREATE
 40
2458010.116714919
  9
$TDUPDATE
 40
2458019.509247905
  9
$TDUUPDATE
 40
2458019.800914572
  9
$TDINDWG
 40
0.0036806829
  9
$TDUSRTIMER
 40
0.0036806829
  9
$USRTIMER
 70
     1
  9
$ANGBASE
 50
0.0
  9
$ANGDIR
 70
     0
  9
$PDMODE
 70
     0
  9
$PDSIZE
 40
-1.0
  9
$PLINEWID
 40
0.0
  9
$SPLFRAME
 70
     0
  9
$SPLINETYPE
 70
     6
  9
$SPLINESEGS
 70
     8
  9
$HANDSEED
  5
688
  9
$SURFTAB1
 70
     6
  9
$SURFTAB2
 70
     6
  9
$SURFTYPE
 70
     6
  9
$SURFU
 70
     6
  9
$SURFV
 70
     6
  9
$UCSBASE
  2

  9
$UCSNAME
  2

  9
$UCSORG
 10
0.0
 20
0.0
 30
0.0
  9
$UCSXDIR
 10
1.0
 20
0.0
 30
0.0
  9
$UCSYDIR
 10
0.0
 20
1.0
 30
0.0
  9
$UCSORTHOREF
  2

  9
$UCSORTHOVIEW
 70
     0
  9
$UCSORGTOP
 10
0.0
 20
0.0
 30
0.0
  9
$UCSORGBOTTOM
 10
0.0
 20
0.0
 30
0.0
  9
$UCSORGLEFT
 10
0.0
 20
0.0
 30
0.0
  9
$UCSORGRIGHT
 10
0.0
 20
0.0
 30
0.0
  9
$UCSORGFRONT
 10
0.0
 20
0.0
 30
0.0
  9
$UCSORGBACK
 10
0.0
 20
0.0
 30
0.0
  9
$PUCSBASE
  2

  9
$PUCSNAME
  2

  9
$PUCSORG
 10
0.0
 20
0.0
 30
0.0
  9
$PUCSXDIR
 10
1.0
 20
0.0
 30
0.0
  9
$PUCSYDIR
 10
0.0
 20
1.0
 30
0.0
  9
$PUCSORTHOREF
  2

  9
$PUCSORTHOVIEW
 70
     0
  9
$PUCSORGTOP
 10
0.0
 20
0.0
 30
0.0
  9
$PUCSORGBOTTOM
 10
0.0
 20
0.0
 30
0.0
  9
$PUCSORGLEFT
 10
0.0
 20
0.0
 30
0.0
  9
$PUCSORGRIGHT
 10
0.0
 20
0.0
 30
0.0
  9
$PUCSORGFRONT
 10
0.0
 20
0.0
 30
0.0
  9
$PUCSORGBACK
 10
0.0
 20
0.0
 30
0.0
  9
$USERI1
 70
     0
  9
$USERI2
 70
     0
  9
$USERI3
 70
     0
  9
$USERI4
 70
     0
  9
$USERI5
 70
     0
  9
$USERR1
 40
0.0
  9
$USERR2
 40
0.0
  9
$USERR3
 40
0.0
  9
$USERR4
 40
0.0
  9
$USERR5
 40
0.0
  9
$WORLDVIEW
 70
     1
  9
$SHADEDGE
 70
     3
  9
$SHADEDIF
 70
    70
  9
$TILEMODE
 70
     1
  9
$MAXACTVP
 70
    48
  9
$PINSBASE
 10
0.0
 20
0.0
 30
0.0
  9
$PLIMCHECK
 70
     0
  9
$PEXTMIN
 10
1.000000000000000E+20
 20
1.000000000000000E+20
 30
1.000000000000000E+20
  9
$PEXTMAX
 10
-1.000000000000000E+20
 20
-1.000000000000000E+20
 30
-1.000000000000000E+20
  9
$PLIMMIN
 10
0.0
 20
0.0
  9
$PLIMMAX
 10
12.0
 20
9.0
  9
$UNITMODE
 70
     0
  9
$VISRETAIN
 70
     1
  9
$PLINEGEN
 70
     0
  9
$PSLTSCALE
 70
     1
  9
$TREEDEPTH
 70
  3020
  9
$CMLSTYLE
  2
STANDARD
  9
$CMLJUST
 70
     0
  9
$CMLSCALE
 40
1.0
  9
$PROXYGRAPHICS
 70
     1
  9
$MEASUREMENT
 70
     0
  9
$CELWEIGHT
370
    -1
  9
$ENDCAPS
280
     0
  9
$JOINSTYLE
280
     0
  9
$LWDISPLAY
290
     1
  9
$INSUNITS
 70
     1
  9
$HYPERLINKBASE
  1

  9
$STYLESHEET
  1

  9
$XEDIT
290
     1
  9
$CEPSNTYPE
380
     0
  9
$PSTYLEMODE
290
     1
  9
$FINGERPRINTGUID
  2
{0273F261-7C5B-44F9-A368-B6154FD62D4C}
  9
$VERSIONGUID
  2
{8F404D0A-DA44-4010-90D7-468E08733C6C}
  9
$EXTNAMES
290
     1
  9
$PSVPSCALE
 40
0.0
  9
$OLESTARTUP
290
     0
  0
ENDSEC
  0
SECTION
  2
CLASSES
  0
CLASS
  1
ACDBDICTIONARYWDFLT
  2
AcDbDictionaryWithDefault
  3
ObjectDBX Classes
 90
        0
280
     0
281
     0
  0
CLASS
  1
VISUALSTYLE
  2
AcDbVisualStyle
  3
ObjectDBX Classes
 90
     4095
280
     0
281
     0
  0
CLASS
  1
MATERIAL
  2
AcDbMaterial
  3
ObjectDBX Classes
 90
     1153
280
     0
281
     0
  0
CLASS
  1
SCALE
  2
AcDbScale
  3
ObjectDBX Classes
 90
     1153
280
     0
281
     0
  0
CLASS
  1
TABLESTYLE
  2
AcDbTableStyle
  3
ObjectDBX Classes
 90
     4095
280
     0
281
     0
  0
CLASS
  1
MLEADERSTYLE
  2
AcDbMLeaderStyle
  3
ACDB_MLEADERSTYLE_CLASS
 90
     4095
280
     0
281
     0
  0
CLASS
  1
SUN
  2
AcDbSun
  3
SCENEOE
 90
     1153
280
     0
281
     0
  0
CLASS
  1
ACDBPLACEHOLDER
  2
AcDbPlaceHolder
  3
ObjectDBX Classes
 90
        0
280
     0
281
     0
  0
CLASS
  1
LAYOUT
  2
AcDbLayout
  3
ObjectDBX Classes
 90
        0
280
     0
281
     0
  0
CLASS
  1
ACDBSECTIONVIEWSTYLE
  2
AcDbSectionViewStyle
  3
ObjectDBX Classes
 90
     1025
280
     0
281
     0
  0
CLASS
  1
ACDBDETAILVIEWSTYLE
  2
AcDbDetailViewStyle
  3
ObjectDBX Classes
 90
     1025
280
     0
281
     0
  0
CLASS
  1
SORTENTSTABLE
  2
AcDbSortentsTable
  3
ObjectDBX Classes
 90
        0
280
     0
281
     0
  0
CLASS
  1
DICTIONARYVAR
  2
AcDbDictionaryVar
  3
ObjectDBX Classes
 90
        0
280
     0
281
     0
  0
CLASS
  1
CELLSTYLEMAP
  2
AcDbCellStyleMap
  3
ObjectDBX Classes
 90
     1152
280
     0
281
     0
  0
CLASS
  1
LWPOLYLINE
  2
AcDbPolyline
  3
ObjectDBX Classes
 90
        0
280
     0
281
     1
  0
CLASS
  1
HATCH
  2
AcDbHatch
  3
ObjectDBX Classes
 90
        0
280
     0
281
     1
  0
CLASS
  1
XRECORD
  2
AcDbXrecord
  3
ObjectDBX Classes
 90
        0
280
     0
281
     0
  0
ENDSEC
  0
SECTION
  2
TABLES
  0
TABLE
  2
VPORT
  5
8
102
{ACAD_XDICTIONARY
360
64A
102
}
330
0
100
AcDbSymbolTable
 70
     1
  0
VPORT
  5
29
330
8
100
AcDbSymbolTableRecord
100
AcDbViewportTableRecord
  2
*ACTIVE
 70
     0
 10
0.0
 20
0.0
 11
1.0
 21
1.0
 12
23.53546881883858
 22
16.68988597381661
 13
0.0
 23
0.0
 14
0.5
 24
0.5
 15
0.5
 25
0.5
 16
0.0
 26
0.0
 36
1.0
 17
0.0
 27
0.0
 37
0.0
 40
29.2623398734011
 41
2.692745376955903
 42
50.0
 43
0.0
 44
0.0
 50
0.0
 51
0.0
 71
     0
 72
  2000
 73
     1
 74
     3
 75
     0
 76
     0
 77
     0
 78
     0
281
     0
 65
     1
110
0.0
120
0.0
130
0.0
111
1.0
121
0.0
131
0.0
112
0.0
122
1.0
132
0.0
 79
     0
146
0.0
1001
ACAD_NAV_VCDISPLAY
1070
     3
  0
ENDTAB
  0
TABLE
  2
LTYPE
  5
5
330
0
100
AcDbSymbolTable
 70
     6
  0
LTYPE
  5
14
330
5
100
AcDbSymbolTableRecord
100
AcDbLinetypeTableRecord
  2
BYBLOCK
 70
     0
  3

 72
    65
 73
     0
 40
0.0
  0
LTYPE
  5
15
330
5
100
AcDbSymbolTableRecord
100
AcDbLinetypeTableRecord
  2
BYLAYER
 70
     0
  3

 72
    65
 73
     0
 40
0.0
  0
LTYPE
  5
16
330
5
100
AcDbSymbolTableRecord
100
AcDbLinetypeTableRecord
  2
CONTINUOUS
 70
     0
  3
Solid line
 72
    65
 73
     0
 40
0.0
  0
LTYPE
  5
6E
330
5
100
AcDbSymbolTableRecord
100
AcDbLinetypeTableRecord
  2
HIDDEN
 70
     0
  3
Hidden __ __ __ __ __ __ __ __ __ __ __ __ __ __
 72
    65
 73
     2
 40
0.075
 49
0.05
 74
     0
 49
-0.025
 74
     0
  0
LTYPE
  5
6F
330
5
100
AcDbSymbolTableRecord
100
AcDbLinetypeTableRecord
  2
PHANTOM
 70
     0
  3
Phantom ______  __  __  ______  __  __  ______
 72
    65
 73
     6
 40
0.5
 49
0.25
 74
     0
 49
-0.05
 74
     0
 49
0.05
 74
     0
 49
-0.05
 74
     0
 49
0.05
 74
     0
 49
-0.05
 74
     0
  0
LTYPE
  5
70
330
5
100
AcDbSymbolTableRecord
100
AcDbLinetypeTableRecord
  2
CENTER
 70
     0
  3
Center ____ _ ____ _ ____ _ ____ _ ____ _ ____
 72
    65
 73
     4
 40
0.4
 49
0.25
 74
     0
 49
-0.05
 74
     0
 49
0.05
 74
     0
 49
-0.05
 74
     0
  0
LTYPE
  5
71
330
5
100
AcDbSymbolTableRecord
100
AcDbLinetypeTableRecord
  2
CENTERX2
 70
     0
  3
Center (2x) ________  __  ________  __  _____
 72
    65
 73
     4
 40
0.8
 49
0.5
 74
     0
 49
-0.1
 74
     0
 49
0.1
 74
     0
 49
-0.1
 74
     0
  0
LTYPE
  5
72
330
5
100
AcDbSymbolTableRecord
100
AcDbLinetypeTableRecord
  2
DOT2
 70
     0
  3
Dot (.5x) ........................................
 72
    65
 73
     2
 40
0.025
 49
0.0
 74
     0
 49
-0.025
 74
     0
  0
ENDTAB
  0
TABLE
  2
LAYER
  5
2
102
{ACAD_XDICTIONARY
360
3CC
102
}
330
0
100
AcDbSymbolTable
 70
    19
  0
LAYER
  5
10
102
{ACAD_XDICTIONARY
360
3F2
102
}
330
2
100
AcDbSymbolTableRecord
100
AcDbLayerTableRecord
  2
0
 70
     0
 62
     7
  6
CONTINUOUS
370
    -3
390
63A
  0
LAYER
  5
73
102
{ACAD_XDICTIONARY
360
3F4
102
}
330
2
100
AcDbSymbolTableRecord
100
AcDbLayerTableRecord
  2
SLD-0
 70
     0
 62
     7
  6
CONTINUOUS
370
    -3
390
63A
  0
LAYER
  5
74
102
{ACAD_XDICTIONARY
360
3F6
102
}
330
2
100
AcDbSymbolTableRecord
100
AcDbLayerTableRecord
  2
10
 70
     0
 62
     7
  6
CONTINUOUS
370
    -3
390
63A
  0
LAYER
  5
75
102
{ACAD_XDICTIONARY
360
3F8
102
}
330
2
100
AcDbSymbolTableRecord
100
AcDbLayerTableRecord
  2
5
 70
     0
 62
     7
  6
CONTINUOUS
370
    -3
390
63A
  0
LAYER
  5
76
102
{ACAD_XDICTIONARY
360
3FA
102
}
330
2
100
AcDbSymbolTableRecord
100
AcDbLayerTableRecord
  2
9
 70
     0
 62
     7
  6
CONTINUOUS
370
    -3
390
63A
  0
LAYER
  5
77
102
{ACAD_XDICTIONARY
360
3FC
102
}
330
2
100
AcDbSymbolTableRecord
100
AcDbLayerTableRecord
  2
_____
 70
     0
 62
     7
  6
CONTINUOUS
370
    -3
390
63A
1001
ACADSTRINGINFO
1000
MIFCodePage
1070
     5
  0
LAYER
  5
78
102
{ACAD_XDICTIONARY
360
3FE
102
}
330
2
100
AcDbSymbolTableRecord
100
AcDbLayerTableRecord
  2
___
 70
     0
 62
     4
  6
CONTINUOUS
370
    -3
390
63A
1001
ACADSTRINGINFO
1000
MIFCodePage
1070
     5
  0
LAYER
  5
79
102
{ACAD_XDICTIONARY
360
400
102
}
330
2
100
AcDbSymbolTableRecord
100
AcDbLayerTableRecord
  2
____
 70
     0
 62
     1
  6
CENTERX2
370
    -3
390
63A
1001
ACADSTRINGINFO
1000
MIFCodePage
1070
     5
  0
LAYER
  5
7A
102
{ACAD_XDICTIONARY
360
402
102
}
330
2
100
AcDbSymbolTableRecord
100
AcDbLayerTableRecord
  2
___0
 70
     0
 62
     6
  6
HIDDEN
370
    -3
390
63A
1001
ACADSTRINGINFO
1000
MIFCodePage
1070
     5
  0
LAYER
  5
7B
102
{ACAD_XDICTIONARY
360
404
102
}
330
2
100
AcDbSymbolTableRecord
100
AcDbLayerTableRecord
  2
____0
 70
     0
 62
     2
  6
CONTINUOUS
370
    -3
390
63A
1001
ACADSTRINGINFO
1000
MIFCodePage
1070
     5
  0
LAYER
  5
7C
102
{ACAD_XDICTIONARY
360
406
102
}
330
2
100
AcDbSymbolTableRecord
100
AcDbLayerTableRecord
  2
___1
 70
     0
 62
     3
  6
CONTINUOUS
370
    -3
390
63A
1001
ACADSTRINGINFO
1000
MIFCodePage
1070
     5
  0
LAYER
  5
7D
102
{ACAD_XDICTIONARY
360
408
102
}
330
2
100
AcDbSymbolTableRecord
100
AcDbLayerTableRecord
  2
___2
 70
     0
 62
     1
  6
CONTINUOUS
370
    -3
390
63A
1001
ACADSTRINGINFO
1000
MIFCodePage
1070
     5
  0
LAYER
  5
7E
102
{ACAD_XDICTIONARY
360
40A
102
}
330
2
100
AcDbSymbolTableRecord
100
AcDbLayerTableRecord
  2
_____0
 70
     0
 62
    31
  6
CONTINUOUS
370
    -3
390
63A
1001
ACADSTRINGINFO
1000
MIFCodePage
1070
     5
  0
LAYER
  5
7F
102
{ACAD_XDICTIONARY
360
40C
102
}
330
2
100
AcDbSymbolTableRecord
100
AcDbLayerTableRecord
  2
_____1
 70
     0
 62
     6
  6
PHANTOM
370
    -3
390
63A
1001
ACADSTRINGINFO
1000
MIFCodePage
1070
     5
  0
LAYER
  5
80
102
{ACAD_XDICTIONARY
360
40E
102
}
330
2
100
AcDbSymbolTableRecord
100
AcDbLayerTableRecord
  2
____1
 70
     0
 62
     7
  6
CONTINUOUS
370
    -3
390
63A
1001
ACADSTRINGINFO
1000
MIFCodePage
1070
     5
  0
LAYER
  5
81
102
{ACAD_XDICTIONARY
360
410
102
}
330
2
100
AcDbSymbolTableRecord
100
AcDbLayerTableRecord
  2
____2
 70
     0
 62
     7
  6
CONTINUOUS
370
    -3
390
63A
1001
ACADSTRINGINFO
1000
MIFCodePage
1070
     5
  0
LAYER
  5
82
102
{ACAD_XDICTIONARY
360
412
102
}
330
2
100
AcDbSymbolTableRecord
100
AcDbLayerTableRecord
  2
____3
 70
     0
 62
     7
  6
CENTER
370
    -3
390
63A
1001
ACADSTRINGINFO
1000
MIFCodePage
1070
     5
  0
LAYER
  5
83
102
{ACAD_XDICTIONARY
360
414
102
}
330
2
100
AcDbSymbolTableRecord
100
AcDbLayerTableRecord
  2
__
 70
     0
 62
     7
  6
CONTINUOUS
370
    -3
390
63A
1001
ACADSTRINGINFO
1000
MIFCodePage
1070
     5
  0
LAYER
  5
84
102
{ACAD_XDICTIONARY
360
416
102
}
330
2
100
AcDbSymbolTableRecord
100
AcDbLayerTableRecord
  2
TB
 70
     0
 62
   254
  6
CONTINUOUS
370
    -3
390
63A
  0
ENDTAB
  0
TABLE
  2
STYLE
  5
3
330
0
100
AcDbSymbolTable
 70
     5
  0
STYLE
  5
11
330
3
100
AcDbSymbolTableRecord
100
AcDbTextStyleTableRecord
  2
STANDARD
 70
     0
 40
0.0
 41
1.0
 50
0.0
 71
     0
 42
0.1377952755905512
  3
txt
  4

  0
STYLE
  5
110
330
3
100
AcDbSymbolTableRecord
100
AcDbTextStyleTableRecord
  2
SLDTEXTSTYLE0
 70
     0
 40
0.0
 41
0.7
 50
0.0
 71
     0
 42
0.1377952755905512
  3
TXT
  4

  0
STYLE
  5
116
330
3
100
AcDbSymbolTableRecord
100
AcDbTextStyleTableRecord
  2
SLDTEXTSTYLE1
 70
     0
 40
0.0
 41
0.7368421052631579
 50
0.0
 71
     0
 42
0.1377952755905512
  3
TXT
  4

  0
STYLE
  5
11A
330
3
100
AcDbSymbolTableRecord
100
AcDbTextStyleTableRecord
  2
SLDTEXTSTYLE2
 70
     0
 40
0.0
 41
0.6353383458646616
 50
0.0
 71
     0
 42
0.1377952755905512
  3
TXT
  4

  0
STYLE
  5
139
330
3
100
AcDbSymbolTableRecord
100
AcDbTextStyleTableRecord
  2
SLDTEXTSTYLE3
 70
     0
 40
0.0
 41
0.6333333333333334
 50
0.0
 71
     0
 42
0.1377952755905512
  3
TXT
  4

  0
ENDTAB
  0
TABLE
  2
VIEW
  5
6
330
0
100
AcDbSymbolTable
 70
     0
  0
ENDTAB
  0
TABLE
  2
UCS
  5
7
330
0
100
AcDbSymbolTable
 70
     0
  0
ENDTAB
  0
TABLE
  2
APPID
  5
9
330
0
100
AcDbSymbolTable
 70
     4
  0
APPID
  5
12
330
9
100
AcDbSymbolTableRecord
100
AcDbRegAppTableRecord
  2
ACAD
 70
     0
  0
APPID
  5
3CB
330
9
100
AcDbSymbolTableRecord
100
AcDbRegAppTableRecord
  2
ACAD_NAV_VCDISPLAY
 70
     0
  0
APPID
  5
50B
330
9
100
AcDbSymbolTableRecord
100
AcDbRegAppTableRecord
  2
ACADSTRINGINFO
 70
     0
  0
APPID
  5
54F
330
9
100
AcDbSymbolTableRecord
100
AcDbRegAppTableRecord
  2
ACAD_MLEADERVER
 70
     0
  0
ENDTAB
  0
TABLE
  2
DIMSTYLE
  5
A
330
0
100
AcDbSymbolTable
 70
     5
100
AcDbDimStyleTable
  0
DIMSTYLE
105
27
330
A
100
AcDbSymbolTableRecord
100
AcDbDimStyleTableRecord
  2
STANDARD
 70
     0
178
     0
340
11
  0
DIMSTYLE
105
18A
102
{ACAD_REACTORS
330
189
330
19B
102
}
330
A
100
AcDbSymbolTableRecord
100
AcDbDimStyleTableRecord
  2
SLDDIMSTYLE0
 70
     0
 41
0.3715820312499999
 44
0.0
 45
0.000000001
 73
     0
 74
     0
 77
     2
 78
    12
140
0.3715820312499999
143
25.40760869565218
147
0.0928955078125
170
     1
173
     1
178
     0
271
     2
272
     2
284
    12
340
110
  0
DIMSTYLE
105
231
102
{ACAD_REACTORS
330
230
102
}
330
A
100
AcDbSymbolTableRecord
100
AcDbDimStyleTableRecord
  2
SLDDIMSTYLE1
 70
     0
 41
0.3715820312499999
 44
0.0
 45
0.000000001
 73
     0
 74
     0
 77
     2
 78
     8
140
0.3715820312499999
143
26.36363636363636
147
0.0928955078125
170
     1
172
     1
173
     1
178
     0
271
     2
272
     2
284
    12
340
110
  0
DIMSTYLE
105
2F7
102
{ACAD_REACTORS
330
2F6
330
308
102
}
330
A
100
AcDbSymbolTableRecord
100
AcDbDimStyleTableRecord
  2
SLDDIMSTYLE2
 70
     0
 41
0.3715820312499999
 44
0.0
 45
0.000000001
 73
     0
 74
     0
 77
     2
 78
    12
140
0.3715820312499999
143
25.39629005059022
147
0.0928955078125
170
     1
173
     1
178
     0
271
     2
272
     2
284
    12
340
110
  0
DIMSTYLE
105
3CA
330
A
100
AcDbSymbolTableRecord
100
AcDbDimStyleTableRecord
  2
00
 70
     0
 42
0.1
 43
0.1
 44
0.1
 78
     1
140
0.125
141
0.0
170
     1
171
     1
172
     1
176
     1
177
     1
271
     2
178
     4
271
     2
272
     2
274
     1
284
     4
285
     4
286
     4
288
     1
340
11
  0
ENDTAB
  0
TABLE
  2
BLOCK_RECORD
  5
1
330
0
100
AcDbSymbolTable
 70
    20
  0
BLOCK_RECORD
  5
1F
330
1
100
AcDbSymbolTableRecord
100
AcDbBlockTableRecord
  2
*MODEL_SPACE
340
63E
  0
BLOCK_RECORD
  5
1B
330
1
100
AcDbSymbolTableRecord
100
AcDbBlockTableRecord
  2
*PAPER_SPACE
340
63F
  0
BLOCK_RECORD
  5
130
330
1
100
AcDbSymbolTableRecord
100
AcDbBlockTableRecord
  2
SW_NOTE_0
340
0
  0
BLOCK_RECORD
  5
18B
330
1
100
AcDbSymbolTableRecord
100
AcDbBlockTableRecord
  2
_D
340
0
  0
BLOCK_RECORD
  5
19C
330
1
100
AcDbSymbolTableRecord
100
AcDbBlockTableRecord
  2
_D_1
340
0
  0
BLOCK_RECORD
  5
1AC
330
1
100
AcDbSymbolTableRecord
100
AcDbBlockTableRecord
  2
SW_CENTERMARKSYMBOL_0
340
0
102
{BLKREFS
331
1B7
102
}
  0
BLOCK_RECORD
  5
1B8
330
1
100
AcDbSymbolTableRecord
100
AcDbBlockTableRecord
  2
SW_CENTERMARKSYMBOL_1
340
0
102
{BLKREFS
331
1C3
102
}
  0
BLOCK_RECORD
  5
1C4
330
1
100
AcDbSymbolTableRecord
100
AcDbBlockTableRecord
  2
SW_CENTERMARKSYMBOL_2
340
0
102
{BLKREFS
331
1CF
102
}
  0
BLOCK_RECORD
  5
1D0
330
1
100
AcDbSymbolTableRecord
100
AcDbBlockTableRecord
  2
SW_CENTERMARKSYMBOL_3
340
0
102
{BLKREFS
331
1DB
102
}
  0
BLOCK_RECORD
  5
1DC
330
1
100
AcDbSymbolTableRecord
100
AcDbBlockTableRecord
  2
SW_CENTERMARKSYMBOL_4
340
0
102
{BLKREFS
331
1E7
102
}
  0
BLOCK_RECORD
  5
1E8
330
1
100
AcDbSymbolTableRecord
100
AcDbBlockTableRecord
  2
SW_CENTERMARKSYMBOL_5
340
0
102
{BLKREFS
331
1F3
102
}
  0
BLOCK_RECORD
  5
1F4
330
1
100
AcDbSymbolTableRecord
100
AcDbBlockTableRecord
  2
SW_CENTERMARKSYMBOL_6
340
0
102
{BLKREFS
331
1FF
102
}
  0
BLOCK_RECORD
  5
200
330
1
100
AcDbSymbolTableRecord
100
AcDbBlockTableRecord
  2
SW_CENTERMARKSYMBOL_7
340
0
102
{BLKREFS
331
20B
102
}
  0
BLOCK_RECORD
  5
20C
330
1
100
AcDbSymbolTableRecord
100
AcDbBlockTableRecord
  2
SW_CENTERMARKSYMBOL_8
340
0
102
{BLKREFS
331
217
102
}
  0
BLOCK_RECORD
  5
232
330
1
100
AcDbSymbolTableRecord
100
AcDbBlockTableRecord
  2
_D_2
340
0
  0
BLOCK_RECORD
  5
251
330
1
100
AcDbSymbolTableRecord
100
AcDbBlockTableRecord
  2
SW_CENTERMARKSYMBOL_9
340
0
102
{BLKREFS
331
25C
102
}
  0
BLOCK_RECORD
  5
25D
330
1
100
AcDbSymbolTableRecord
100
AcDbBlockTableRecord
  2
SW_CENTERMARKSYMBOL_10
340
0
102
{BLKREFS
331
268
102
}
  0
BLOCK_RECORD
  5
269
330
1
100
AcDbSymbolTableRecord
100
AcDbBlockTableRecord
  2
SW_CENTERMARKSYMBOL_11
340
0
102
{BLKREFS
331
274
102
}
  0
BLOCK_RECORD
  5
275
330
1
100
AcDbSymbolTableRecord
100
AcDbBlockTableRecord
  2
SW_CENTERMARKSYMBOL_12
340
0
102
{BLKREFS
331
280
102
}
  0
BLOCK_RECORD
  5
281
330
1
100
AcDbSymbolTableRecord
100
AcDbBlockTableRecord
  2
SW_CENTERMARKSYMBOL_13
340
0
102
{BLKREFS
331
28C
102
}
  0
BLOCK_RECORD
  5
2F8
330
1
100
AcDbSymbolTableRecord
100
AcDbBlockTableRecord
  2
_D_3
340
0
  0
BLOCK_RECORD
  5
309
330
1
100
AcDbSymbolTableRecord
100
AcDbBlockTableRecord
  2
_D_4
340
0
  0
ENDTAB
  0
ENDSEC
  0
SECTION
  2
BLOCKS
  0
BLOCK
  5
20
330
1F
100
AcDbEntity
  8
0
100
AcDbBlockBegin
  2
*MODEL_SPACE
 70
     0
 10
0.0
 20
0.0
 30
0.0
  3
*MODEL_SPACE
  1

  0
ENDBLK
  5
21
330
1F
100
AcDbEntity
  8
0
100
AcDbBlockEnd
  0
BLOCK
  5
1C
330
1B
100
AcDbEntity
 67
     1
  8
0
100
AcDbBlockBegin
  2
*PAPER_SPACE
 70
     0
 10
0.0
 20
0.0
 30
0.0
  3
*PAPER_SPACE
  1

  0
ENDBLK
  5
1D
330
1B
100
AcDbEntity
 67
     1
  8
0
100
AcDbBlockEnd
  0
BLOCK
  5
131
330
130
100
AcDbEntity
  8
0
100
AcDbBlockBegin
  2
SW_NOTE_0
 70
     0
 10
0.0
 20
0.0
 30
0.0
  3
SW_NOTE_0
  1

  0
MTEXT
  5
133
330
130
100
AcDbEntity
  8
___1
 62
     0
100
AcDbMText
 10
-0.3491225128549047
 20
-0.0000000000000011
 30
0.0
 40
0.2708333333333333
 41
0.0
 71
     1
 72
     1
  1
SONANCE
  7
SLDTEXTSTYLE0
 11
-3.500000000000000E-15
 21
1.0
 31
0.0
 73
     1
 44
1.0
  0
MTEXT
  5
134
330
130
100
AcDbEntity
  8
___1
 62
     0
100
AcDbMText
 10
0.0710437033491115
 20
0.0
 30
0.0
 40
0.2708333333333333
 41
0.0
 71
     1
 72
     1
  1
212 Avenida Fabricante, San Clemente, CA. 92630
  7
SLDTEXTSTYLE0
 11
-3.500000000000000E-15
 21
1.0
 31
0.0
 73
     1
 44
1.0
  0
MTEXT
  5
135
330
130
100
AcDbEntity
  8
___1
 62
     0
100
AcDbMText
 10
0.4912099195531278
 20
0.0000000000000011
 30
0.0
 40
0.2708333333333333
 41
0.0
 71
     1
 72
     1
  1
58800 2-7777 949 492-7777  FAX 949 361-5579
  7
SLDTEXTSTYLE0
 11
-3.500000000000000E-15
 21
1.0
 31
0.0
 73
     1
 44
1.0
  0
MTEXT
  5
136
330
130
100
AcDbEntity
  8
___1
 62
     0
100
AcDbMText
 10
0.911376135757144
 20
0.0000000000000022
 30
0.0
 40
0.2708333333333333
 41
0.0
 71
     1
 72
     1
  1
www.sonance.com
  7
SLDTEXTSTYLE0
 11
-3.500000000000000E-15
 21
1.0
 31
0.0
 73
     1
 44
1.0
  0
ENDBLK
  5
132
330
130
100
AcDbEntity
  8
0
100
AcDbBlockEnd
  0
BLOCK
  5
18C
330
18B
100
AcDbEntity
  8
0
100
AcDbBlockBegin
  2
_D
 70
     0
 10
0.0
 20
0.0
 30
0.0
  3
_D
  1

  0
SOLID
  5
18E
330
18B
100
AcDbEntity
  8
___2
100
AcDbTrace
 10
16.68998973835751
 20
18.10379353080236
 30
0.0
 11
16.74715620470366
 21
18.47537556205236
 31
0.0
 12
16.63282327201136
 22
18.47537556205236
 32
0.0
 13
16.63282327201136
 23
18.47537556205236
 33
0.0
  0
SOLID
  5
18F
330
18B
100
AcDbEntity
  8
___2
100
AcDbTrace
 10
16.68998973835751
 20
29.14710061741653
 30
0.0
 11
16.63282327201136
 21
28.77551858616653
 31
0.0
 12
16.74715620470366
 22
28.77551858616653
 32
0.0
 13
16.74715620470366
 23
28.77551858616653
 33
0.0
  0
LINE
  5
190
330
18B
100
AcDbEntity
  8
___2
100
AcDbLine
 10
15.49919112456471
 20
22.34893140962777
 30
0.0
 11
15.49919112456471
 21
22.25952168332989
 31
0.0
  0
LINE
  5
191
330
18B
100
AcDbEntity
  8
___2
100
AcDbLine
 10
15.49919112456471
 20
22.25952168332989
 30
0.0
 11
16.10058002726878
 21
22.25952168332989
 31
0.0
  0
LINE
  5
192
330
18B
100
AcDbEntity
  8
___2
100
AcDbLine
 10
16.10058002726878
 20
22.25952168332989
 30
0.0
 11
16.10058002726878
 21
22.34893140962777
 31
0.0
  0
LINE
  5
193
330
18B
100
AcDbEntity
  8
___2
100
AcDbLine
 10
15.49919112456471
 20
24.54398349719874
 30
0.0
 11
15.49919112456471
 21
24.63339322349662
 31
0.0
  0
LINE
  5
194
330
18B
100
AcDbEntity
  8
___2
100
AcDbLine
 10
15.49919112456471
 20
24.63339322349662
 30
0.0
 11
16.10058002726878
 21
24.63339322349662
 31
0.0
  0
LINE
  5
195
330
18B
100
AcDbEntity
  8
___2
100
AcDbLine
 10
16.10058002726878
 20
24.63339322349662
 30
0.0
 11
16.10058002726878
 21
24.54398349719874
 31
0.0
  0
LINE
  5
196
330
18B
100
AcDbEntity
  8
___2
100
AcDbLine
 10
15.27266690371184
 20
18.10379353080236
 30
0.0
 11
16.76872989583783
 21
18.10379353080236
 31
0.0
  0
LINE
  5
197
330
18B
100
AcDbEntity
  8
___2
100
AcDbLine
 10
15.27266690371184
 20
29.14710061741653
 30
0.0
 11
16.76872989583783
 21
29.14710061741653
 31
0.0
  0
LINE
  5
198
330
18B
100
AcDbEntity
  8
___2
100
AcDbLine
 10
16.68998973835751
 20
18.10379353080236
 30
0.0
 11
16.68998973835751
 21
29.14710061741653
 31
0.0
  0
MTEXT
  5
199
330
18B
100
AcDbEntity
  8
___2
100
AcDbMText
 10
15.6171796248543
 20
22.46069357437504
 30
0.0
 40
0.3749999999999999
 41
0.0
 71
     1
 72
     1
  1
280.50
  7
SLDTEXTSTYLE0
 11
1.000000000000000E-16
 21
1.0
 31
0.0
 73
     1
 44
1.0
  0
MTEXT
  5
19A
330
18B
100
AcDbEntity
  8
___2
100
AcDbMText
 10
16.20658937260927
 20
22.63951293530519
 30
0.0
 40
0.3749999999999999
 41
0.0
 71
     1
 72
     1
  1
11.04
  7
SLDTEXTSTYLE0
 11
1.000000000000000E-16
 21
1.0
 31
0.0
 73
     1
 44
1.0
  0
ENDBLK
  5
18D
330
18B
100
AcDbEntity
  8
0
100
AcDbBlockEnd
  0
BLOCK
  5
19D
330
19C
100
AcDbEntity
  8
0
100
AcDbBlockBegin
  2
_D_1
 70
     0
 10
0.0
 20
0.0
 30
0.0
  3
_D_1
  1

  0
SOLID
  5
19F
330
19C
100
AcDbEntity
  8
___2
100
AcDbTrace
 10
4.30809997457798
 20
16.765210853637
 30
0.0
 11
4.67968200582798
 21
16.70804438729085
 31
0.0
 12
4.67968200582798
 22
16.82237731998316
 32
0.0
 13
4.67968200582798
 23
16.82237731998316
 33
0.0
  0
SOLID
  5
1A0
330
19C
100
AcDbEntity
  8
___2
100
AcDbTrace
 10
15.35140706119215
 20
16.765210853637
 30
0.0
 11
14.97982502994215
 21
16.82237731998316
 31
0.0
 12
14.97982502994215
 22
16.70804438729085
 32
0.0
 13
14.97982502994215
 23
16.70804438729085
 33
0.0
  0
LINE
  5
1A1
330
19C
100
AcDbEntity
  8
___2
100
AcDbLine
 10
8.988242143822227
 20
17.95600946742981
 30
0.0
 11
8.898832417524346
 21
17.95600946742981
 31
0.0
  0
LINE
  5
1A2
330
19C
100
AcDbEntity
  8
___2
100
AcDbLine
 10
8.898832417524346
 20
17.95600946742981
 30
0.0
 11
8.898832417524346
 21
17.35462056472573
 31
0.0
  0
LINE
  5
1A3
330
19C
100
AcDbEntity
  8
___2
100
AcDbLine
 10
8.898832417524346
 20
17.35462056472573
 30
0.0
 11
8.988242143822227
 21
17.35462056472573
 31
0.0
  0
LINE
  5
1A4
330
19C
100
AcDbEntity
  8
___2
100
AcDbLine
 10
11.1832942313932
 20
17.95600946742981
 30
0.0
 11
11.27270395769108
 21
17.95600946742981
 31
0.0
  0
LINE
  5
1A5
330
19C
100
AcDbEntity
  8
___2
100
AcDbLine
 10
11.27270395769108
 20
17.95600946742981
 30
0.0
 11
11.27270395769108
 21
17.35462056472573
 31
0.0
  0
LINE
  5
1A6
330
19C
100
AcDbEntity
  8
___2
100
AcDbLine
 10
11.27270395769108
 20
17.35462056472573
 30
0.0
 11
11.1832942313932
 21
17.35462056472573
 31
0.0
  0
LINE
  5
1A7
330
19C
100
AcDbEntity
  8
___2
100
AcDbLine
 10
4.30809997457798
 20
18.18253368828267
 30
0.0
 11
4.30809997457798
 21
16.68647069615669
 31
0.0
  0
LINE
  5
1A8
330
19C
100
AcDbEntity
  8
___2
100
AcDbLine
 10
15.35140706119215
 20
18.18253368828267
 30
0.0
 11
15.35140706119215
 21
16.68647069615669
 31
0.0
  0
LINE
  5
1A9
330
19C
100
AcDbEntity
  8
___2
100
AcDbLine
 10
4.30809997457798
 20
16.765210853637
 30
0.0
 11
15.35140706119215
 21
16.765210853637
 31
0.0
  0
MTEXT
  5
1AA
330
19C
100
AcDbEntity
  8
___2
100
AcDbMText
 10
9.100004308569495
 20
17.83802096714022
 30
0.0
 40
0.3749999999999999
 41
0.0
 71
     1
 72
     1
  1
280.50
  7
SLDTEXTSTYLE0
 73
     1
 44
1.0
  0
MTEXT
  5
1AB
330
19C
100
AcDbEntity
  8
___2
100
AcDbMText
 10
9.278823669499644
 20
17.24861121938525
 30
0.0
 40
0.3749999999999999
 41
0.0
 71
     1
 72
     1
  1
11.04
  7
SLDTEXTSTYLE0
 73
     1
 44
1.0
  0
ENDBLK
  5
19E
330
19C
100
AcDbEntity
  8
0
100
AcDbBlockEnd
  0
BLOCK
  5
1AD
330
1AC
100
AcDbEntity
  8
0
100
AcDbBlockBegin
  2
SW_CENTERMARKSYMBOL_0
 70
     0
 10
0.0
 20
0.0
 30
0.0
  3
SW_CENTERMARKSYMBOL_0
  1

  0
LINE
  5
1AF
330
1AC
100
AcDbEntity
  8
TB
 62
     0
100
AcDbLine
 10
0.0
 20
0.0
 30
0.0
 11
0.0
 21
0.0984251968503938
 31
0.0
  0
LINE
  5
1B0
330
1AC
100
AcDbEntity
  8
TB
 62
     0
100
AcDbLine
 10
0.0
 20
0.0
 30
0.0
 11
-0.0984251968503938
 21
0.0
 31
0.0
  0
LINE
  5
1B1
330
1AC
100
AcDbEntity
  8
TB
 62
     0
100
AcDbLine
 10
0.0
 20
0.0
 30
0.0
 11
0.0
 21
-0.0984251968503938
 31
0.0
  0
LINE
  5
1B2
330
1AC
100
AcDbEntity
  8
TB
 62
     0
100
AcDbLine
 10
0.0
 20
0.0
 30
0.0
 11
0.0984251968503938
 21
0.0
 31
0.0
  0
LINE
  5
1B3
330
1AC
100
AcDbEntity
  8
TB
 62
     0
100
AcDbLine
 10
0.0
 20
0.1968503937007876
 30
0.0
 11
0.0
 21
0.3385826771655684
 31
0.0
  0
LINE
  5
1B4
330
1AC
100
AcDbEntity
  8
TB
 62
     0
100
AcDbLine
 10
-0.1968503937007876
 20
0.0
 30
0.0
 11
-0.3385826771655684
 21
0.0
 31
0.0
  0
LINE
  5
1B5
330
1AC
100
AcDbEntity
  8
TB
 62
     0
100
AcDbLine
 10
0.0
 20
-0.1968503937007876
 30
0.0
 11
0.0
 21
-0.3385826771655684
 31
0.0
  0
LINE
  5
1B6
330
1AC
100
AcDbEntity
  8
TB
 62
     0
100
AcDbLine
 10
0.1968503937007876
 20
0.0
 30
0.0
 11
0.3385826771655684
 21
0.0
 31
0.0
  0
ENDBLK
  5
1AE
330
1AC
100
AcDbEntity
  8
0
100
AcDbBlockEnd
  0
BLOCK
  5
1B9
330
1B8
100
AcDbEntity
  8
0
100
AcDbBlockBegin
  2
SW_CENTERMARKSYMBOL_1
 70
     0
 10
0.0
 20
0.0
 30
0.0
  3
SW_CENTERMARKSYMBOL_1
  1

  0
LINE
  5
1BB
330
1B8
100
AcDbEntity
  8
TB
 62
     0
100
AcDbLine
 10
0.0
 20
0.0
 30
0.0
 11
0.0
 21
0.0984251968503916
 31
0.0
  0
LINE
  5
1BC
330
1B8
100
AcDbEntity
  8
TB
 62
     0
100
AcDbLine
 10
0.0
 20
0.0
 30
0.0
 11
-0.0984251968503916
 21
0.0
 31
0.0
  0
LINE
  5
1BD
330
1B8
100
AcDbEntity
  8
TB
 62
     0
100
AcDbLine
 10
0.0
 20
0.0
 30
0.0
 11
0.0
 21
-0.098425196850396
 31
0.0
  0
LINE
  5
1BE
330
1B8
100
AcDbEntity
  8
TB
 62
     0
100
AcDbLine
 10
0.0
 20
0.0
 30
0.0
 11
0.098425196850396
 21
0.0
 31
0.0
  0
LINE
  5
1BF
330
1B8
100
AcDbEntity
  8
TB
 62
     0
100
AcDbLine
 10
0.0
 20
0.1968503937007876
 30
0.0
 11
0.0
 21
0.3385826771652821
 31
0.0
  0
LINE
  5
1C0
330
1B8
100
AcDbEntity
  8
TB
 62
     0
100
AcDbLine
 10
-0.1968503937007876
 20
0.0
 30
0.0
 11
-0.3385826771652821
 21
0.0
 31
0.0
  0
LINE
  5
1C1
330
1B8
100
AcDbEntity
  8
TB
 62
     0
100
AcDbLine
 10
0.0
 20
-0.1968503937007876
 30
0.0
 11
0.0
 21
-0.3385826771652821
 31
0.0
  0
LINE
  5
1C2
330
1B8
100
AcDbEntity
  8
TB
 62
     0
100
AcDbLine
 10
0.1968503937007876
 20
0.0
 30
0.0
 11
0.3385826771652821
 21
0.0
 31
0.0
  0
ENDBLK
  5
1BA
330
1B8
100
AcDbEntity
  8
0
100
AcDbBlockEnd
  0
BLOCK
  5
1C5
330
1C4
100
AcDbEntity
  8
0
100
AcDbBlockBegin
  2
SW_CENTERMARKSYMBOL_2
 70
     0
 10
0.0
 20
0.0
 30
0.0
  3
SW_CENTERMARKSYMBOL_2
  1

  0
LINE
  5
1C7
330
1C4
100
AcDbEntity
  8
TB
 62
     0
100
AcDbLine
 10
0.0
 20
0.0
 30
0.0
 11
0.0
 21
0.098425196850396
 31
0.0
  0
LINE
  5
1C8
330
1C4
100
AcDbEntity
  8
TB
 62
     0
100
AcDbLine
 10
0.0
 20
0.0
 30
0.0
 11
-0.0984251968503938
 21
0.0
 31
0.0
  0
LINE
  5
1C9
330
1C4
100
AcDbEntity
  8
TB
 62
     0
100
AcDbLine
 10
0.0
 20
0.0
 30
0.0
 11
0.0
 21
-0.0984251968503916
 31
0.0
  0
LINE
  5
1CA
330
1C4
100
AcDbEntity
  8
TB
 62
     0
100
AcDbLine
 10
0.0
 20
0.0
 30
0.0
 11
0.0984251968503938
 21
0.0
 31
0.0
  0
LINE
  5
1CB
330
1C4
100
AcDbEntity
  8
TB
 62
     0
100
AcDbLine
 10
0.0
 20
0.1968503937007876
 30
0.0
 11
0.0
 21
0.3385826771653564
 31
0.0
  0
LINE
  5
1CC
330
1C4
100
AcDbEntity
  8
TB
 62
     0
100
AcDbLine
 10
-0.1968503937007876
 20
0.0
 30
0.0
 11
-0.3385826771653542
 21
0.0
 31
0.0
  0
LINE
  5
1CD
330
1C4
100
AcDbEntity
  8
TB
 62
     0
100
AcDbLine
 10
0.0
 20
-0.1968503937007876
 30
0.0
 11
0.0
 21
-0.3385826771653519
 31
0.0
  0
LINE
  5
1CE
330
1C4
100
AcDbEntity
  8
TB
 62
     0
100
AcDbLine
 10
0.1968503937007876
 20
0.0
 30
0.0
 11
0.3385826771653542
 21
0.0
 31
0.0
  0
ENDBLK
  5
1C6
330
1C4
100
AcDbEntity
  8
0
100
AcDbBlockEnd
  0
BLOCK
  5
1D1
330
1D0
100
AcDbEntity
  8
0
100
AcDbBlockBegin
  2
SW_CENTERMARKSYMBOL_3
 70
     0
 10
0.0
 20
0.0
 30
0.0
  3
SW_CENTERMARKSYMBOL_3
  1

  0
LINE
  5
1D3
330
1D0
100
AcDbEntity
  8
TB
 62
     0
100
AcDbLine
 10
0.0
 20
0.0
 30
0.0
 11
0.0
 21
0.098425196850396
 31
0.0
  0
LINE
  5
1D4
330
1D0
100
AcDbEntity
  8
TB
 62
     0
100
AcDbLine
 10
0.0
 20
0.0
 30
0.0
 11
-0.0984251968503938
 21
0.0
 31
0.0
  0
LINE
  5
1D5
330
1D0
100
AcDbEntity
  8
TB
 62
     0
100
AcDbLine
 10
0.0
 20
0.0
 30
0.0
 11
0.0
 21
-0.0984251968503916
 31
0.0
  0
LINE
  5
1D6
330
1D0
100
AcDbEntity
  8
TB
 62
     0
100
AcDbLine
 10
0.0
 20
0.0
 30
0.0
 11
0.0984251968503938
 21
0.0
 31
0.0
  0
LINE
  5
1D7
330
1D0
100
AcDbEntity
  8
TB
 62
     0
100
AcDbLine
 10
0.0
 20
0.1968503937007876
 30
0.0
 11
0.0
 21
0.3385826771656624
 31
0.0
  0
LINE
  5
1D8
330
1D0
100
AcDbEntity
  8
TB
 62
     0
100
AcDbLine
 10
-0.1968503937007876
 20
0.0
 30
0.0
 11
-0.3385826771656602
 21
0.0
 31
0.0
  0
LINE
  5
1D9
330
1D0
100
AcDbEntity
  8
TB
 62
     0
100
AcDbLine
 10
0.0
 20
-0.1968503937007876
 30
0.0
 11
0.0
 21
-0.338582677165658
 31
0.0
  0
LINE
  5
1DA
330
1D0
100
AcDbEntity
  8
TB
 62
     0
100
AcDbLine
 10
0.1968503937007876
 20
0.0
 30
0.0
 11
0.3385826771656602
 21
0.0
 31
0.0
  0
ENDBLK
  5
1D2
330
1D0
100
AcDbEntity
  8
0
100
AcDbBlockEnd
  0
BLOCK
  5
1DD
330
1DC
100
AcDbEntity
  8
0
100
AcDbBlockBegin
  2
SW_CENTERMARKSYMBOL_4
 70
     0
 10
0.0
 20
0.0
 30
0.0
  3
SW_CENTERMARKSYMBOL_4
  1

  0
LINE
  5
1DF
330
1DC
100
AcDbEntity
  8
___2
 62
     0
100
AcDbLine
 10
0.0
 20
0.0
 30
0.0
 11
0.0
 21
0.0984251968503916
 31
0.0
  0
LINE
  5
1E0
330
1DC
100
AcDbEntity
  8
___2
 62
     0
100
AcDbLine
 10
0.0
 20
0.0
 30
0.0
 11
-0.0984251968503938
 21
0.0
 31
0.0
  0
LINE
  5
1E1
330
1DC
100
AcDbEntity
  8
___2
 62
     0
100
AcDbLine
 10
0.0
 20
0.0
 30
0.0
 11
0.0
 21
-0.0984251968503916
 31
0.0
  0
LINE
  5
1E2
330
1DC
100
AcDbEntity
  8
___2
 62
     0
100
AcDbLine
 10
0.0
 20
0.0
 30
0.0
 11
0.0984251968503927
 21
0.0
 31
0.0
  0
LINE
  5
1E3
330
1DC
100
AcDbEntity
  8
___2
 62
     0
100
AcDbLine
 10
0.0
 20
0.1968503937007876
 30
0.0
 11
0.0
 21
5.118110236220127
 31
0.0
  0
LINE
  5
1E4
330
1DC
100
AcDbEntity
  8
___2
 62
     0
100
AcDbLine
 10
-0.1968503937007876
 20
0.0
 30
0.0
 11
-5.118110236220126
 21
0.0
 31
0.0
  0
LINE
  5
1E5
330
1DC
100
AcDbEntity
  8
___2
 62
     0
100
AcDbLine
 10
0.0
 20
-0.1968503937007876
 30
0.0
 11
0.0
 21
-5.118110236220127
 31
0.0
  0
LINE
  5
1E6
330
1DC
100
AcDbEntity
  8
___2
 62
     0
100
AcDbLine
 10
0.1968503937007865
 20
0.0
 30
0.0
 11
5.118110236220126
 21
0.0
 31
0.0
  0
ENDBLK
  5
1DE
330
1DC
100
AcDbEntity
  8
0
100
AcDbBlockEnd
  0
BLOCK
  5
1E9
330
1E8
100
AcDbEntity
  8
0
100
AcDbBlockBegin
  2
SW_CENTERMARKSYMBOL_5
 70
     0
 10
0.0
 20
0.0
 30
0.0
  3
SW_CENTERMARKSYMBOL_5
  1

  0
LINE
  5
1EB
330
1E8
100
AcDbEntity
  8
TB
 62
     0
100
AcDbLine
 10
0.0
 20
0.0
 30
0.0
 11
0.0
 21
0.098425196850396
 31
0.0
  0
LINE
  5
1EC
330
1E8
100
AcDbEntity
  8
TB
 62
     0
100
AcDbLine
 10
0.0
 20
0.0
 30
0.0
 11
-0.0984251968503938
 21
0.0
 31
0.0
  0
LINE
  5
1ED
330
1E8
100
AcDbEntity
  8
TB
 62
     0
100
AcDbLine
 10
0.0
 20
0.0
 30
0.0
 11
0.0
 21
-0.0984251968503916
 31
0.0
  0
LINE
  5
1EE
330
1E8
100
AcDbEntity
  8
TB
 62
     0
100
AcDbLine
 10
0.0
 20
0.0
 30
0.0
 11
0.0984251968503938
 21
0.0
 31
0.0
  0
LINE
  5
1EF
330
1E8
100
AcDbEntity
  8
TB
 62
     0
100
AcDbLine
 10
0.0
 20
0.098425196850396
 30
0.0
 11
0.0
 21
0.1811023622047263
 31
0.0
  0
LINE
  5
1F0
330
1E8
100
AcDbEntity
  8
TB
 62
     0
100
AcDbLine
 10
-0.0984251968503938
 20
0.0
 30
0.0
 11
-0.1811023622047241
 21
0.0
 31
0.0
  0
LINE
  5
1F1
330
1E8
100
AcDbEntity
  8
TB
 62
     0
100
AcDbLine
 10
0.0
 20
-0.0984251968503916
 30
0.0
 11
0.0
 21
-0.181102362204722
 31
0.0
  0
LINE
  5
1F2
330
1E8
100
AcDbEntity
  8
TB
 62
     0
100
AcDbLine
 10
0.0984251968503938
 20
0.0
 30
0.0
 11
0.1811023622047241
 21
0.0
 31
0.0
  0
ENDBLK
  5
1EA
330
1E8
100
AcDbEntity
  8
0
100
AcDbBlockEnd
  0
BLOCK
  5
1F5
330
1F4
100
AcDbEntity
  8
0
100
AcDbBlockBegin
  2
SW_CENTERMARKSYMBOL_6
 70
     0
 10
0.0
 20
0.0
 30
0.0
  3
SW_CENTERMARKSYMBOL_6
  1

  0
LINE
  5
1F7
330
1F4
100
AcDbEntity
  8
TB
 62
     0
100
AcDbLine
 10
0.0
 20
0.0
 30
0.0
 11
0.0
 21
0.0984251968503916
 31
0.0
  0
LINE
  5
1F8
330
1F4
100
AcDbEntity
  8
TB
 62
     0
100
AcDbLine
 10
0.0
 20
0.0
 30
0.0
 11
-0.098425196850396
 21
0.0
 31
0.0
  0
LINE
  5
1F9
330
1F4
100
AcDbEntity
  8
TB
 62
     0
100
AcDbLine
 10
0.0
 20
0.0
 30
0.0
 11
0.0
 21
-0.098425196850396
 31
0.0
  0
LINE
  5
1FA
330
1F4
100
AcDbEntity
  8
TB
 62
     0
100
AcDbLine
 10
0.0
 20
0.0
 30
0.0
 11
0.0984251968503916
 21
0.0
 31
0.0
  0
LINE
  5
1FB
330
1F4
100
AcDbEntity
  8
TB
 62
     0
100
AcDbLine
 10
0.0
 20
0.0984251968503916
 30
0.0
 11
0.0
 21
0.1811023622046586
 31
0.0
  0
LINE
  5
1FC
330
1F4
100
AcDbEntity
  8
TB
 62
     0
100
AcDbLine
 10
-0.098425196850396
 20
0.0
 30
0.0
 11
-0.1811023622046607
 21
0.0
 31
0.0
  0
LINE
  5
1FD
330
1F4
100
AcDbEntity
  8
TB
 62
     0
100
AcDbLine
 10
0.0
 20
-0.098425196850396
 30
0.0
 11
0.0
 21
-0.1811023622046607
 31
0.0
  0
LINE
  5
1FE
330
1F4
100
AcDbEntity
  8
TB
 62
     0
100
AcDbLine
 10
0.0984251968503916
 20
0.0
 30
0.0
 11
0.1811023622046564
 21
0.0
 31
0.0
  0
ENDBLK
  5
1F6
330
1F4
100
AcDbEntity
  8
0
100
AcDbBlockEnd
  0
BLOCK
  5
201
330
200
100
AcDbEntity
  8
0
100
AcDbBlockBegin
  2
SW_CENTERMARKSYMBOL_7
 70
     0
 10
0.0
 20
0.0
 30
0.0
  3
SW_CENTERMARKSYMBOL_7
  1

  0
LINE
  5
203
330
200
100
AcDbEntity
  8
TB
 62
     0
100
AcDbLine
 10
0.0
 20
0.0
 30
0.0
 11
0.0
 21
0.0984251968503938
 31
0.0
  0
LINE
  5
204
330
200
100
AcDbEntity
  8
TB
 62
     0
100
AcDbLine
 10
0.0
 20
0.0
 30
0.0
 11
-0.0984251968503938
 21
0.0
 31
0.0
  0
LINE
  5
205
330
200
100
AcDbEntity
  8
TB
 62
     0
100
AcDbLine
 10
0.0
 20
0.0
 30
0.0
 11
0.0
 21
-0.0984251968503938
 31
0.0
  0
LINE
  5
206
330
200
100
AcDbEntity
  8
TB
 62
     0
100
AcDbLine
 10
0.0
 20
0.0
 30
0.0
 11
0.0984251968503938
 21
0.0
 31
0.0
  0
LINE
  5
207
330
200
100
AcDbEntity
  8
TB
 62
     0
100
AcDbLine
 10
0.0
 20
0.0984251968503938
 30
0.0
 11
0.0
 21
0.1811023622049208
 31
0.0
  0
LINE
  5
208
330
200
100
AcDbEntity
  8
TB
 62
     0
100
AcDbLine
 10
-0.0984251968503938
 20
0.0
 30
0.0
 11
-0.1811023622049219
 21
0.0
 31
0.0
  0
LINE
  5
209
330
200
100
AcDbEntity
  8
TB
 62
     0
100
AcDbLine
 10
0.0
 20
-0.0984251968503938
 30
0.0
 11
0.0
 21
-0.1811023622049208
 31
0.0
  0
LINE
  5
20A
330
200
100
AcDbEntity
  8
TB
 62
     0
100
AcDbLine
 10
0.0984251968503938
 20
0.0
 30
0.0
 11
0.1811023622049219
 21
0.0
 31
0.0
  0
ENDBLK
  5
202
330
200
100
AcDbEntity
  8
0
100
AcDbBlockEnd
  0
BLOCK
  5
20D
330
20C
100
AcDbEntity
  8
0
100
AcDbBlockBegin
  2
SW_CENTERMARKSYMBOL_8
 70
     0
 10
0.0
 20
0.0
 30
0.0
  3
SW_CENTERMARKSYMBOL_8
  1

  0
LINE
  5
20F
330
20C
100
AcDbEntity
  8
TB
 62
     0
100
AcDbLine
 10
0.0
 20
0.0
 30
0.0
 11
0.0
 21
0.0984251968503916
 31
0.0
  0
LINE
  5
210
330
20C
100
AcDbEntity
  8
TB
 62
     0
100
AcDbLine
 10
0.0
 20
0.0
 30
0.0
 11
-0.0984251968503938
 21
0.0
 31
0.0
  0
LINE
  5
211
330
20C
100
AcDbEntity
  8
TB
 62
     0
100
AcDbLine
 10
0.0
 20
0.0
 30
0.0
 11
0.0
 21
-0.0984251968503916
 31
0.0
  0
LINE
  5
212
330
20C
100
AcDbEntity
  8
TB
 62
     0
100
AcDbLine
 10
0.0
 20
0.0
 30
0.0
 11
0.0984251968503938
 21
0.0
 31
0.0
  0
LINE
  5
213
330
20C
100
AcDbEntity
  8
TB
 62
     0
100
AcDbLine
 10
0.0
 20
0.0984251968503916
 30
0.0
 11
0.0
 21
0.1811023622050104
 31
0.0
  0
LINE
  5
214
330
20C
100
AcDbEntity
  8
TB
 62
     0
100
AcDbLine
 10
-0.0984251968503938
 20
0.0
 30
0.0
 11
-0.1811023622050126
 21
0.0
 31
0.0
  0
LINE
  5
215
330
20C
100
AcDbEntity
  8
TB
 62
     0
100
AcDbLine
 10
0.0
 20
-0.0984251968503916
 30
0.0
 11
0.0
 21
-0.1811023622050104
 31
0.0
  0
LINE
  5
216
330
20C
100
AcDbEntity
  8
TB
 62
     0
100
AcDbLine
 10
0.0984251968503938
 20
0.0
 30
0.0
 11
0.1811023622050126
 21
0.0
 31
0.0
  0
ENDBLK
  5
20E
330
20C
100
AcDbEntity
  8
0
100
AcDbBlockEnd
  0
BLOCK
  5
233
330
232
100
AcDbEntity
  8
0
100
AcDbBlockBegin
  2
_D_2
 70
     0
 10
0.0
 20
0.0
 30
0.0
  3
_D_2
  1

  0
SOLID
  5
235
330
232
100
AcDbEntity
  8
___2
100
AcDbTrace
 10
36.32142947341522
 20
17.13933852877362
 30
0.0
 11
36.69301150466522
 21
17.08217206242747
 31
0.0
 12
36.69301150466522
 22
17.19650499511978
 32
0.0
 13
36.69301150466522
 23
17.19650499511978
 33
0.0
  0
SOLID
  5
236
330
232
100
AcDbEntity
  8
___2
100
AcDbTrace
 10
36.20725624506875
 20
17.13933852877362
 30
0.0
 11
35.83567421381875
 21
17.19650499511978
 31
0.0
 12
35.83567421381875
 22
17.08217206242747
 32
0.0
 13
35.83567421381875
 23
17.08217206242747
 33
0.0
  0
LINE
  5
237
330
232
100
AcDbEntity
  8
___2
100
AcDbLine
 10
34.0240482984643
 20
18.33013714256642
 30
0.0
 11
33.93463857216642
 21
18.33013714256642
 31
0.0
  0
LINE
  5
238
330
232
100
AcDbEntity
  8
___2
100
AcDbLine
 10
33.93463857216642
 20
18.33013714256642
 30
0.0
 11
33.93463857216641
 21
17.72874823986234
 31
0.0
  0
LINE
  5
239
330
232
100
AcDbEntity
  8
___2
100
AcDbLine
 10
33.93463857216641
 20
17.72874823986234
 30
0.0
 11
34.02404829846429
 21
17.72874823986234
 31
0.0
  0
LINE
  5
23A
330
232
100
AcDbEntity
  8
___2
100
AcDbLine
 10
35.50382264898472
 20
18.33013714256641
 30
0.0
 11
35.59323237528261
 21
18.33013714256641
 31
0.0
  0
LINE
  5
23B
330
232
100
AcDbEntity
  8
___2
100
AcDbLine
 10
35.59323237528261
 20
18.33013714256641
 30
0.0
 11
35.59323237528261
 21
17.72874823986233
 31
0.0
  0
LINE
  5
23C
330
232
100
AcDbEntity
  8
___2
100
AcDbLine
 10
35.59323237528261
 20
17.72874823986233
 30
0.0
 11
35.50382264898472
 21
17.72874823986233
 31
0.0
  0
LINE
  5
23D
330
232
100
AcDbEntity
  8
___2
100
AcDbLine
 10
36.32142947341522
 20
18.10379353080236
 30
0.0
 11
36.32142947341522
 21
17.06059837129331
 31
0.0
  0
LINE
  5
23E
330
232
100
AcDbEntity
  8
___2
100
AcDbLine
 10
36.20725624506875
 20
18.18253368828267
 30
0.0
 11
36.20725624506875
 21
17.06059837129331
 31
0.0
  0
LINE
  5
23F
330
232
100
AcDbEntity
  8
___2
100
AcDbLine
 10
36.32142947341522
 20
17.13933852877362
 30
0.0
 11
37.03601030274214
 21
17.13933852877362
 31
0.0
  0
LINE
  5
240
330
232
100
AcDbEntity
  8
___2
100
AcDbLine
 10
36.32142947341522
 20
17.13933852877362
 30
0.0
 11
36.20725624506875
 21
17.13933852877362
 31
0.0
  0
LINE
  5
241
330
232
100
AcDbEntity
  8
___2
100
AcDbLine
 10
36.20725624506875
 20
17.13933852877362
 30
0.0
 11
33.86758127515136
 21
17.13933852877362
 31
0.0
  0
MTEXT
  5
242
330
232
100
AcDbEntity
  8
___2
100
AcDbMText
 10
34.13581046321157
 20
18.21214864227683
 30
0.0
 40
0.3749999999999999
 41
0.0
 71
     1
 72
     1
  1
2.90
  7
SLDTEXTSTYLE0
 73
     1
 44
1.0
  0
MTEXT
  5
243
330
232
100
AcDbEntity
  8
___2
100
AcDbMText
 10
34.13581046321156
 20
17.62273889452186
 30
0.0
 40
0.3749999999999999
 41
0.0
 71
     1
 72
     1
  1
0.11
  7
SLDTEXTSTYLE0
 73
     1
 44
1.0
  0
ENDBLK
  5
234
330
232
100
AcDbEntity
  8
0
100
AcDbBlockEnd
  0
BLOCK
  5
252
330
251
100
AcDbEntity
  8
0
100
AcDbBlockBegin
  2
SW_CENTERMARKSYMBOL_9
 70
     0
 10
0.0
 20
0.0
 30
0.0
  3
SW_CENTERMARKSYMBOL_9
  1

  0
LINE
  5
254
330
251
100
AcDbEntity
  8
___2
 62
     0
100
AcDbLine
 10
0.0
 20
0.0
 30
0.0
 11
0.0
 21
0.0984251968503916
 31
0.0
  0
LINE
  5
255
330
251
100
AcDbEntity
  8
___2
 62
     0
100
AcDbLine
 10
0.0
 20
0.0
 30
0.0
 11
-0.0984251968503916
 21
0.0
 31
0.0
  0
LINE
  5
256
330
251
100
AcDbEntity
  8
___2
 62
     0
100
AcDbLine
 10
0.0
 20
0.0
 30
0.0
 11
0.0
 21
-0.0984251968503916
 31
0.0
  0
LINE
  5
257
330
251
100
AcDbEntity
  8
___2
 62
     0
100
AcDbLine
 10
0.0
 20
0.0
 30
0.0
 11
0.098425196850396
 21
0.0
 31
0.0
  0
LINE
  5
258
330
251
100
AcDbEntity
  8
___2
 62
     0
100
AcDbLine
 10
0.0
 20
0.1968503937007876
 30
0.0
 11
0.0
 21
5.118110236220127
 31
0.0
  0
LINE
  5
259
330
251
100
AcDbEntity
  8
___2
 62
     0
100
AcDbLine
 10
-0.1968503937007876
 20
0.0
 30
0.0
 11
-5.118110236220127
 21
0.0
 31
0.0
  0
LINE
  5
25A
330
251
100
AcDbEntity
  8
___2
 62
     0
100
AcDbLine
 10
0.0
 20
-0.1968503937007876
 30
0.0
 11
0.0
 21
-5.118110236220127
 31
0.0
  0
LINE
  5
25B
330
251
100
AcDbEntity
  8
___2
 62
     0
100
AcDbLine
 10
0.1968503937007876
 20
0.0
 30
0.0
 11
5.118110236220127
 21
0.0
 31
0.0
  0
ENDBLK
  5
253
330
251
100
AcDbEntity
  8
0
100
AcDbBlockEnd
  0
BLOCK
  5
25E
330
25D
100
AcDbEntity
  8
0
100
AcDbBlockBegin
  2
SW_CENTERMARKSYMBOL_10
 70
     0
 10
0.0
 20
0.0
 30
0.0
  3
SW_CENTERMARKSYMBOL_10
  1

  0
LINE
  5
260
330
25D
100
AcDbEntity
  8
TB
 62
     0
100
AcDbLine
 10
0.0
 20
0.0
 30
0.0
 11
0.0
 21
0.098425196850396
 31
0.0
  0
LINE
  5
261
330
25D
100
AcDbEntity
  8
TB
 62
     0
100
AcDbLine
 10
0.0
 20
0.0
 30
0.0
 11
-0.098425196850396
 21
0.0
 31
0.0
  0
LINE
  5
262
330
25D
100
AcDbEntity
  8
TB
 62
     0
100
AcDbLine
 10
0.0
 20
0.0
 30
0.0
 11
0.0
 21
-0.0984251968503916
 31
0.0
  0
LINE
  5
263
330
25D
100
AcDbEntity
  8
TB
 62
     0
100
AcDbLine
 10
0.0
 20
0.0
 30
0.0
 11
0.0984251968503916
 21
0.0
 31
0.0
  0
LINE
  5
264
330
25D
100
AcDbEntity
  8
TB
 62
     0
100
AcDbLine
 10
0.0
 20
0.098425196850396
 30
0.0
 11
0.0
 21
0.1811023622047263
 31
0.0
  0
LINE
  5
265
330
25D
100
AcDbEntity
  8
TB
 62
     0
100
AcDbLine
 10
-0.098425196850396
 20
0.0
 30
0.0
 11
-0.1811023622047263
 21
0.0
 31
0.0
  0
LINE
  5
266
330
25D
100
AcDbEntity
  8
TB
 62
     0
100
AcDbLine
 10
0.0
 20
-0.0984251968503916
 30
0.0
 11
0.0
 21
-0.181102362204722
 31
0.0
  0
LINE
  5
267
330
25D
100
AcDbEntity
  8
TB
 62
     0
100
AcDbLine
 10
0.0984251968503916
 20
0.0
 30
0.0
 11
0.181102362204722
 21
0.0
 31
0.0
  0
ENDBLK
  5
25F
330
25D
100
AcDbEntity
  8
0
100
AcDbBlockEnd
  0
BLOCK
  5
26A
330
269
100
AcDbEntity
  8
0
100
AcDbBlockBegin
  2
SW_CENTERMARKSYMBOL_11
 70
     0
 10
0.0
 20
0.0
 30
0.0
  3
SW_CENTERMARKSYMBOL_11
  1

  0
LINE
  5
26C
330
269
100
AcDbEntity
  8
TB
 62
     0
100
AcDbLine
 10
0.0
 20
0.0
 30
0.0
 11
0.0
 21
0.0984251968503916
 31
0.0
  0
LINE
  5
26D
330
269
100
AcDbEntity
  8
TB
 62
     0
100
AcDbLine
 10
0.0
 20
0.0
 30
0.0
 11
-0.098425196850396
 21
0.0
 31
0.0
  0
LINE
  5
26E
330
269
100
AcDbEntity
  8
TB
 62
     0
100
AcDbLine
 10
0.0
 20
0.0
 30
0.0
 11
0.0
 21
-0.098425196850396
 31
0.0
  0
LINE
  5
26F
330
269
100
AcDbEntity
  8
TB
 62
     0
100
AcDbLine
 10
0.0
 20
0.0
 30
0.0
 11
0.0984251968503916
 21
0.0
 31
0.0
  0
LINE
  5
270
330
269
100
AcDbEntity
  8
TB
 62
     0
100
AcDbLine
 10
0.0
 20
0.0984251968503916
 30
0.0
 11
0.0
 21
0.1811023622046586
 31
0.0
  0
LINE
  5
271
330
269
100
AcDbEntity
  8
TB
 62
     0
100
AcDbLine
 10
-0.098425196850396
 20
0.0
 30
0.0
 11
-0.1811023622046607
 21
0.0
 31
0.0
  0
LINE
  5
272
330
269
100
AcDbEntity
  8
TB
 62
     0
100
AcDbLine
 10
0.0
 20
-0.098425196850396
 30
0.0
 11
0.0
 21
-0.1811023622046607
 31
0.0
  0
LINE
  5
273
330
269
100
AcDbEntity
  8
TB
 62
     0
100
AcDbLine
 10
0.0984251968503916
 20
0.0
 30
0.0
 11
0.1811023622046564
 21
0.0
 31
0.0
  0
ENDBLK
  5
26B
330
269
100
AcDbEntity
  8
0
100
AcDbBlockEnd
  0
BLOCK
  5
276
330
275
100
AcDbEntity
  8
0
100
AcDbBlockBegin
  2
SW_CENTERMARKSYMBOL_12
 70
     0
 10
0.0
 20
0.0
 30
0.0
  3
SW_CENTERMARKSYMBOL_12
  1

  0
LINE
  5
278
330
275
100
AcDbEntity
  8
TB
 62
     0
100
AcDbLine
 10
0.0
 20
0.0
 30
0.0
 11
0.0
 21
0.0984251968503938
 31
0.0
  0
LINE
  5
279
330
275
100
AcDbEntity
  8
TB
 62
     0
100
AcDbLine
 10
0.0
 20
0.0
 30
0.0
 11
-0.0984251968503916
 21
0.0
 31
0.0
  0
LINE
  5
27A
330
275
100
AcDbEntity
  8
TB
 62
     0
100
AcDbLine
 10
0.0
 20
0.0
 30
0.0
 11
0.0
 21
-0.0984251968503938
 31
0.0
  0
LINE
  5
27B
330
275
100
AcDbEntity
  8
TB
 62
     0
100
AcDbLine
 10
0.0
 20
0.0
 30
0.0
 11
0.0984251968503916
 21
0.0
 31
0.0
  0
LINE
  5
27C
330
275
100
AcDbEntity
  8
TB
 62
     0
100
AcDbLine
 10
0.0
 20
0.0984251968503938
 30
0.0
 11
0.0
 21
0.1811023622049208
 31
0.0
  0
LINE
  5
27D
330
275
100
AcDbEntity
  8
TB
 62
     0
100
AcDbLine
 10
-0.0984251968503916
 20
0.0
 30
0.0
 11
-0.181102362204923
 21
0.0
 31
0.0
  0
LINE
  5
27E
330
275
100
AcDbEntity
  8
TB
 62
     0
100
AcDbLine
 10
0.0
 20
-0.0984251968503938
 30
0.0
 11
0.0
 21
-0.1811023622049208
 31
0.0
  0
LINE
  5
27F
330
275
100
AcDbEntity
  8
TB
 62
     0
100
AcDbLine
 10
0.0984251968503916
 20
0.0
 30
0.0
 11
0.181102362204923
 21
0.0
 31
0.0
  0
ENDBLK
  5
277
330
275
100
AcDbEntity
  8
0
100
AcDbBlockEnd
  0
BLOCK
  5
282
330
281
100
AcDbEntity
  8
0
100
AcDbBlockBegin
  2
SW_CENTERMARKSYMBOL_13
 70
     0
 10
0.0
 20
0.0
 30
0.0
  3
SW_CENTERMARKSYMBOL_13
  1

  0
LINE
  5
284
330
281
100
AcDbEntity
  8
TB
 62
     0
100
AcDbLine
 10
0.0
 20
0.0
 30
0.0
 11
0.0
 21
0.0984251968503916
 31
0.0
  0
LINE
  5
285
330
281
100
AcDbEntity
  8
TB
 62
     0
100
AcDbLine
 10
0.0
 20
0.0
 30
0.0
 11
-0.0984251968503916
 21
0.0
 31
0.0
  0
LINE
  5
286
330
281
100
AcDbEntity
  8
TB
 62
     0
100
AcDbLine
 10
0.0
 20
0.0
 30
0.0
 11
0.0
 21
-0.0984251968503916
 31
0.0
  0
LINE
  5
287
330
281
100
AcDbEntity
  8
TB
 62
     0
100
AcDbLine
 10
0.0
 20
0.0
 30
0.0
 11
0.098425196850396
 21
0.0
 31
0.0
  0
LINE
  5
288
330
281
100
AcDbEntity
  8
TB
 62
     0
100
AcDbLine
 10
0.0
 20
0.0984251968503916
 30
0.0
 11
0.0
 21
0.1811023622050104
 31
0.0
  0
LINE
  5
289
330
281
100
AcDbEntity
  8
TB
 62
     0
100
AcDbLine
 10
-0.0984251968503916
 20
0.0
 30
0.0
 11
-0.1811023622050104
 21
0.0
 31
0.0
  0
LINE
  5
28A
330
281
100
AcDbEntity
  8
TB
 62
     0
100
AcDbLine
 10
0.0
 20
-0.0984251968503916
 30
0.0
 11
0.0
 21
-0.1811023622050104
 31
0.0
  0
LINE
  5
28B
330
281
100
AcDbEntity
  8
TB
 62
     0
100
AcDbLine
 10
0.098425196850396
 20
0.0
 30
0.0
 11
0.1811023622050148
 21
0.0
 31
0.0
  0
ENDBLK
  5
283
330
281
100
AcDbEntity
  8
0
100
AcDbBlockEnd
  0
BLOCK
  5
2F9
330
2F8
100
AcDbEntity
  8
0
100
AcDbBlockBegin
  2
_D_3
 70
     0
 10
0.0
 20
0.0
 30
0.0
  3
_D_3
  1

  0
SOLID
  5
2FB
330
2F8
100
AcDbEntity
  8
___2
100
AcDbTrace
 10
25.97951402999545
 20
15.84354375177151
 30
0.0
 11
25.92234756364929
 21
15.47196172052151
 31
0.0
 12
26.0366804963416
 22
15.47196172052151
 32
0.0
 13
26.0366804963416
 23
15.47196172052151
 33
0.0
  0
SOLID
  5
2FC
330
2F8
100
AcDbEntity
  8
___2
100
AcDbTrace
 10
25.97951402999545
 20
3.985276035236076
 30
0.0
 11
26.0366804963416
 21
4.356858066486076
 31
0.0
 12
25.92234756364929
 22
4.356858066486076
 32
0.0
 13
25.92234756364929
 23
4.356858066486076
 33
0.0
  0
LINE
  5
2FD
330
2F8
100
AcDbEntity
  8
___2
100
AcDbLine
 10
24.78871541620266
 20
8.757616657489368
 30
0.0
 11
24.78871541620266
 21
8.668206931191486
 31
0.0
  0
LINE
  5
2FE
330
2F8
100
AcDbEntity
  8
___2
100
AcDbLine
 10
24.78871541620266
 20
8.668206931191486
 30
0.0
 11
25.39010431890674
 21
8.668206931191492
 31
0.0
  0
LINE
  5
2FF
330
2F8
100
AcDbEntity
  8
___2
100
AcDbLine
 10
25.39010431890674
 20
8.668206931191492
 30
0.0
 11
25.39010431890674
 21
8.75761665748937
 31
0.0
  0
LINE
  5
300
330
2F8
100
AcDbEntity
  8
___2
100
AcDbLine
 10
24.78871541620264
 20
10.95266874506034
 30
0.0
 11
24.78871541620264
 21
11.04207847135822
 31
0.0
  0
LINE
  5
301
330
2F8
100
AcDbEntity
  8
___2
100
AcDbLine
 10
24.78871541620264
 20
11.04207847135822
 30
0.0
 11
25.39010431890672
 21
11.04207847135822
 31
0.0
  0
LINE
  5
302
330
2F8
100
AcDbEntity
  8
___2
100
AcDbLine
 10
25.39010431890672
 20
11.04207847135822
 30
0.0
 11
25.39010431890672
 21
10.95266874506034
 31
0.0
  0
LINE
  5
303
330
2F8
100
AcDbEntity
  8
___2
100
AcDbLine
 10
24.36388682367485
 20
15.84354375177151
 30
0.0
 11
26.05825418747576
 21
15.84354375177151
 31
0.0
  0
LINE
  5
304
330
2F8
100
AcDbEntity
  8
___2
100
AcDbLine
 10
24.36388682367485
 20
3.985276035236076
 30
0.0
 11
26.05825418747576
 21
3.985276035236076
 31
0.0
  0
LINE
  5
305
330
2F8
100
AcDbEntity
  8
___2
100
AcDbLine
 10
25.97951402999545
 20
15.84354375177151
 30
0.0
 11
25.97951402999545
 21
3.985276035236076
 31
0.0
  0
MTEXT
  5
306
330
2F8
100
AcDbEntity
  8
___2
100
AcDbMText
 10
24.90670391649225
 20
8.869378822236637
 30
0.0
 40
0.3749999999999999
 41
0.0
 71
     1
 72
     1
  1
301.20
  7
SLDTEXTSTYLE0
 11
-7.000000000000000E-15
 21
1.0
 31
0.0
 73
     1
 44
1.0
  0
MTEXT
  5
307
330
2F8
100
AcDbEntity
  8
___2
100
AcDbMText
 10
25.49611366424721
 20
9.048198183166793
 30
0.0
 40
0.3749999999999999
 41
0.0
 71
     1
 72
     1
  1
11.86
  7
SLDTEXTSTYLE0
 11
-7.000000000000000E-15
 21
1.0
 31
0.0
 73
     1
 44
1.0
  0
ENDBLK
  5
2FA
330
2F8
100
AcDbEntity
  8
0
100
AcDbBlockEnd
  0
BLOCK
  5
30A
330
309
100
AcDbEntity
  8
0
100
AcDbBlockBegin
  2
_D_4
 70
     0
 10
0.0
 20
0.0
 30
0.0
  3
_D_4
  1

  0
SOLID
  5
30C
330
309
100
AcDbEntity
  8
___2
100
AcDbTrace
 10
12.54441503000607
 20
2.644665224223065
 30
0.0
 11
12.91599706125607
 21
2.587498757876911
 31
0.0
 12
12.91599706125607
 22
2.701831690569219
 32
0.0
 13
12.91599706125607
 23
2.701831690569219
 33
0.0
  0
SOLID
  5
30D
330
309
100
AcDbEntity
  8
___2
100
AcDbTrace
 10
24.40268274654151
 20
2.644665224223065
 30
0.0
 11
24.03110071529151
 21
2.701831690569219
 31
0.0
 12
24.03110071529151
 22
2.587498757876911
 32
0.0
 13
24.03110071529151
 23
2.587498757876911
 33
0.0
  0
LINE
  5
30E
330
309
100
AcDbEntity
  8
___2
100
AcDbLine
 10
17.43129545597145
 20
3.835463838015864
 30
0.0
 11
17.34188572967357
 21
3.835463838015864
 31
0.0
  0
LINE
  5
30F
330
309
100
AcDbEntity
  8
___2
100
AcDbLine
 10
17.34188572967357
 20
3.835463838015864
 30
0.0
 11
17.34188572967357
 21
3.234074935311785
 31
0.0
  0
LINE
  5
310
330
309
100
AcDbEntity
  8
___2
100
AcDbLine
 10
17.34188572967357
 20
3.234074935311785
 30
0.0
 11
17.43129545597145
 21
3.234074935311785
 31
0.0
  0
LINE
  5
311
330
309
100
AcDbEntity
  8
___2
100
AcDbLine
 10
19.62634754354243
 20
3.835463838015864
 30
0.0
 11
19.7157572698403
 21
3.835463838015864
 31
0.0
  0
LINE
  5
312
330
309
100
AcDbEntity
  8
___2
100
AcDbLine
 10
19.7157572698403
 20
3.835463838015864
 30
0.0
 11
19.7157572698403
 21
3.234074935311785
 31
0.0
  0
LINE
  5
313
330
309
100
AcDbEntity
  8
___2
100
AcDbLine
 10
19.7157572698403
 20
3.234074935311785
 30
0.0
 11
19.62634754354243
 21
3.234074935311785
 31
0.0
  0
LINE
  5
314
330
309
100
AcDbEntity
  8
___2
100
AcDbLine
 10
12.54441503000607
 20
4.024071958102723
 30
0.0
 11
12.54441503000607
 21
2.56592506674275
 31
0.0
  0
LINE
  5
315
330
309
100
AcDbEntity
  8
___2
100
AcDbLine
 10
24.40268274654151
 20
4.024071958102723
 30
0.0
 11
24.40268274654151
 21
2.56592506674275
 31
0.0
  0
LINE
  5
316
330
309
100
AcDbEntity
  8
___2
100
AcDbLine
 10
12.54441503000607
 20
2.644665224223065
 30
0.0
 11
24.40268274654151
 21
2.644665224223065
 31
0.0
  0
MTEXT
  5
317
330
309
100
AcDbEntity
  8
___2
100
AcDbMText
 10
17.54305762071872
 20
3.717475337726273
 30
0.0
 40
0.3749999999999999
 41
0.0
 71
     1
 72
     1
  1
301.20
  7
SLDTEXTSTYLE0
 73
     1
 44
1.0
  0
MTEXT
  5
318
330
309
100
AcDbEntity
  8
___2
100
AcDbMText
 10
17.72187698164887
 20
3.128065589971308
 30
0.0
 40
0.3749999999999999
 41
0.0
 71
     1
 72
     1
  1
11.86
  7
SLDTEXTSTYLE0
 73
     1
 44
1.0
  0
ENDBLK
  5
30B
330
309
100
AcDbEntity
  8
0
100
AcDbBlockEnd
  0
ENDSEC
  0
SECTION
  2
ENTITIES
  0
HATCH
  5
85
330
1F
100
AcDbEntity
  8
TB
100
AcDbHatch
 10
0.0
 20
0.0
 30
0.0
210
0.0
220
0.0
230
1.0
  2
SOLID
 70
     1
 71
     0
 91
        1
 92
        0
 93
        4
 72
     1
 10
42.92916530087611
 20
3.996260201342923
 11
42.92916530087611
 21
5.096260201342924
 72
     1
 10
42.92916530087611
 20
5.096260201342924
 11
41.8291653008761
 21
5.096260201342924
 72
     1
 10
41.8291653008761
 20
5.096260201342924
 11
41.8291653008761
 21
3.996260201342923
 72
     1
 10
41.8291653008761
 20
3.996260201342923
 11
42.92916530087611
 21
3.996260201342923
 97
        0
 75
     0
 76
     1
 98
        1
 10
0.0
 20
0.0
  0
HATCH
  5
86
330
1F
100
AcDbEntity
  8
TB
100
AcDbHatch
 10
0.0
 20
0.0
 30
0.0
210
0.0
220
0.0
230
1.0
  2
SOLID
 70
     1
 71
     0
 91
        1
 92
        0
 93
        4
 72
     1
 10
43.66916530087612
 20
3.256260201342921
 11
43.66916530087612
 21
3.996260201342923
 72
     1
 10
43.66916530087612
 20
3.996260201342923
 11
42.92916530087611
 21
3.996260201342923
 72
     1
 10
42.92916530087611
 20
3.996260201342923
 11
42.92916530087611
 21
3.256260201342921
 72
     1
 10
42.92916530087611
 20
3.256260201342921
 11
43.66916530087612
 21
3.256260201342921
 97
        0
 75
     0
 76
     1
 98
        1
 10
0.0
 20
0.0
  0
HATCH
  5
87
330
1F
100
AcDbEntity
  8
TB
100
AcDbHatch
 10
0.0
 20
0.0
 30
0.0
210
0.0
220
0.0
230
1.0
  2
SOLID
 70
     1
 71
     0
 91
        1
 92
        0
 93
        4
 72
     1
 10
44.03916530087611
 20
2.886260201342921
 11
44.03916530087611
 21
3.256260201342921
 72
     1
 10
44.03916530087611
 20
3.256260201342921
 11
43.66916530087612
 21
3.256260201342921
 72
     1
 10
43.66916530087612
 20
3.256260201342921
 11
43.66916530087612
 21
2.886260201342921
 72
     1
 10
43.66916530087612
 20
2.886260201342921
 11
44.03916530087611
 21
2.886260201342921
 97
        0
 75
     0
 76
     1
 98
        1
 10
0.0
 20
0.0
  0
LINE
  5
8E
330
1F
100
AcDbEntity
  8
____2
100
AcDbLine
 10
3.949165300876109
 20
31.19626020134292
 30
0.0
 11
41.3391653008761
 21
31.19626020134292
 31
0.0
  0
LINE
  5
8F
330
1F
100
AcDbEntity
  8
____2
100
AcDbLine
 10
2.699165300876107
 20
29.94626020134292
 30
0.0
 11
2.69916530087611
 21
3.436260201342924
 31
0.0
  0
LINE
  5
90
330
1F
100
AcDbEntity
  8
____2
100
AcDbLine
 10
3.949165300876111
 20
2.186260201342925
 30
0.0
 11
41.3391653008761
 21
2.186260201342925
 31
0.0
  0
LINE
  5
91
330
1F
100
AcDbEntity
  8
____2
100
AcDbLine
 10
44.33916530087609
 20
3.436260201342924
 30
0.0
 11
44.3391653008761
 21
29.94626020134293
 31
0.0
  0
LINE
  5
92
330
1F
100
AcDbEntity
  8
____2
100
AcDbLine
 10
41.6491653008761
 20
31.19626020134292
 30
0.0
 11
41.6491653008761
 21
2.186260201342925
 31
0.0
  0
LINE
  5
93
330
1F
100
AcDbEntity
  8
____2
100
AcDbLine
 10
41.3391653008761
 20
31.19626020134292
 30
0.0
 11
41.3391653008761
 21
2.186260201342925
 31
0.0
  0
LINE
  5
94
330
1F
100
AcDbEntity
  8
____2
100
AcDbLine
 10
41.6491653008761
 20
2.186260201342925
 30
0.0
 11
43.08916530087609
 21
2.186260201342925
 31
0.0
  0
LINE
  5
95
330
1F
100
AcDbEntity
  8
TB
100
AcDbLine
 10
41.6491653008761
 20
2.186260201342925
 30
0.0
 11
43.08916530087609
 21
2.186260201342925
 31
0.0
  0
LINE
  5
96
330
1F
100
AcDbEntity
  8
____2
100
AcDbLine
 10
41.6491653008761
 20
31.19626020134292
 30
0.0
 11
43.08916530087609
 21
31.19626020134293
 31
0.0
  0
LINE
  5
97
330
1F
100
AcDbEntity
  8
____2
100
AcDbLine
 10
41.6491653008761
 20
16.74626020134292
 30
0.0
 11
44.33916530087609
 21
16.74626020134292
 31
0.0
  0
LINE
  5
A5
330
1F
100
AcDbEntity
  8
SLD-0
100
AcDbLine
 10
41.8291653008761
 20
5.096260201342924
 30
0.0
 11
42.92916530087611
 21
5.096260201342924
 31
0.0
  0
LINE
  5
A6
330
1F
100
AcDbEntity
  8
SLD-0
100
AcDbLine
 10
41.8291653008761
 20
5.096260201342924
 30
0.0
 11
41.8291653008761
 21
3.996260201342923
 31
0.0
  0
LINE
  5
A7
330
1F
100
AcDbEntity
  8
SLD-0
100
AcDbLine
 10
41.8291653008761
 20
3.996260201342923
 30
0.0
 11
42.92916530087611
 21
3.996260201342923
 31
0.0
  0
LINE
  5
A8
330
1F
100
AcDbEntity
  8
SLD-0
100
AcDbLine
 10
42.92916530087611
 20
5.096260201342924
 30
0.0
 11
42.92916530087611
 21
3.996260201342923
 31
0.0
  0
LINE
  5
A9
330
1F
100
AcDbEntity
  8
SLD-0
100
AcDbLine
 10
42.92916530087611
 20
3.996260201342923
 30
0.0
 11
43.66916530087612
 21
3.996260201342923
 31
0.0
  0
LINE
  5
AA
330
1F
100
AcDbEntity
  8
SLD-0
100
AcDbLine
 10
42.92916530087611
 20
3.996260201342923
 30
0.0
 11
42.92916530087611
 21
3.256260201342921
 31
0.0
  0
LINE
  5
AB
330
1F
100
AcDbEntity
  8
SLD-0
100
AcDbLine
 10
42.92916530087611
 20
3.256260201342921
 30
0.0
 11
43.66916530087612
 21
3.256260201342921
 31
0.0
  0
LINE
  5
AC
330
1F
100
AcDbEntity
  8
SLD-0
100
AcDbLine
 10
43.66916530087612
 20
3.996260201342923
 30
0.0
 11
43.66916530087612
 21
3.256260201342921
 31
0.0
  0
LINE
  5
AD
330
1F
100
AcDbEntity
  8
SLD-0
100
AcDbLine
 10
43.66916530087612
 20
3.256260201342921
 30
0.0
 11
44.03916530087611
 21
3.256260201342921
 31
0.0
  0
LINE
  5
AE
330
1F
100
AcDbEntity
  8
SLD-0
100
AcDbLine
 10
43.66916530087612
 20
3.256260201342921
 30
0.0
 11
43.66916530087612
 21
2.886260201342921
 31
0.0
  0
LINE
  5
AF
330
1F
100
AcDbEntity
  8
SLD-0
100
AcDbLine
 10
43.66916530087612
 20
2.886260201342921
 30
0.0
 11
44.03916530087611
 21
2.886260201342921
 31
0.0
  0
LINE
  5
B0
330
1F
100
AcDbEntity
  8
SLD-0
100
AcDbLine
 10
44.03916530087611
 20
3.256260201342921
 30
0.0
 11
44.03916530087611
 21
2.886260201342921
 31
0.0
  0
LINE
  5
FA
330
1F
100
AcDbEntity
  8
SLD-0
100
AcDbLine
 10
43.6591653008761
 20
16.74626020134292
 30
0.0
 11
43.6591653008761
 21
20.55626020134293
 31
0.0
  0
LINE
  5
FB
330
1F
100
AcDbEntity
  8
SLD-0
100
AcDbLine
 10
43.6591653008761
 20
20.55626020134293
 30
0.0
 11
44.3391653008761
 21
20.55626020134293
 31
0.0
  0
LINE
  5
FC
330
1F
100
AcDbEntity
  8
SLD-0
100
AcDbLine
 10
43.6591653008761
 20
20.55626020134293
 30
0.0
 11
42.9791653008761
 21
20.55626020134293
 31
0.0
  0
LINE
  5
FD
330
1F
100
AcDbEntity
  8
SLD-0
100
AcDbLine
 10
42.9791653008761
 20
20.55626020134293
 30
0.0
 11
42.9791653008761
 21
16.74626020134292
 31
0.0
  0
LINE
  5
FE
330
1F
100
AcDbEntity
  8
SLD-0
100
AcDbLine
 10
43.6591653008761
 20
20.55626020134293
 30
0.0
 11
43.6591653008761
 21
24.36626020134293
 31
0.0
  0
LINE
  5
FF
330
1F
100
AcDbEntity
  8
SLD-0
100
AcDbLine
 10
43.6591653008761
 20
24.36626020134293
 30
0.0
 11
44.3391653008761
 21
24.36626020134293
 31
0.0
  0
LINE
  5
100
330
1F
100
AcDbEntity
  8
TB
100
AcDbLine
 10
43.6591653008761
 20
24.36626020134293
 30
0.0
 11
44.3391653008761
 21
24.36626020134293
 31
0.0
  0
LINE
  5
101
330
1F
100
AcDbEntity
  8
SLD-0
100
AcDbLine
 10
42.9791653008761
 20
20.55626020134293
 30
0.0
 11
42.9791653008761
 21
24.36626020134293
 31
0.0
  0
LINE
  5
102
330
1F
100
AcDbEntity
  8
SLD-0
100
AcDbLine
 10
42.9791653008761
 20
24.36626020134293
 30
0.0
 11
43.6591653008761
 21
24.36626020134293
 31
0.0
  0
LINE
  5
103
330
1F
100
AcDbEntity
  8
SLD-0
100
AcDbLine
 10
42.9791653008761
 20
24.36626020134293
 30
0.0
 11
42.9791653008761
 21
28.86626020134293
 31
0.0
  0
LINE
  5
104
330
1F
100
AcDbEntity
  8
SLD-0
100
AcDbLine
 10
42.9791653008761
 20
28.86626020134293
 30
0.0
 11
44.3391653008761
 21
28.86626020134293
 31
0.0
  0
LINE
  5
105
330
1F
100
AcDbEntity
  8
SLD-0
100
AcDbLine
 10
42.9791653008761
 20
28.86626020134293
 30
0.0
 11
42.9791653008761
 21
31.19626020134293
 31
0.0
  0
ARC
  5
106
330
1F
100
AcDbEntity
  8
____2
100
AcDbCircle
 10
3.949165300876109
 20
29.94626020134292
 30
0.0
 40
1.250000000000001
100
AcDbArc
 50
90.0
 51
180.0
  0
ARC
  5
107
330
1F
100
AcDbEntity
  8
____2
100
AcDbCircle
 10
43.08916530087609
 20
3.436260201342924
 30
0.0
 40
1.25
100
AcDbArc
 50
270.0000000000008
 51
0.0
  0
ARC
  5
108
330
1F
100
AcDbEntity
  8
____2
100
AcDbCircle
 10
43.08916530087609
 20
29.94626020134293
 30
0.0
 40
1.250000000000007
100
AcDbArc
 50
0.0
 51
90.0
  0
ARC
  5
109
330
1F
100
AcDbEntity
  8
____2
100
AcDbCircle
 10
3.949165300876111
 20
3.436260201342924
 30
0.0
 40
1.25
100
AcDbArc
 50
180.0
 51
270.0000000000008
  0
MTEXT
  5
111
330
1F
100
AcDbEntity
  8
___2
100
AcDbMText
 10
8.891742373464357
 20
30.07219214376818
 30
0.0
 40
0.5
 41
0.0
 71
     1
 72
     1
  1
FRONT
  7
SLDTEXTSTYLE0
 73
     1
 44
1.0
  0
MTEXT
  5
112
330
1F
100
AcDbEntity
  8
___2
100
AcDbMText
 10
24.19668905943697
 20
30.12853286203061
 30
0.0
 40
0.5
 41
0.0
 71
     1
 72
     1
  1
BACK
  7
SLDTEXTSTYLE0
 73
     1
 44
1.0
  0
MTEXT
  5
113
330
1F
100
AcDbEntity
  8
___2
100
AcDbMText
 10
34.83696644689287
 20
30.07219207043568
 30
0.0
 40
0.5
 41
0.0
 71
     1
 72
     1
  1
HEIGHT
  7
SLDTEXTSTYLE0
 73
     1
 44
1.0
  0
MTEXT
  5
114
330
1F
100
AcDbEntity
  8
___2
100
AcDbMText
 10
16.91404373867562
 20
16.65528927088276
 30
0.0
 40
0.5
 41
0.0
 71
     1
 72
     1
  1
GRILLE
  7
SLDTEXTSTYLE0
 73
     1
 44
1.0
  0
MTEXT
  5
115
330
1F
100
AcDbEntity
  8
___2
100
AcDbMText
 10
32.51977682079033
 20
15.76634749102382
 30
0.0
 40
0.5
 41
0.0
 71
     1
 72
     1
  1
ISOMETRIC
  7
SLDTEXTSTYLE0
 73
     1
 44
1.0
  0
MTEXT
  5
138
330
1F
100
AcDbEntity
  8
___1
100
AcDbMText
 10
43.21237501613085
 20
16.88827085896353
 30
0.0
 40
0.2291666666666666
 41
0.0
 71
     1
 72
     1
  1
SCALE: 1:1
  7
SLDTEXTSTYLE0
 11
-3.500000000000000E-15
 21
1.0
 31
0.0
 73
     1
 44
1.0
  0
MTEXT
  5
13A
330
1F
100
AcDbEntity
  8
___1
100
AcDbMText
 10
43.90746955143128
 20
16.84523522550028
 30
0.0
 40
0.2291666666666666
 41
0.0
 71
     1
 72
     1
  1
SHEET:    OF
  7
SLDTEXTSTYLE3
 11
-3.500000000000000E-15
 21
1.0
 31
0.0
 73
     1
 44
1.0
  0
MTEXT
  5
13B
330
1F
100
AcDbEntity
  8
___1
100
AcDbMText
 10
43.22368571594016
 20
20.65379389348209
 30
0.0
 40
0.2291666666666666
 41
0.0
 71
     1
 72
     1
  1
DRAWN BY:
  7
SLDTEXTSTYLE0
 11
-3.500000000000000E-15
 21
1.0
 31
0.0
 73
     1
 44
1.0
  0
MTEXT
  5
13C
330
1F
100
AcDbEntity
  8
___1
100
AcDbMText
 10
43.9426919388163
 20
20.6670701562858
 30
0.0
 40
0.2291666666666666
 41
0.0
 71
     1
 72
     1
  1
RELEASED ON:
  7
SLDTEXTSTYLE0
 11
-3.500000000000000E-15
 21
1.0
 31
0.0
 73
     1
 44
1.0
  0
MTEXT
  5
13D
330
1F
100
AcDbEntity
  8
___1
100
AcDbMText
 10
43.21429180739349
 20
24.59041238867258
 30
0.0
 40
0.2291666666666666
 41
0.0
 71
     1
 72
     1
  1
DRWN - PART NUMBER
  7
SLDTEXTSTYLE0
 11
-3.500000000000000E-15
 21
1.0
 31
0.0
 73
     1
 44
1.0
  0
MTEXT
  5
13E
330
1F
100
AcDbEntity
  8
___1
100
AcDbMText
 10
43.18714463181906
 20
29.43675180571108
 30
0.0
 40
0.2291666666666666
 41
0.0
 71
     1
 72
     1
  1
REV.
  7
SLDTEXTSTYLE0
 11
-3.500000000000000E-15
 21
1.0
 31
0.0
 73
     1
 44
1.0
  0
MTEXT
  5
13F
330
1F
100
AcDbEntity
  8
___1
100
AcDbMText
 10
42.07851763228806
 20
19.20617946541411
 30
0.0
 40
0.3749999999999999
 41
0.0
 71
     1
 72
     1
  1
VP EXTREME 8'' Square Adaptor
  7
SLDTEXTSTYLE0
 11
-3.500000000000000E-15
 21
1.0
 31
0.0
 73
     1
 44
1.0
  0
LINE
  5
140
330
1F
100
AcDbEntity
  8
0
  6
Continuous
 62
     7
100
AcDbLine
 10
15.31203698245199
 20
18.18253368828267
 30
0.0
 11
15.31203698245199
 21
22.44434471190472
 31
0.0
  0
LINE
  5
141
330
1F
100
AcDbEntity
  8
0
  6
Continuous
 62
     7
100
AcDbLine
 10
15.31203698245199
 20
22.44434471190472
 30
0.0
 11
15.35140706119215
 21
22.44434471190472
 31
0.0
  0
LINE
  5
142
330
1F
100
AcDbEntity
  8
0
  6
Continuous
 62
     7
100
AcDbLine
 10
15.35140706119215
 20
22.44434471190472
 30
0.0
 11
15.35140706119215
 21
18.18253368828267
 31
0.0
  0
LINE
  5
143
330
1F
100
AcDbEntity
  8
0
  6
Continuous
 62
     7
100
AcDbLine
 10
15.31203698245199
 20
18.18253368828267
 30
0.0
 11
15.35140706119215
 21
18.18253368828267
 31
0.0
  0
CIRCLE
  5
144
330
1F
100
AcDbEntity
  8
0
  6
Continuous
 62
     7
100
AcDbCircle
 10
14.60337556512943
 20
18.85182502686535
 30
0.0
 40
0.0826771653542639
  0
CIRCLE
  5
145
330
1F
100
AcDbEntity
  8
0
  6
Continuous
 62
     7
100
AcDbCircle
 10
14.60337556512943
 20
18.85182502686535
 30
0.0
 40
0.1614173228345788
  0
LINE
  5
146
330
1F
100
AcDbEntity
  8
0
  6
Continuous
 62
     7
100
AcDbLine
 10
8.648651155680342
 20
29.10773053867638
 30
0.0
 11
4.386840132058293
 21
29.10773053867638
 31
0.0
  0
ARC
  5
147
330
1F
100
AcDbEntity
  8
0
  6
Continuous
 62
     7
100
AcDbCircle
 10
9.829753517885068
 20
23.62544707410945
 30
0.0
 40
5.535433070866148
100
AcDbArc
 50
102.3199905854467
 51
167.6800094145533
  0
LINE
  5
148
330
1F
100
AcDbEntity
  8
0
  6
Continuous
 62
     7
100
AcDbLine
 10
4.347470053318134
 20
29.06836045993622
 30
0.0
 11
4.347470053318134
 21
24.80654943631417
 31
0.0
  0
ARC
  5
149
330
1F
100
AcDbEntity
  8
0
  6
Continuous
 62
     7
100
AcDbCircle
 10
4.386840132058293
 20
29.06836045993622
 30
0.0
 40
0.0393700787401627
100
AcDbArc
 50
90.0
 51
180.0
  0
CIRCLE
  5
14A
330
1F
100
AcDbEntity
  8
0
  6
Continuous
 62
     7
100
AcDbCircle
 10
4.741170840719712
 20
28.71402975127451
 30
0.0
 40
0.2401574803152657
  0
CIRCLE
  5
14B
330
1F
100
AcDbEntity
  8
0
  6
Continuous
 62
     7
100
AcDbCircle
 10
5.056131470640971
 20
28.39906912135327
 30
0.0
 40
0.161417322834934
  0
LINE
  5
14C
330
1F
100
AcDbEntity
  8
0
  6
Continuous
 62
     7
100
AcDbLine
 10
4.421794892670459
 20
24.80654943631417
 30
0.0
 11
4.347470053318134
 21
24.80654943631417
 31
0.0
  0
LINE
  5
14D
330
1F
100
AcDbEntity
  8
0
  6
Continuous
 62
     7
100
AcDbLine
 10
8.648651155680342
 20
29.10773053867638
 30
0.0
 11
8.648651155680342
 21
29.03340569932405
 31
0.0
  0
LINE
  5
14E
330
1F
100
AcDbEntity
  8
0
  6
Continuous
 62
     7
100
AcDbLine
 10
4.347470053318138
 20
22.44434471190472
 30
0.0
 11
4.347470053318139
 21
18.18253368828267
 31
0.0
  0
LINE
  5
14F
330
1F
100
AcDbEntity
  8
0
  6
Continuous
 62
     7
100
AcDbLine
 10
8.648651155680342
 20
18.21748844889484
 30
0.0
 11
8.648651155680342
 21
18.14316360954251
 31
0.0
  0
LINE
  5
150
330
1F
100
AcDbEntity
  8
0
  6
Continuous
 62
     7
100
AcDbLine
 10
4.386840132058293
 20
18.14316360954252
 30
0.0
 11
8.648651155680342
 21
18.14316360954251
 31
0.0
  0
ARC
  5
151
330
1F
100
AcDbEntity
  8
0
  6
Continuous
 62
     7
100
AcDbCircle
 10
4.386840132058293
 20
18.18253368828267
 30
0.0
 40
0.0393700787401592
100
AcDbArc
 50
180.0
 51
270.0000000000008
  0
CIRCLE
  5
152
330
1F
100
AcDbEntity
  8
0
  6
Continuous
 62
     7
100
AcDbCircle
 10
4.741170840719996
 20
18.53686439694381
 30
0.0
 40
0.2401574803151751
  0
CIRCLE
  5
153
330
1F
100
AcDbEntity
  8
0
  6
Continuous
 62
     7
100
AcDbCircle
 10
5.05613147064124
 20
18.85182502686507
 30
0.0
 40
0.1614173228348461
  0
ARC
  5
154
330
1F
100
AcDbEntity
  8
0
  6
Continuous
 62
     7
100
AcDbCircle
 10
9.829753517885068
 20
23.62544707410945
 30
0.0
 40
5.535433070866148
100
AcDbArc
 50
192.3199905854475
 51
257.6800094145541
  0
LINE
  5
155
330
1F
100
AcDbEntity
  8
0
  6
Continuous
 62
     7
100
AcDbLine
 10
4.347470053318138
 20
22.44434471190472
 30
0.0
 11
4.421794892670459
 21
22.44434471190472
 31
0.0
  0
LINE
  5
156
330
1F
100
AcDbEntity
  8
0
  6
Continuous
 62
     7
100
AcDbLine
 10
11.01085588008979
 20
18.14316360954252
 30
0.0
 11
15.27266690371184
 21
18.14316360954252
 31
0.0
  0
LINE
  5
157
330
1F
100
AcDbEntity
  8
0
  6
Continuous
 62
     7
100
AcDbLine
 10
11.01085588008979
 20
18.14316360954252
 30
0.0
 11
11.01085588008979
 21
18.21748844889484
 31
0.0
  0
ARC
  5
158
330
1F
100
AcDbEntity
  8
0
  6
Continuous
 62
     7
100
AcDbCircle
 10
15.27266690371184
 20
18.18253368828267
 30
0.0
 40
0.0393700787401592
100
AcDbArc
 50
270.0000000000008
 51
0.0
  0
CIRCLE
  5
159
330
1F
100
AcDbEntity
  8
0
  6
Continuous
 62
     7
100
AcDbCircle
 10
14.9183361950507
 20
18.53686439694409
 30
0.0
 40
0.2401574803148918
  0
ARC
  5
15A
330
1F
100
AcDbEntity
  8
0
  6
Continuous
 62
     7
100
AcDbCircle
 10
9.829753517885068
 20
23.62544707410945
 30
0.0
 40
5.535433070866148
100
AcDbArc
 50
282.3199905854476
 51
347.6800094145541
  0
LINE
  5
15B
330
1F
100
AcDbEntity
  8
0
  6
Continuous
 62
     7
100
AcDbLine
 10
15.23771214309967
 20
22.44434471190472
 30
0.0
 11
15.31203698245199
 21
22.44434471190472
 31
0.0
  0
LINE
  5
15C
330
1F
100
AcDbEntity
  8
0
  6
Continuous
 62
     7
100
AcDbLine
 10
15.312036982452
 20
24.80654943631417
 30
0.0
 11
15.312036982452
 21
29.06836045993622
 31
0.0
  0
LINE
  5
15D
330
1F
100
AcDbEntity
  8
0
  6
Continuous
 62
     7
100
AcDbLine
 10
11.01085588008979
 20
29.03340569932405
 30
0.0
 11
11.01085588008979
 21
29.10773053867638
 31
0.0
  0
LINE
  5
15E
330
1F
100
AcDbEntity
  8
0
  6
Continuous
 62
     7
100
AcDbLine
 10
15.27266690371184
 20
29.10773053867638
 30
0.0
 11
11.01085588008979
 21
29.10773053867638
 31
0.0
  0
ARC
  5
15F
330
1F
100
AcDbEntity
  8
0
  6
Continuous
 62
     7
100
AcDbCircle
 10
15.27266690371184
 20
29.06836045993622
 30
0.0
 40
0.0393700787401627
100
AcDbArc
 50
0.0
 51
90.0
  0
CIRCLE
  5
160
330
1F
100
AcDbEntity
  8
0
  6
Continuous
 62
     7
100
AcDbCircle
 10
14.60337556512916
 20
28.39906912135354
 30
0.0
 40
0.1614173228346463
  0
ARC
  5
161
330
1F
100
AcDbEntity
  8
0
  6
Continuous
 62
     7
100
AcDbCircle
 10
9.829753517885068
 20
23.62544707410945
 30
0.0
 40
5.535433070866146
100
AcDbArc
 50
12.31999058544675
 51
77.68000941455328
  0
CIRCLE
  5
162
330
1F
100
AcDbEntity
  8
0
  6
Continuous
 62
     7
100
AcDbCircle
 10
14.91833619505042
 20
28.7140297512748
 30
0.0
 40
0.2401574803149593
  0
LINE
  5
163
330
1F
100
AcDbEntity
  8
0
  6
Continuous
 62
     7
100
AcDbLine
 10
15.312036982452
 20
24.80654943631417
 30
0.0
 11
15.23771214309967
 21
24.80654943631417
 31
0.0
  0
LINE
  5
164
330
1F
100
AcDbEntity
  8
0
  6
Continuous
 62
     7
100
AcDbLine
 10
4.347470053318134
 20
29.06836045993622
 30
0.0
 11
4.30809997457798
 21
29.06836045993622
 31
0.0
  0
ARC
  5
165
330
1F
100
AcDbEntity
  8
0
  6
Continuous
 62
     7
100
AcDbCircle
 10
4.386840132058293
 20
29.06836045993622
 30
0.0
 40
0.0787401574803148
100
AcDbArc
 50
90.0
 51
180.0
  0
LINE
  5
166
330
1F
100
AcDbEntity
  8
0
  6
Continuous
 62
     7
100
AcDbLine
 10
4.386840132058293
 20
29.10773053867638
 30
0.0
 11
4.386840132058293
 21
29.14710061741653
 31
0.0
  0
LINE
  5
167
330
1F
100
AcDbEntity
  8
0
  6
Continuous
 62
     7
100
AcDbLine
 10
4.30809997457798
 20
24.80654943631417
 30
0.0
 11
4.30809997457798
 21
29.06836045993622
 31
0.0
  0
LINE
  5
168
330
1F
100
AcDbEntity
  8
0
  6
Continuous
 62
     7
100
AcDbLine
 10
4.347470053318134
 20
24.80654943631417
 30
0.0
 11
4.30809997457798
 21
24.80654943631417
 31
0.0
  0
LINE
  5
169
330
1F
100
AcDbEntity
  8
0
  6
Continuous
 62
     7
100
AcDbLine
 10
15.312036982452
 20
29.06836045993622
 30
0.0
 11
15.35140706119215
 21
29.06836045993622
 31
0.0
  0
LINE
  5
16A
330
1F
100
AcDbEntity
  8
0
  6
Continuous
 62
     7
100
AcDbLine
 10
15.35140706119215
 20
29.06836045993622
 30
0.0
 11
15.35140706119215
 21
24.80654943631417
 31
0.0
  0
LINE
  5
16B
330
1F
100
AcDbEntity
  8
0
  6
Continuous
 62
     7
100
AcDbLine
 10
15.35140706119215
 20
24.80654943631417
 30
0.0
 11
15.312036982452
 21
24.80654943631417
 31
0.0
  0
LINE
  5
16C
330
1F
100
AcDbEntity
  8
0
  6
Continuous
 62
     7
100
AcDbLine
 10
15.27266690371184
 20
29.10773053867638
 30
0.0
 11
15.27266690371184
 21
29.14710061741653
 31
0.0
  0
ARC
  5
16D
330
1F
100
AcDbEntity
  8
0
  6
Continuous
 62
     7
100
AcDbCircle
 10
15.27266690371184
 20
29.06836045993622
 30
0.0
 40
0.0787401574803148
100
AcDbArc
 50
0.0
 51
90.0
  0
LINE
  5
16E
330
1F
100
AcDbEntity
  8
0
  6
Continuous
 62
     7
100
AcDbLine
 10
11.01085588008979
 20
29.14710061741653
 30
0.0
 11
15.27266690371184
 21
29.14710061741653
 31
0.0
  0
LINE
  5
16F
330
1F
100
AcDbEntity
  8
0
  6
Continuous
 62
     7
100
AcDbLine
 10
11.01085588008979
 20
29.10773053867638
 30
0.0
 11
11.01085588008979
 21
29.14710061741653
 31
0.0
  0
ARC
  5
170
330
1F
100
AcDbEntity
  8
0
  6
Continuous
 62
     7
100
AcDbCircle
 10
15.27266690371184
 20
18.18253368828267
 30
0.0
 40
0.0787401574803148
100
AcDbArc
 50
270.0000000000008
 51
0.0
  0
LINE
  5
171
330
1F
100
AcDbEntity
  8
0
  6
Continuous
 62
     7
100
AcDbLine
 10
15.27266690371184
 20
18.14316360954252
 30
0.0
 11
15.27266690371184
 21
18.10379353080236
 31
0.0
  0
CIRCLE
  5
172
330
1F
100
AcDbEntity
  8
0
  6
Continuous
 62
     7
100
AcDbCircle
 10
14.60337556512916
 20
28.39906912135354
 30
0.0
 40
0.0826771653543314
  0
LINE
  5
173
330
1F
100
AcDbEntity
  8
0
  6
Continuous
 62
     7
100
AcDbLine
 10
4.386840132058293
 20
18.14316360954252
 30
0.0
 11
4.386840132058293
 21
18.10379353080236
 31
0.0
  0
ARC
  5
174
330
1F
100
AcDbEntity
  8
0
  6
Continuous
 62
     7
100
AcDbCircle
 10
4.386840132058293
 20
18.18253368828267
 30
0.0
 40
0.0787401574803148
100
AcDbArc
 50
180.0
 51
270.0000000000008
  0
LINE
  5
175
330
1F
100
AcDbEntity
  8
0
  6
Continuous
 62
     7
100
AcDbLine
 10
4.347470053318139
 20
18.18253368828267
 30
0.0
 11
4.30809997457798
 21
18.18253368828267
 31
0.0
  0
LINE
  5
176
330
1F
100
AcDbEntity
  8
0
  6
Continuous
 62
     7
100
AcDbLine
 10
4.386840132058293
 20
29.14710061741653
 30
0.0
 11
8.648651155680342
 21
29.14710061741653
 31
0.0
  0
LINE
  5
177
330
1F
100
AcDbEntity
  8
0
  6
Continuous
 62
     7
100
AcDbLine
 10
8.648651155680342
 20
29.14710061741653
 30
0.0
 11
8.648651155680342
 21
29.10773053867638
 31
0.0
  0
LINE
  5
178
330
1F
100
AcDbEntity
  8
0
  6
Continuous
 62
     7
100
AcDbLine
 10
15.27266690371184
 20
18.10379353080236
 30
0.0
 11
11.01085588008979
 21
18.10379353080236
 31
0.0
  0
LINE
  5
179
330
1F
100
AcDbEntity
  8
0
  6
Continuous
 62
     7
100
AcDbLine
 10
11.01085588008979
 20
18.10379353080236
 30
0.0
 11
11.01085588008979
 21
18.14316360954252
 31
0.0
  0
LINE
  5
17A
330
1F
100
AcDbEntity
  8
0
  6
Continuous
 62
     7
100
AcDbLine
 10
4.30809997457798
 20
18.18253368828267
 30
0.0
 11
4.30809997457798
 21
22.44434471190472
 31
0.0
  0
LINE
  5
17B
330
1F
100
AcDbEntity
  8
0
  6
Continuous
 62
     7
100
AcDbLine
 10
4.30809997457798
 20
22.44434471190472
 30
0.0
 11
4.347470053318138
 21
22.44434471190472
 31
0.0
  0
CIRCLE
  5
17C
330
1F
100
AcDbEntity
  8
0
  6
Continuous
 62
     7
100
AcDbCircle
 10
5.05613147064124
 20
18.85182502686507
 30
0.0
 40
0.0826771653545277
  0
CIRCLE
  5
17D
330
1F
100
AcDbEntity
  8
0
  6
Continuous
 62
     7
100
AcDbCircle
 10
5.056131470640971
 20
28.39906912135327
 30
0.0
 40
0.0826771653546192
  0
LINE
  5
17E
330
1F
100
AcDbEntity
  8
0
  6
Continuous
 62
     7
100
AcDbLine
 10
8.648651155680342
 20
18.10379353080236
 30
0.0
 11
4.386840132058293
 21
18.10379353080236
 31
0.0
  0
LINE
  5
17F
330
1F
100
AcDbEntity
  8
0
  6
Continuous
 62
     7
100
AcDbLine
 10
8.648651155680342
 20
18.14316360954251
 30
0.0
 11
8.648651155680342
 21
18.10379353080236
 31
0.0
  0
CIRCLE
  5
180
330
1F
100
AcDbEntity
  8
0
  6
Continuous
 62
     7
100
AcDbCircle
 10
9.829753517885068
 20
23.62544707410945
 30
0.0
 40
5.019685039369731
  0
LINE
  5
181
330
1F
100
AcDbEntity
  8
0
  6
Continuous
 62
     7
100
AcDbLine
 10
8.648651155680342
 20
29.14710061741653
 30
0.0
 11
11.01085588008979
 21
29.14710061741653
 31
0.0
  0
LINE
  5
182
330
1F
100
AcDbEntity
  8
0
  6
Continuous
 62
     7
100
AcDbLine
 10
11.01085588008979
 20
18.10379353080236
 30
0.0
 11
8.648651155680342
 21
18.10379353080236
 31
0.0
  0
LINE
  5
183
330
1F
100
AcDbEntity
  8
0
  6
Continuous
 62
     7
100
AcDbLine
 10
4.30809997457798
 20
22.44434471190472
 30
0.0
 11
4.30809997457798
 21
24.80654943631417
 31
0.0
  0
LINE
  5
184
330
1F
100
AcDbEntity
  8
0
  6
Continuous
 62
     7
100
AcDbLine
 10
15.35140706119215
 20
24.80654943631417
 30
0.0
 11
15.35140706119215
 21
22.44434471190472
 31
0.0
  0
CIRCLE
  5
185
330
1F
100
AcDbEntity
  8
0
  6
Continuous
 62
     7
100
AcDbCircle
 10
14.91833619505042
 20
28.7140297512748
 30
0.0
 40
0.2362204724409445
  0
CIRCLE
  5
186
330
1F
100
AcDbEntity
  8
0
  6
Continuous
 62
     7
100
AcDbCircle
 10
4.741170840719712
 20
28.71402975127451
 30
0.0
 40
0.2362204724409445
  0
CIRCLE
  5
187
330
1F
100
AcDbEntity
  8
0
  6
Continuous
 62
     7
100
AcDbCircle
 10
14.9183361950507
 20
18.53686439694409
 30
0.0
 40
0.2362204724409462
  0
CIRCLE
  5
188
330
1F
100
AcDbEntity
  8
0
  6
Continuous
 62
     7
100
AcDbCircle
 10
4.741170840719996
 20
18.53686439694381
 30
0.0
 40
0.2362204724409454
  0
DIMENSION
  5
189
330
1F
100
AcDbEntity
  8
___2
100
AcDbDimension
  2
_D
 10
16.68998973835751
 20
29.14710061741653
 30
0.0
 11
16.68998973835751
 21
23.44645738008076
 31
0.0
 70
   160
  1
<>
 71
     5
 42
-1.0
  3
SLDDIMSTYLE0
100
AcDbAlignedDimension
 13
15.27266690371184
 23
18.10379353080236
 33
0.0
 14
15.27266690371184
 24
29.14710061741653
 34
0.0
 50
90.00000000000021
100
AcDbRotatedDimension
  0
DIMENSION
  5
19B
330
1F
100
AcDbEntity
  8
___2
100
AcDbDimension
  2
_D_1
 10
15.35140706119215
 20
16.765210853637
 30
0.0
 11
10.08576811427522
 21
16.765210853637
 31
0.0
 70
   160
  1
<>
 71
     5
 42
-1.0
  3
SLDDIMSTYLE0
100
AcDbAlignedDimension
 13
4.30809997457798
 23
18.18253368828267
 33
0.0
 14
15.35140706119215
 24
18.18253368828267
 34
0.0
100
AcDbRotatedDimension
  0
INSERT
  5
1B7
330
1F
100
AcDbEntity
  8
TB
100
AcDbBlockReference
  2
SW_CENTERMARKSYMBOL_0
 10
4.741170840719996
 20
18.53686439694381
 30
0.0
  0
INSERT
  5
1C3
330
1F
100
AcDbEntity
  8
TB
100
AcDbBlockReference
  2
SW_CENTERMARKSYMBOL_1
 10
14.9183361950507
 20
18.53686439694409
 30
0.0
  0
INSERT
  5
1CF
330
1F
100
AcDbEntity
  8
TB
100
AcDbBlockReference
  2
SW_CENTERMARKSYMBOL_2
 10
14.91833619505042
 20
28.7140297512748
 30
0.0
  0
INSERT
  5
1DB
330
1F
100
AcDbEntity
  8
TB
100
AcDbBlockReference
  2
SW_CENTERMARKSYMBOL_3
 10
4.741170840719712
 20
28.71402975127451
 30
0.0
  0
INSERT
  5
1E7
330
1F
100
AcDbEntity
  8
___2
100
AcDbBlockReference
  2
SW_CENTERMARKSYMBOL_4
 10
9.829753517885068
 20
23.62544707410945
 30
0.0
  0
INSERT
  5
1F3
330
1F
100
AcDbEntity
  8
TB
100
AcDbBlockReference
  2
SW_CENTERMARKSYMBOL_5
 10
14.60337556512916
 20
28.39906912135354
 30
0.0
  0
INSERT
  5
1FF
330
1F
100
AcDbEntity
  8
TB
100
AcDbBlockReference
  2
SW_CENTERMARKSYMBOL_6
 10
14.60337556512943
 20
18.85182502686535
 30
0.0
  0
INSERT
  5
20B
330
1F
100
AcDbEntity
  8
TB
100
AcDbBlockReference
  2
SW_CENTERMARKSYMBOL_7
 10
5.05613147064124
 20
18.85182502686507
 30
0.0
  0
INSERT
  5
217
330
1F
100
AcDbEntity
  8
TB
100
AcDbBlockReference
  2
SW_CENTERMARKSYMBOL_8
 10
5.056131470640971
 20
28.39906912135327
 30
0.0
  0
LINE
  5
218
330
1F
100
AcDbEntity
  8
0
  6
Continuous
 62
     7
100
AcDbLine
 10
36.28205939467503
 20
29.06836045993622
 30
0.0
 11
36.20725624506873
 21
29.06836045993622
 31
0.0
  0
LINE
  5
219
330
1F
100
AcDbEntity
  8
0
  6
Continuous
 62
     7
100
AcDbLine
 10
36.28205939467503
 20
24.80654943631417
 30
0.0
 11
36.28205939467503
 21
29.06836045993622
 31
0.0
  0
LINE
  5
21A
330
1F
100
AcDbEntity
  8
0
  6
Continuous
 62
     7
100
AcDbLine
 10
36.24662632380889
 20
24.80654943631417
 30
0.0
 11
36.28205939467503
 21
24.80654943631417
 31
0.0
  0
LINE
  5
21B
330
1F
100
AcDbEntity
  8
0
  6
Continuous
 62
     7
100
AcDbLine
 10
36.28205939467503
 20
22.44434471190472
 30
0.0
 11
36.24662632380889
 21
22.44434471190472
 31
0.0
  0
LINE
  5
21C
330
1F
100
AcDbEntity
  8
0
  6
Continuous
 62
     7
100
AcDbLine
 10
36.28205939467503
 20
18.18253368828267
 30
0.0
 11
36.28205939467503
 21
22.44434471190472
 31
0.0
  0
LINE
  5
21D
330
1F
100
AcDbEntity
  8
0
  6
Continuous
 62
     7
100
AcDbLine
 10
36.20725624506873
 20
18.18253368828267
 30
0.0
 11
36.28205939467503
 21
18.18253368828267
 31
0.0
  0
LINE
  5
21E
330
1F
100
AcDbEntity
  8
0
  6
Continuous
 62
     7
100
AcDbLine
 10
36.20725624506873
 20
18.18253368828267
 30
0.0
 11
36.20725624506873
 21
29.06836045993622
 31
0.0
  0
LINE
  5
21F
330
1F
100
AcDbEntity
  8
0
  6
Continuous
 62
     7
100
AcDbLine
 10
36.24662632380889
 20
22.44434471190472
 30
0.0
 11
36.24662632380889
 21
24.80654943631417
 31
0.0
  0
LINE
  5
220
330
1F
100
AcDbEntity
  8
0
  6
Continuous
 62
     7
100
AcDbLine
 10
36.32142947341519
 20
22.44434471190472
 30
0.0
 11
36.32142947341519
 21
18.18253368828267
 31
0.0
  0
LINE
  5
221
330
1F
100
AcDbEntity
  8
0
  6
Continuous
 62
     7
100
AcDbLine
 10
36.32142947341519
 20
18.18253368828267
 30
0.0
 11
36.28205939467503
 21
18.18253368828267
 31
0.0
  0
LINE
  5
222
330
1F
100
AcDbEntity
  8
0
  6
Continuous
 62
     7
100
AcDbLine
 10
36.28205939467503
 20
22.44434471190472
 30
0.0
 11
36.32142947341519
 21
22.44434471190472
 31
0.0
  0
LINE
  5
223
330
1F
100
AcDbEntity
  8
0
  6
Continuous
 62
     7
100
AcDbLine
 10
36.32142947341519
 20
18.18253368828267
 30
0.0
 11
36.32142947341519
 21
18.14316360954252
 31
0.0
  0
LINE
  5
224
330
1F
100
AcDbEntity
  8
0
  6
Continuous
 62
     7
100
AcDbLine
 10
36.32142947341519
 20
18.14316360954252
 30
0.0
 11
36.28205939467503
 21
18.10379353080236
 31
0.0
  0
LINE
  5
225
330
1F
100
AcDbEntity
  8
0
  6
Continuous
 62
     7
100
AcDbLine
 10
36.28205939467503
 20
18.10379353080236
 30
0.0
 11
36.28205939467503
 21
18.18253368828267
 31
0.0
  0
LINE
  5
226
330
1F
100
AcDbEntity
  8
0
  6
Continuous
 62
     7
100
AcDbLine
 10
36.32142947341519
 20
29.10773053867638
 30
0.0
 11
36.32142947341519
 21
29.06836045993622
 31
0.0
  0
LINE
  5
227
330
1F
100
AcDbEntity
  8
0
  6
Continuous
 62
     7
100
AcDbLine
 10
36.32142947341519
 20
29.06836045993622
 30
0.0
 11
36.28205939467503
 21
29.06836045993622
 31
0.0
  0
LINE
  5
228
330
1F
100
AcDbEntity
  8
0
  6
Continuous
 62
     7
100
AcDbLine
 10
36.28205939467503
 20
29.06836045993622
 30
0.0
 11
36.28205939467503
 21
29.14710061741653
 31
0.0
  0
LINE
  5
229
330
1F
100
AcDbEntity
  8
0
  6
Continuous
 62
     7
100
AcDbLine
 10
36.32142947341519
 20
29.10773053867638
 30
0.0
 11
36.28205939467503
 21
29.14710061741653
 31
0.0
  0
LINE
  5
22A
330
1F
100
AcDbEntity
  8
0
  6
Continuous
 62
     7
100
AcDbLine
 10
36.20725624506873
 20
29.14710061741653
 30
0.0
 11
36.28205939467503
 21
29.14710061741653
 31
0.0
  0
LINE
  5
22B
330
1F
100
AcDbEntity
  8
0
  6
Continuous
 62
     7
100
AcDbLine
 10
36.20725624506873
 20
29.06836045993622
 30
0.0
 11
36.20725624506873
 21
29.14710061741653
 31
0.0
  0
LINE
  5
22C
330
1F
100
AcDbEntity
  8
0
  6
Continuous
 62
     7
100
AcDbLine
 10
36.28205939467503
 20
18.10379353080236
 30
0.0
 11
36.20725624506873
 21
18.10379353080236
 31
0.0
  0
LINE
  5
22D
330
1F
100
AcDbEntity
  8
0
  6
Continuous
 62
     7
100
AcDbLine
 10
36.20725624506873
 20
18.10379353080236
 30
0.0
 11
36.20725624506873
 21
18.18253368828267
 31
0.0
  0
LINE
  5
22E
330
1F
100
AcDbEntity
  8
0
  6
Continuous
 62
     7
100
AcDbLine
 10
36.32142947341519
 20
29.06836045993622
 30
0.0
 11
36.32142947341519
 21
24.80654943631417
 31
0.0
  0
LINE
  5
22F
330
1F
100
AcDbEntity
  8
0
  6
Continuous
 62
     7
100
AcDbLine
 10
36.32142947341519
 20
24.80654943631417
 30
0.0
 11
36.28205939467503
 21
24.80654943631417
 31
0.0
  0
DIMENSION
  5
230
330
1F
100
AcDbEntity
  8
___2
100
AcDbDimension
  2
_D_2
 10
36.20725624506875
 20
17.13933852877362
 30
0.0
 11
34.7639354737245
 21
17.13933852877362
 31
0.0
 70
   160
  1
<>
 71
     5
 42
-1.0
  3
SLDDIMSTYLE1
100
AcDbAlignedDimension
 13
36.32142947341522
 23
18.10379353080236
 33
0.0
 14
36.20725624506875
 24
18.18253368828267
 34
0.0
100
AcDbRotatedDimension
  0
CIRCLE
  5
244
330
1F
100
AcDbEntity
  8
0
  6
Continuous
 62
     7
100
AcDbCircle
 10
25.37000420375772
 20
23.62544707410945
 30
0.0
 40
5.019685039369733
  0
ARC
  5
245
330
1F
100
AcDbEntity
  8
0
  6
Continuous
 62
     7
100
AcDbCircle
 10
19.92709081793095
 20
29.06836045993622
 30
0.0
 40
0.0787401574803148
100
AcDbArc
 50
90.0
 51
180.0
  0
LINE
  5
246
330
1F
100
AcDbEntity
  8
0
  6
Continuous
 62
     7
100
AcDbLine
 10
30.81291758958449
 20
29.14710061741653
 30
0.0
 11
19.92709081793095
 21
29.14710061741653
 31
0.0
  0
ARC
  5
247
330
1F
100
AcDbEntity
  8
0
  6
Continuous
 62
     7
100
AcDbCircle
 10
30.81291758958449
 20
29.06836045993622
 30
0.0
 40
0.0787401574803148
100
AcDbArc
 50
0.0
 51
90.0
  0
LINE
  5
248
330
1F
100
AcDbEntity
  8
0
  6
Continuous
 62
     7
100
AcDbLine
 10
30.89165774706481
 20
18.18253368828267
 30
0.0
 11
30.89165774706481
 21
29.06836045993622
 31
0.0
  0
ARC
  5
249
330
1F
100
AcDbEntity
  8
0
  6
Continuous
 62
     7
100
AcDbCircle
 10
30.81291758958449
 20
18.18253368828267
 30
0.0
 40
0.0787401574803148
100
AcDbArc
 50
270.0000000000008
 51
0.0
  0
LINE
  5
24A
330
1F
100
AcDbEntity
  8
0
  6
Continuous
 62
     7
100
AcDbLine
 10
19.92709081793095
 20
18.10379353080236
 30
0.0
 11
30.81291758958449
 21
18.10379353080236
 31
0.0
  0
ARC
  5
24B
330
1F
100
AcDbEntity
  8
0
  6
Continuous
 62
     7
100
AcDbCircle
 10
19.92709081793095
 20
18.18253368828267
 30
0.0
 40
0.0787401574803148
100
AcDbArc
 50
180.0
 51
270.0000000000008
  0
CIRCLE
  5
24C
330
1F
100
AcDbEntity
  8
0
  6
Continuous
 62
     7
100
AcDbCircle
 10
20.59638215651363
 20
28.39906912135354
 30
0.0
 40
0.0826771653543297
  0
CIRCLE
  5
24D
330
1F
100
AcDbEntity
  8
0
  6
Continuous
 62
     7
100
AcDbCircle
 10
20.59638215651336
 20
18.85182502686535
 30
0.0
 40
0.0826771653542693
  0
CIRCLE
  5
24E
330
1F
100
AcDbEntity
  8
0
  6
Continuous
 62
     7
100
AcDbCircle
 10
30.14362625100155
 20
18.85182502686507
 30
0.0
 40
0.0826771653545251
  0
CIRCLE
  5
24F
330
1F
100
AcDbEntity
  8
0
  6
Continuous
 62
     7
100
AcDbCircle
 10
30.14362625100181
 20
28.39906912135327
 30
0.0
 40
0.0826771653546174
  0
LINE
  5
250
330
1F
100
AcDbEntity
  8
0
  6
Continuous
 62
     7
100
AcDbLine
 10
19.84835066045063
 20
29.06836045993622
 30
0.0
 11
19.84835066045063
 21
18.18253368828267
 31
0.0
  0
INSERT
  5
25C
330
1F
100
AcDbEntity
  8
___2
100
AcDbBlockReference
  2
SW_CENTERMARKSYMBOL_9
 10
25.37000420375772
 20
23.62544707410945
 30
0.0
  0
INSERT
  5
268
330
1F
100
AcDbEntity
  8
TB
100
AcDbBlockReference
  2
SW_CENTERMARKSYMBOL_10
 10
20.59638215651363
 20
28.39906912135354
 30
0.0
  0
INSERT
  5
274
330
1F
100
AcDbEntity
  8
TB
100
AcDbBlockReference
  2
SW_CENTERMARKSYMBOL_11
 10
20.59638215651336
 20
18.85182502686535
 30
0.0
  0
INSERT
  5
280
330
1F
100
AcDbEntity
  8
TB
100
AcDbBlockReference
  2
SW_CENTERMARKSYMBOL_12
 10
30.14362625100155
 20
18.85182502686507
 30
0.0
  0
INSERT
  5
28C
330
1F
100
AcDbEntity
  8
TB
100
AcDbBlockReference
  2
SW_CENTERMARKSYMBOL_13
 10
30.14362625100181
 20
28.39906912135327
 30
0.0
  0
ARC
  5
28D
330
1F
100
AcDbEntity
  8
0
  6
Continuous
 62
     7
100
AcDbCircle
 10
24.09756463630529
 20
15.53842564153529
 30
0.0
 40
0.0492125984251963
100
AcDbArc
 50
0.0
 51
89.99999999957811
  0
LINE
  5
28E
330
1F
100
AcDbEntity
  8
0
  6
Continuous
 62
     7
100
AcDbLine
 10
24.09756463630529
 20
4.241181547047101
 30
0.0
 11
12.84953314024193
 21
4.241181547047101
 31
0.0
  0
LINE
  5
28F
330
1F
100
AcDbEntity
  8
0
  6
Continuous
 62
     7
100
AcDbLine
 10
24.14677723473048
 20
15.53842564153529
 30
0.0
 11
24.14677723473048
 21
4.290394145471904
 31
0.0
  0
ARC
  5
290
330
1F
100
AcDbEntity
  8
0
  6
Continuous
 62
     7
100
AcDbCircle
 10
24.09756463630529
 20
4.290394145472298
 30
0.0
 40
0.0492125984251972
100
AcDbArc
 50
270.0000000000008
 51
359.9999999995427
  0
LINE
  5
291
330
1F
100
AcDbEntity
  8
0
  6
Continuous
 62
     7
100
AcDbLine
 10
12.84953314024229
 20
15.58763823996049
 30
0.0
 11
24.09756463630565
 21
15.58763823996049
 31
0.0
  0
LINE
  5
292
330
1F
100
AcDbEntity
  8
0
  6
Continuous
 62
     7
100
AcDbLine
 10
12.8003205418171
 20
4.290394145473793
 30
0.0
 11
12.8003205418171
 21
15.53842564153417
 31
0.0
  0
ARC
  5
293
330
1F
100
AcDbEntity
  8
0
  6
Continuous
 62
     7
100
AcDbCircle
 10
12.84953314024229
 20
4.290394145472298
 30
0.0
 40
0.0492125984251981
100
AcDbArc
 50
179.9999999982587
 51
269.999999999581
  0
ARC
  5
294
330
1F
100
AcDbEntity
  8
0
  6
Continuous
 62
     7
100
AcDbCircle
 10
12.84953314024229
 20
15.53842564153529
 30
0.0
 40
0.0492125984251981
100
AcDbArc
 50
90.0
 51
180.0000000013037
  0
LINE
  5
295
330
1F
100
AcDbEntity
  8
0
  6
Continuous
 62
     7
100
AcDbLine
 10
12.84165912449332
 20
4.290394145473803
 30
0.0
 11
12.84165912449332
 21
15.5384256415351
 31
0.0
  0
SPLINE
  5
296
330
1F
100
AcDbEntity
  8
0
  6
Continuous
 62
     7
100
AcDbSpline
210
0.0
220
0.0
230
1.0
 70
     8
 71
     3
 72
    10
 73
     6
 74
     0
 42
0.000000001
 43
0.0000000001
 40
0.0
 40
0.0
 40
0.0
 40
0.0
 40
0.5
 40
0.5
 40
1.0
 40
1.0
 40
1.0
 40
1.0
 10
12.84953314024233
 20
15.54629965728313
 30
0.0
 10
12.84767721693206
 20
15.54629965728316
 30
0.0
 10
12.84550286752317
 20
15.54553090867736
 30
0.0
 10
12.84242787309987
 20
15.54245591425408
 30
0.0
 10
12.84165912449413
 20
15.54028156484527
 30
0.0
 10
12.84165912449426
 20
15.53842564153506
 30
0.0
  0
LINE
  5
297
330
1F
100
AcDbEntity
  8
0
  6
Continuous
 62
     7
100
AcDbLine
 10
12.84953314024229
 20
15.54629965728324
 30
0.0
 11
24.09756463630599
 21
15.54629965728324
 31
0.0
  0
SPLINE
  5
298
330
1F
100
AcDbEntity
  8
0
  6
Continuous
 62
     7
100
AcDbSpline
210
0.0
220
0.0
230
1.0
 70
     8
 71
     3
 72
    13
 73
     9
 74
     0
 42
0.000000001
 43
0.0000000001
 40
0.0
 40
0.0
 40
0.0
 40
0.0
 40
0.1272000725223312
 40
0.2497464190578318
 40
0.3727002593381998
 40
0.5010746252419211
 40
0.7497428094500497
 40
1.0
 40
1.0
 40
1.0
 40
1.0
 10
24.10543865205426
 20
15.53842564153553
 30
0.0
 10
24.10541240141535
 20
15.53894982673502
 30
0.0
 10
24.10536086054013
 20
15.53997901935966
 30
0.0
 10
24.10490777437184
 20
15.54145906816998
 30
0.0
 10
24.10417101775986
 20
15.54282126264978
 30
0.0
 10
24.10285064929887
 20
15.54440078803439
 30
0.0
 10
24.10067873223611
 20
15.54598981311411
 30
0.0
 10
24.09860486993482
 20
15.54619615683511
 30
0.0
 10
24.09756463630599
 20
15.5462996572833
 30
0.0
  0
LINE
  5
299
330
1F
100
AcDbEntity
  8
0
  6
Continuous
 62
     7
100
AcDbLine
 10
24.10543865205426
 20
15.53842564153529
 30
0.0
 11
24.10543865205426
 21
4.290394145471605
 31
0.0
  0
SPLINE
  5
29A
330
1F
100
AcDbEntity
  8
0
  6
Continuous
 62
     7
100
AcDbSpline
210
0.0
220
0.0
230
1.0
 70
     8
 71
     3
 72
    10
 73
     6
 74
     0
 42
0.000000001
 43
0.0000000001
 40
0.0
 40
0.0
 40
0.0
 40
0.0
 40
0.5
 40
0.5
 40
1.0
 40
1.0
 40
1.0
 40
1.0
 10
24.09756463630625
 20
4.28252012972212
 30
0.0
 10
24.09942055961636
 20
4.282520129722142
 30
0.0
 10
24.10159490902534
 20
4.28328887832816
 30
0.0
 10
24.10466990344852
 20
4.286363872752016
 30
0.0
 10
24.10543865205396
 20
4.288538222161093
 30
0.0
 10
24.10543865205332
 20
4.290394145471208
 30
0.0
  0
LINE
  5
29B
330
1F
100
AcDbEntity
  8
0
  6
Continuous
 62
     7
100
AcDbLine
 10
24.09756463630529
 20
4.282520129723085
 30
0.0
 11
12.8495331402416
 21
4.282520129723085
 31
0.0
  0
SPLINE
  5
29C
330
1F
100
AcDbEntity
  8
0
  6
Continuous
 62
     7
100
AcDbSpline
210
0.0
220
0.0
230
1.0
 70
     8
 71
     3
 72
    10
 73
     6
 74
     0
 42
0.000000001
 43
0.0000000001
 40
0.0
 40
0.0
 40
0.0
 40
0.0
 40
0.5
 40
0.5
 40
1.0
 40
1.0
 40
1.0
 40
1.0
 10
12.84165912449211
 20
4.29039414547204
 30
0.0
 10
12.84165912449197
 20
4.288538222161883
 30
0.0
 10
12.84242787309784
 20
4.286363872752718
 30
0.0
 10
12.84550286752174
 20
4.283288878329178
 30
0.0
 10
12.84767721693098
 20
4.282520129723627
 30
0.0
 10
12.84953314024121
 20
4.282520129724259
 30
0.0
  0
LINE
  5
29D
330
1F
100
AcDbEntity
  8
0
  6
Continuous
 62
     7
100
AcDbLine
 10
12.84953314024229
 20
15.58566973602348
 30
0.0
 11
24.09756463630563
 21
15.58566973602348
 31
0.0
  0
LINE
  5
29E
330
1F
100
AcDbEntity
  8
0
  6
Continuous
 62
     7
100
AcDbLine
 10
24.09756463630563
 20
15.58566973602348
 30
0.0
 11
24.09756463630599
 21
15.54629965728324
 31
0.0
  0
LINE
  5
29F
330
1F
100
AcDbEntity
  8
0
  6
Continuous
 62
     7
100
AcDbLine
 10
12.84953314024229
 20
15.58566973602348
 30
0.0
 11
12.84953314024229
 21
15.54629965728324
 31
0.0
  0
LINE
  5
2A0
330
1F
100
AcDbEntity
  8
0
  6
Continuous
 62
     7
100
AcDbLine
 10
12.8022890457541
 20
4.290394145473046
 30
0.0
 11
12.8022890457541
 21
15.53842564153421
 31
0.0
  0
LINE
  5
2A1
330
1F
100
AcDbEntity
  8
0
  6
Continuous
 62
     7
100
AcDbLine
 10
12.8022890457541
 20
15.53842564153421
 30
0.0
 11
12.84165912449332
 21
15.5384256415351
 31
0.0
  0
LINE
  5
2A2
330
1F
100
AcDbEntity
  8
0
  6
Continuous
 62
     7
100
AcDbLine
 10
12.8022890457541
 20
4.290394145473046
 30
0.0
 11
12.84165912449332
 21
4.290394145473803
 31
0.0
  0
LINE
  5
2A3
330
1F
100
AcDbEntity
  8
0
  6
Continuous
 62
     7
100
AcDbLine
 10
24.09756463630529
 20
4.243150050984109
 30
0.0
 11
12.84953314024195
 21
4.243150050984109
 31
0.0
  0
LINE
  5
2A4
330
1F
100
AcDbEntity
  8
0
  6
Continuous
 62
     7
100
AcDbLine
 10
12.84953314024195
 20
4.243150050984109
 30
0.0
 11
12.8495331402416
 21
4.282520129723085
 31
0.0
  0
LINE
  5
2A5
330
1F
100
AcDbEntity
  8
0
  6
Continuous
 62
     7
100
AcDbLine
 10
24.09756463630529
 20
4.243150050984109
 30
0.0
 11
24.09756463630529
 21
4.282520129723085
 31
0.0
  0
LINE
  5
2A6
330
1F
100
AcDbEntity
  8
0
  6
Continuous
 62
     7
100
AcDbLine
 10
24.14480873079347
 20
15.53842564153529
 30
0.0
 11
24.14480873079347
 21
4.29039414547195
 31
0.0
  0
LINE
  5
2A7
330
1F
100
AcDbEntity
  8
0
  6
Continuous
 62
     7
100
AcDbLine
 10
24.14480873079347
 20
4.29039414547195
 30
0.0
 11
24.10543865205426
 21
4.290394145471605
 31
0.0
  0
LINE
  5
2A8
330
1F
100
AcDbEntity
  8
0
  6
Continuous
 62
     7
100
AcDbLine
 10
24.10543865205426
 20
15.53842564153529
 30
0.0
 11
24.14480873079347
 21
15.53842564153529
 31
0.0
  0
ARC
  5
2A9
330
1F
100
AcDbEntity
  8
0
  6
Continuous
 62
     7
100
AcDbCircle
 10
12.84953314024229
 20
15.53842564153529
 30
0.0
 40
0.0472440944881907
100
AcDbArc
 50
90.0
 51
180.0000000013184
  0
ARC
  5
2AA
330
1F
100
AcDbEntity
  8
0
  6
Continuous
 62
     7
100
AcDbCircle
 10
12.84953314024229
 20
4.290394145472298
 30
0.0
 40
0.0472440944881907
100
AcDbArc
 50
179.9999999983866
 51
269.9999999995786
  0
ARC
  5
2AB
330
1F
100
AcDbEntity
  8
0
  6
Continuous
 62
     7
100
AcDbCircle
 10
24.09756463630529
 20
15.53842564153529
 30
0.0
 40
0.0472440944881889
100
AcDbArc
 50
0.0000000000639557
 51
89.99999999958204
  0
ARC
  5
2AC
330
1F
100
AcDbEntity
  8
0
  6
Continuous
 62
     7
100
AcDbCircle
 10
24.09756463630529
 20
4.290394145472298
 30
0.0
 40
0.0472440944881889
100
AcDbArc
 50
270.0000000000008
 51
359.999999999378
  0
SPLINE
  5
2AD
330
1F
100
AcDbEntity
  8
0
  6
Continuous
 62
     7
100
AcDbSpline
210
0.0
220
0.0
230
1.0
 70
     8
 71
     3
 72
    10
 73
     6
 74
     0
 42
0.000000001
 43
0.0000000001
 40
0.0
 40
0.0
 40
0.0
 40
0.0
 40
0.5
 40
0.5
 40
1.0
 40
1.0
 40
1.0
 40
1.0
 10
12.79478351940577
 20
4.243144386327456
 30
0.0
 10
12.79067931974407
 20
4.247714293320203
 30
0.0
 10
12.78745436455856
 20
4.252915551479961
 30
0.0
 10
12.78299028294392
 20
4.264374187380099
 30
0.0
 10
12.78183705956967
 20
4.270415602609197
 30
0.0
 10
12.78183705956967
 20
4.276614617913243
 30
0.0
  0
LINE
  5
2AE
330
1F
100
AcDbEntity
  8
0
  6
Continuous
 62
     7
100
AcDbLine
 10
12.54441503000607
 20
4.024071958102727
 30
0.0
 11
12.79478351940577
 21
4.243144386327457
 31
0.0
  0
LINE
  5
2AF
330
1F
100
AcDbEntity
  8
0
  6
Continuous
 62
     7
100
AcDbLine
 10
12.54441503000607
 20
4.024071958102723
 30
0.0
 11
12.54441503000607
 21
15.80474782890486
 31
0.0
  0
LINE
  5
2B0
330
1F
100
AcDbEntity
  8
0
  6
Continuous
 62
     7
100
AcDbLine
 10
12.79478351940577
 20
15.58567540068013
 30
0.0
 11
12.54441503000607
 21
15.80474782890486
 31
0.0
  0
SPLINE
  5
2B1
330
1F
100
AcDbEntity
  8
0
  6
Continuous
 62
     7
100
AcDbSpline
210
0.0
220
0.0
230
1.0
 70
     8
 71
     3
 72
    10
 73
     6
 74
     0
 42
0.000000001
 43
0.0000000001
 40
0.0
 40
0.0
 40
0.0
 40
0.0
 40
0.5
 40
0.5
 40
1.0
 40
1.0
 40
1.0
 40
1.0
 10
12.78183705956968
 20
15.55220516909435
 30
0.0
 10
12.78183705956968
 20
15.55840603963114
 30
0.0
 10
12.78298851259586
 20
15.56444240067478
 30
0.0
 10
12.78745901490173
 20
15.57591482613393
 30
0.0
 10
12.79067848482862
 20
15.58110456403331
 30
0.0
 10
12.79478351940577
 20
15.58567540068013
 30
0.0
  0
LINE
  5
2B2
330
1F
100
AcDbEntity
  8
0
  6
Continuous
 62
     7
100
AcDbLine
 10
12.78183705956967
 20
4.276614617913243
 30
0.0
 11
12.78183705956968
 21
15.55220516909435
 31
0.0
  0
ARC
  5
2B3
330
1F
100
AcDbEntity
  8
0
  6
Continuous
 62
     7
100
AcDbCircle
 10
12.81655560628081
 20
15.60524366754881
 30
0.0
 40
0.0292735518025818
100
AcDbArc
 50
221.9484979331622
 51
248.7985786090686
  0
SPLINE
  5
2B4
330
1F
100
AcDbEntity
  8
0
  6
Continuous
 62
     7
100
AcDbSpline
210
0.0
220
0.0
230
1.0
 70
     8
 71
     3
 72
    10
 73
     6
 74
     0
 42
0.000000001
 43
0.0000000001
 40
0.0
 40
0.0
 40
0.0
 40
0.0
 40
0.5
 40
0.5
 40
1.0
 40
1.0
 40
1.0
 40
1.0
 10
12.80596889362942
 20
15.57795150108341
 30
0.0
 10
12.80290651546611
 20
15.57440877999718
 30
0.0
 10
12.80052460389216
 20
15.57040049645228
 30
0.0
 10
12.79722836674503
 20
15.56158378431543
 30
0.0
 10
12.79638353394308
 20
15.55695456920424
 30
0.0
 10
12.79638353394308
 20
15.55220516909435
 30
0.0
  0
LINE
  5
2B5
330
1F
100
AcDbEntity
  8
0
  6
Continuous
 62
     7
100
AcDbLine
 10
12.78183705956968
 20
15.55220516909435
 30
0.0
 11
12.79638353394308
 21
15.55220516909435
 31
0.0
  0
SPLINE
  5
2B6
330
1F
100
AcDbEntity
  8
0
  6
Continuous
 62
     7
100
AcDbSpline
210
0.0
220
0.0
230
1.0
 70
     8
 71
     3
 72
    10
 73
     6
 74
     0
 42
0.000000001
 43
0.0000000001
 40
0.0
 40
0.0
 40
0.0
 40
0.0
 40
0.5
 40
0.5
 40
1.0
 40
1.0
 40
1.0
 40
1.0
 10
24.11134416386434
 20
4.237244539173086
 30
0.0
 10
24.11609356397424
 20
4.237244539173086
 30
0.0
 10
24.12072277908543
 20
4.238089371975031
 30
0.0
 10
24.12953949122228
 20
4.241385609122159
 30
0.0
 10
24.13354777476717
 20
4.243767520696111
 30
0.0
 10
24.1370904958534
 20
4.246829898859424
 30
0.0
  0
ARC
  5
2B7
330
1F
100
AcDbEntity
  8
0
  6
Continuous
 62
     7
100
AcDbCircle
 10
24.1643826623188
 20
4.257416611510802
 30
0.0
 40
0.0292735518025727
100
AcDbArc
 50
201.2014213909154
 51
228.0515020668428
  0
SPLINE
  5
2B8
330
1F
100
AcDbEntity
  8
0
  6
Continuous
 62
     7
100
AcDbSpline
210
0.0
220
0.0
230
1.0
 70
     8
 71
     3
 72
    10
 73
     6
 74
     0
 42
0.000000001
 43
0.0000000001
 40
0.0
 40
0.0
 40
0.0
 40
0.0
 40
0.5
 40
0.5
 40
1.0
 40
1.0
 40
1.0
 40
1.0
 10
24.14481439545013
 20
4.235644524635763
 30
0.0
 10
24.1402435588033
 20
4.231539490058618
 30
0.0
 10
24.13505382090392
 20
4.228320020131731
 30
0.0
 10
24.12358139544478
 20
4.223849517825861
 30
0.0
 10
24.11754503440113
 20
4.222698064799676
 30
0.0
 10
24.11134416386434
 20
4.222698064799676
 30
0.0
  0
LINE
  5
2B9
330
1F
100
AcDbEntity
  8
0
  6
Continuous
 62
     7
100
AcDbLine
 10
24.11134416386434
 20
4.237244539173086
 30
0.0
 11
24.11134416386434
 21
4.222698064799676
 31
0.0
  0
LINE
  5
2BA
330
1F
100
AcDbEntity
  8
0
  6
Continuous
 62
     7
100
AcDbLine
 10
24.36388682367486
 20
3.98527603523608
 30
0.0
 11
24.14481439545013
 21
4.235644524635766
 31
0.0
  0
LINE
  5
2BB
330
1F
100
AcDbEntity
  8
0
  6
Continuous
 62
     7
100
AcDbLine
 10
24.36388682367485
 20
3.985276035236076
 30
0.0
 11
12.58321095287273
 21
3.985276035236076
 31
0.0
  0
LINE
  5
2BC
330
1F
100
AcDbEntity
  8
0
  6
Continuous
 62
     7
100
AcDbLine
 10
12.80228338109745
 20
4.235644524635766
 30
0.0
 11
12.58321095287272
 21
3.98527603523608
 31
0.0
  0
SPLINE
  5
2BD
330
1F
100
AcDbEntity
  8
0
  6
Continuous
 62
     7
100
AcDbSpline
210
0.0
220
0.0
230
1.0
 70
     8
 71
     3
 72
    10
 73
     6
 74
     0
 42
0.000000001
 43
0.0000000001
 40
0.0
 40
0.0
 40
0.0
 40
0.0
 40
0.5
 40
0.5
 40
1.0
 40
1.0
 40
1.0
 40
1.0
 10
12.83575361268324
 20
4.222698064799676
 30
0.0
 10
12.82955459737919
 20
4.222698064799676
 30
0.0
 10
12.8235131821501
 20
4.22385128817392
 30
0.0
 10
12.81205454624996
 20
4.228315369788566
 30
0.0
 10
12.8068532880902
 20
4.231540324974071
 30
0.0
 10
12.80228338109745
 20
4.235644524635763
 30
0.0
  0
LINE
  5
2BE
330
1F
100
AcDbEntity
  8
0
  6
Continuous
 62
     7
100
AcDbLine
 10
24.11134416386434
 20
4.222698064799676
 30
0.0
 11
12.83575361268324
 21
4.222698064799676
 31
0.0
  0
SPLINE
  5
2BF
330
1F
100
AcDbEntity
  8
0
  6
Continuous
 62
     7
100
AcDbSpline
210
0.0
220
0.0
230
1.0
 70
    24
 71
     3
 72
    14
 73
    10
 74
     0
 42
0.000000001
 43
0.0000000001
 40
0.0
 40
0.0
 40
0.0
 40
0.0
 40
0.25
 40
0.25
 40
0.5
 40
0.5
 40
0.75
 40
0.75
 40
1.0
 40
1.0
 40
1.0
 40
1.0
 10
24.4026827465415
 20
9.914409893503796
 30
0.0
 10
24.39747486401909
 20
9.914409893503796
 30
0.0
 10
24.38784069319942
 20
9.914409893503796
 30
0.0
 10
24.3605282203257
 20
9.914409893503796
 30
0.0
 10
24.34285319262969
 20
9.914409893503796
 30
0.0
 10
24.30094874350624
 20
9.914409893503796
 30
0.0
 10
24.27672434579713
 20
9.914409893503796
 30
0.0
 10
24.22376397911949
 20
9.914409893503796
 30
0.0
 10
24.19503435930888
 20
9.914409893503796
 30
0.0
 10
24.1652607169779
 20
9.914409893503796
 30
0.0
  0
LINE
  5
2C0
330
1F
100
AcDbEntity
  8
0
  6
Continuous
 62
     7
100
AcDbLine
 10
24.40268274654151
 20
4.024071958102723
 30
0.0
 11
24.40268274654151
 21
9.914409893503793
 31
0.0
  0
LINE
  5
2C1
330
1F
100
AcDbEntity
  8
0
  6
Continuous
 62
     7
100
AcDbLine
 10
24.15231425714181
 20
4.243144386327457
 30
0.0
 11
24.40268274654151
 21
4.024071958102727
 31
0.0
  0
SPLINE
  5
2C2
330
1F
100
AcDbEntity
  8
0
  6
Continuous
 62
     7
100
AcDbSpline
210
0.0
220
0.0
230
1.0
 70
     8
 71
     3
 72
    10
 73
     6
 74
     0
 42
0.000000001
 43
0.0000000001
 40
0.0
 40
0.0
 40
0.0
 40
0.0
 40
0.5
 40
0.5
 40
1.0
 40
1.0
 40
1.0
 40
1.0
 10
24.16526071697791
 20
4.276614617913243
 30
0.0
 10
24.16526071697791
 20
4.270413747376453
 30
0.0
 10
24.16410926395173
 20
4.264377386332806
 30
0.0
 10
24.15963876164585
 20
4.252904960873662
 30
0.0
 10
24.15641929171896
 20
4.247715222974284
 30
0.0
 10
24.15231425714181
 20
4.243144386327456
 30
0.0
  0
LINE
  5
2C3
330
1F
100
AcDbEntity
  8
0
  6
Continuous
 62
     7
100
AcDbLine
 10
24.1652607169779
 20
9.914409893503793
 30
0.0
 11
24.16526071697791
 21
4.276614617913243
 31
0.0
  0
SPLINE
  5
2C4
330
1F
100
AcDbEntity
  8
0
  6
Continuous
 62
     7
100
AcDbSpline
210
0.0
220
0.0
230
1.0
 70
     8
 71
     3
 72
    10
 73
     6
 74
     0
 42
0.000000001
 43
0.0000000001
 40
0.0
 40
0.0
 40
0.0
 40
0.0
 40
0.5
 40
0.5
 40
1.0
 40
1.0
 40
1.0
 40
1.0
 10
24.14112888291816
 20
4.250868285924181
 30
0.0
 10
24.14419126108147
 20
4.254411007010411
 30
0.0
 10
24.14657317265542
 20
4.258419290555301
 30
0.0
 10
24.14986940980255
 20
4.267236002692163
 30
0.0
 10
24.1507142426045
 20
4.271865217803348
 30
0.0
 10
24.1507142426045
 20
4.276614617913243
 30
0.0
  0
LINE
  5
2C5
330
1F
100
AcDbEntity
  8
0
  6
Continuous
 62
     7
100
AcDbLine
 10
24.1507142426045
 20
4.276614617913243
 30
0.0
 11
24.16526071697791
 21
4.276614617913243
 31
0.0
  0
ARC
  5
2C6
330
1F
100
AcDbEntity
  8
0
  6
Continuous
 62
     7
100
AcDbCircle
 10
24.13054217026686
 20
4.223576119458924
 30
0.0
 40
0.029273551802411
100
AcDbArc
 50
41.94849793306609
 51
68.79857860912807
  0
SPLINE
  5
2C7
330
1F
100
AcDbEntity
  8
0
  6
Continuous
 62
     7
100
AcDbSpline
210
0.0
220
0.0
230
1.0
 70
     8
 71
     3
 72
    10
 73
     6
 74
     0
 42
0.000000001
 43
0.0000000001
 40
0.0
 40
0.0
 40
0.0
 40
0.0
 40
0.5
 40
0.5
 40
1.0
 40
1.0
 40
1.0
 40
1.0
 10
12.80228338109745
 20
15.59317526237182
 30
0.0
 10
12.80685421774428
 20
15.59728029694897
 30
0.0
 10
12.81204395564366
 20
15.60049976687585
 30
0.0
 10
12.8235163811028
 20
15.60497026918173
 30
0.0
 10
12.82955274214645
 20
15.60612172220791
 30
0.0
 10
12.83575361268324
 20
15.60612172220791
 30
0.0
  0
LINE
  5
2C8
330
1F
100
AcDbEntity
  8
0
  6
Continuous
 62
     7
100
AcDbLine
 10
12.58321095287272
 20
15.84354375177151
 30
0.0
 11
12.80228338109745
 21
15.59317526237182
 31
0.0
  0
LINE
  5
2C9
330
1F
100
AcDbEntity
  8
0
  6
Continuous
 62
     7
100
AcDbLine
 10
12.58321095287272
 20
15.84354375177151
 30
0.0
 11
24.36388682367485
 21
15.84354375177151
 31
0.0
  0
LINE
  5
2CA
330
1F
100
AcDbEntity
  8
0
  6
Continuous
 62
     7
100
AcDbLine
 10
24.14481439545013
 20
15.59317526237182
 30
0.0
 11
24.36388682367486
 21
15.84354375177151
 31
0.0
  0
SPLINE
  5
2CB
330
1F
100
AcDbEntity
  8
0
  6
Continuous
 62
     7
100
AcDbSpline
210
0.0
220
0.0
230
1.0
 70
     8
 71
     3
 72
    10
 73
     6
 74
     0
 42
0.000000001
 43
0.0000000001
 40
0.0
 40
0.0
 40
0.0
 40
0.0
 40
0.5
 40
0.5
 40
1.0
 40
1.0
 40
1.0
 40
1.0
 10
24.11134416386434
 20
15.60612172220791
 30
0.0
 10
24.11754317916839
 20
15.60612172220791
 30
0.0
 10
24.12358459439749
 20
15.60496849883367
 30
0.0
 10
24.13504323029763
 20
15.60050441721902
 30
0.0
 10
24.14024448845738
 20
15.59727946203351
 30
0.0
 10
24.14481439545013
 20
15.59317526237182
 30
0.0
  0
LINE
  5
2CC
330
1F
100
AcDbEntity
  8
0
  6
Continuous
 62
     7
100
AcDbLine
 10
12.83575361268324
 20
15.60612172220791
 30
0.0
 11
24.11134416386434
 21
15.60612172220791
 31
0.0
  0
LINE
  5
2CD
330
1F
100
AcDbEntity
  8
0
  6
Continuous
 62
     7
100
AcDbLine
 10
12.83575361268324
 20
15.60612172220791
 30
0.0
 11
12.83575361268324
 21
15.5915752478345
 31
0.0
  0
SPLINE
  5
2CE
330
1F
100
AcDbEntity
  8
0
  6
Continuous
 62
     7
100
AcDbSpline
210
0.0
220
0.0
230
1.0
 70
     8
 71
     3
 72
    10
 73
     6
 74
     0
 42
0.000000001
 43
0.0000000001
 40
0.0
 40
0.0
 40
0.0
 40
0.0
 40
0.5
 40
0.5
 40
1.0
 40
1.0
 40
1.0
 40
1.0
 10
12.83575361268324
 20
15.5915752478345
 30
0.0
 10
12.83100421257334
 20
15.5915752478345
 30
0.0
 10
12.82637499746216
 20
15.59073041503256
 30
0.0
 10
12.8175582853253
 20
15.58743417788543
 30
0.0
 10
12.81355000178041
 20
15.58505226631148
 30
0.0
 10
12.81000728069418
 20
15.58198988814816
 30
0.0
  0
ARC
  5
2CF
330
1F
100
AcDbEntity
  8
0
  6
Continuous
 62
     7
100
AcDbCircle
 10
12.78271511422881
 20
15.57140317549679
 30
0.0
 40
0.0292735518025373
100
AcDbArc
 50
21.20142139092876
 51
48.05150206687766
  0
SPLINE
  5
2D0
330
1F
100
AcDbEntity
  8
0
  6
Continuous
 62
     7
100
AcDbSpline
210
0.0
220
0.0
230
1.0
 70
     8
 71
     3
 72
     8
 73
     4
 74
     0
 42
0.000000001
 43
0.0000000001
 40
0.0
 40
0.0
 40
0.0
 40
0.0
 40
1.0
 40
1.0
 40
1.0
 40
1.0
 10
12.81000728069418
 20
4.246829898859424
 30
0.0
 10
12.81709102703492
 20
4.2407066084337
 30
0.0
 10
12.82625758651695
 20
4.237244539173086
 30
0.0
 10
12.83575361268324
 20
4.237244539173086
 30
0.0
  0
LINE
  5
2D1
330
1F
100
AcDbEntity
  8
0
  6
Continuous
 62
     7
100
AcDbLine
 10
12.83575361268324
 20
4.237244539173086
 30
0.0
 11
12.83575361268324
 21
4.222698064799676
 31
0.0
  0
ARC
  5
2D2
330
1F
100
AcDbEntity
  8
0
  6
Continuous
 62
     7
100
AcDbCircle
 10
12.78271511422875
 20
4.257416611510824
 30
0.0
 40
0.029273551802607
100
AcDbArc
 50
311.9484979331687
 51
338.7985786090671
  0
LINE
  5
2D3
330
1F
100
AcDbEntity
  8
0
  6
Continuous
 62
     7
100
AcDbLine
 10
12.78183705956967
 20
4.276614617913243
 30
0.0
 11
12.79638353394308
 21
4.276614617913243
 31
0.0
  0
SPLINE
  5
2D4
330
1F
100
AcDbEntity
  8
0
  6
Continuous
 62
     7
100
AcDbSpline
210
0.0
220
0.0
230
1.0
 70
     8
 71
     3
 72
     8
 73
     4
 74
     0
 42
0.000000001
 43
0.0000000001
 40
0.0
 40
0.0
 40
0.0
 40
0.0
 40
1.0
 40
1.0
 40
1.0
 40
1.0
 10
12.79638353394308
 20
4.276614617913243
 30
0.0
 10
12.79638353394308
 20
4.26711859174695
 30
0.0
 10
12.79984560320369
 20
4.257952032264924
 30
0.0
 10
12.80596889362942
 20
4.250868285924181
 30
0.0
  0
ARC
  5
2D5
330
1F
100
AcDbEntity
  8
0
  6
Continuous
 62
     7
100
AcDbCircle
 10
12.81655560628082
 20
4.223576119458773
 30
0.0
 40
0.0292735518025871
100
AcDbArc
 50
111.2014213909395
 51
138.051502066843
  0
ARC
  5
2D6
330
1F
100
AcDbEntity
  8
0
  6
Continuous
 62
     7
100
AcDbCircle
 10
24.16438266231883
 20
15.57140317549676
 30
0.0
 40
0.0292735518026051
100
AcDbArc
 50
131.9484979331664
 51
158.7985786090479
  0
SPLINE
  5
2D7
330
1F
100
AcDbEntity
  8
0
  6
Continuous
 62
     7
100
AcDbSpline
210
0.0
220
0.0
230
1.0
 70
     8
 71
     3
 72
     8
 73
     4
 74
     0
 42
0.000000001
 43
0.0000000001
 40
0.0
 40
0.0
 40
0.0
 40
0.0
 40
1.0
 40
1.0
 40
1.0
 40
1.0
 10
24.1370904958534
 20
15.58198988814816
 30
0.0
 10
24.13000674951266
 20
15.58811317857389
 30
0.0
 10
24.12084019003063
 20
15.5915752478345
 30
0.0
 10
24.11134416386434
 20
15.5915752478345
 30
0.0
  0
LINE
  5
2D8
330
1F
100
AcDbEntity
  8
0
  6
Continuous
 62
     7
100
AcDbLine
 10
24.11134416386434
 20
15.60612172220791
 30
0.0
 11
24.11134416386434
 21
15.5915752478345
 31
0.0
  0
LINE
  5
2D9
330
1F
100
AcDbEntity
  8
0
  6
Continuous
 62
     7
100
AcDbLine
 10
24.4026827465415
 20
15.80474782890486
 30
0.0
 11
24.15231425714181
 21
15.58567540068013
 31
0.0
  0
LINE
  5
2DA
330
1F
100
AcDbEntity
  8
0
  6
Continuous
 62
     7
100
AcDbLine
 10
24.40268274654151
 20
15.80474782890486
 30
0.0
 11
24.40268274654151
 21
9.914409893503796
 31
0.0
  0
LINE
  5
2DB
330
1F
100
AcDbEntity
  8
0
  6
Continuous
 62
     7
100
AcDbLine
 10
24.1652607169779
 20
15.55220516909435
 30
0.0
 11
24.1652607169779
 21
9.914409893503796
 31
0.0
  0
SPLINE
  5
2DC
330
1F
100
AcDbEntity
  8
0
  6
Continuous
 62
     7
100
AcDbSpline
210
0.0
220
0.0
230
1.0
 70
     8
 71
     3
 72
    10
 73
     6
 74
     0
 42
0.000000001
 43
0.0000000001
 40
0.0
 40
0.0
 40
0.0
 40
0.0
 40
0.5
 40
0.5
 40
1.0
 40
1.0
 40
1.0
 40
1.0
 10
24.15231425714181
 20
15.58567540068013
 30
0.0
 10
24.15641845680351
 20
15.58110549368739
 30
0.0
 10
24.15964341198902
 20
15.57590423552763
 30
0.0
 10
24.16410749360366
 20
15.56444559962749
 30
0.0
 10
24.1652607169779
 20
15.55840418439839
 30
0.0
 10
24.1652607169779
 20
15.55220516909435
 30
0.0
  0
SPLINE
  5
2DD
330
1F
100
AcDbEntity
  8
0
  6
Continuous
 62
     7
100
AcDbSpline
210
0.0
220
0.0
230
1.0
 70
     8
 71
     3
 72
     8
 73
     4
 74
     0
 42
0.000000001
 43
0.0000000001
 40
0.0
 40
0.0
 40
0.0
 40
0.0
 40
1.0
 40
1.0
 40
1.0
 40
1.0
 10
24.1507142426045
 20
15.55220516909435
 30
0.0
 10
24.1507142426045
 20
15.56170119526064
 30
0.0
 10
24.14725217334388
 20
15.57086775474266
 30
0.0
 10
24.14112888291816
 20
15.57795150108341
 30
0.0
  0
ARC
  5
2DE
330
1F
100
AcDbEntity
  8
0
  6
Continuous
 62
     7
100
AcDbCircle
 10
24.13054217026679
 20
15.60524366754877
 30
0.0
 40
0.0292735518025357
100
AcDbArc
 50
291.2014213909277
 51
318.0515020668714
  0
LINE
  5
2DF
330
1F
100
AcDbEntity
  8
0
  6
Continuous
 62
     7
100
AcDbLine
 10
24.1507142426045
 20
15.55220516909435
 30
0.0
 11
24.1652607169779
 21
15.55220516909435
 31
0.0
  0
SPLINE
  5
2E0
330
1F
100
AcDbEntity
  8
0
  6
Continuous
 62
     7
100
AcDbSpline
210
0.0
220
0.0
230
1.0
 70
     8
 71
     3
 72
    10
 73
     6
 74
     0
 42
0.000000001
 43
0.0000000001
 40
0.0
 40
0.0
 40
0.0
 40
0.0
 40
0.5
 40
0.5
 40
1.0
 40
1.0
 40
1.0
 40
1.0
 10
12.58321095287273
 20
3.985276035236076
 30
0.0
 10
12.57802895019432
 20
3.985276035236076
 30
0.0
 10
12.57292215219718
 20
3.986400605462218
 30
0.0
 10
12.56381711668237
 20
3.990650964744844
 30
0.0
 10
12.55981507428695
 20
3.993774656878756
 30
0.0
 10
12.55666938050875
 20
3.997530385738754
 30
0.0
  0
SPLINE
  5
2E1
330
1F
100
AcDbEntity
  8
0
  6
Continuous
 62
     7
100
AcDbSpline
210
0.0
220
0.0
230
1.0
 70
     8
 71
     3
 72
    10
 73
     6
 74
     0
 42
0.000000001
 43
0.0000000001
 40
0.0
 40
0.0
 40
0.0
 40
0.0
 40
0.5
 40
0.5
 40
1.0
 40
1.0
 40
1.0
 40
1.0
 10
12.55666938050875
 20
3.997530385738754
 30
0.0
 10
12.55291412573444
 20
4.000675682435998
 30
0.0
 10
12.54980102662079
 20
4.004661760899588
 30
0.0
 10
12.54554630465615
 20
4.013761479262988
 30
0.0
 10
12.54441503000607
 20
4.018887675860796
 30
0.0
 10
12.54441503000607
 20
4.024071958102723
 30
0.0
  0
SPLINE
  5
2E2
330
1F
100
AcDbEntity
  8
0
  6
Continuous
 62
     7
100
AcDbSpline
210
0.0
220
0.0
230
1.0
 70
     8
 71
     3
 72
     8
 73
     4
 74
     0
 42
0.000000001
 43
0.0000000001
 40
0.0
 40
0.0
 40
0.0
 40
0.0
 40
1.0
 40
1.0
 40
1.0
 40
1.0
 10
12.80228338109745
 20
4.235644524635763
 30
0.0
 10
12.79964033336599
 20
4.238001384698763
 30
0.0
 10
12.79714037946877
 20
4.240501338595998
 30
0.0
 10
12.79478351940577
 20
4.243144386327456
 30
0.0
  0
SPLINE
  5
2E3
330
1F
100
AcDbEntity
  8
0
  6
Continuous
 62
     7
100
AcDbSpline
210
0.0
220
0.0
230
1.0
 70
     8
 71
     3
 72
     8
 73
     4
 74
     0
 42
0.000000001
 43
0.0000000001
 40
0.0
 40
0.0
 40
0.0
 40
0.0
 40
1.0
 40
1.0
 40
1.0
 40
1.0
 10
12.80596889362942
 20
4.250868285924181
 30
0.0
 10
12.80721712805103
 20
4.249424262302616
 30
0.0
 10
12.80856325707261
 20
4.248078133281031
 30
0.0
 10
12.81000728069418
 20
4.246829898859424
 30
0.0
  0
SPLINE
  5
2E4
330
1F
100
AcDbEntity
  8
0
  6
Continuous
 62
     7
100
AcDbSpline
210
0.0
220
0.0
230
1.0
 70
     8
 71
     3
 72
    10
 73
     6
 74
     0
 42
0.000000001
 43
0.0000000001
 40
0.0
 40
0.0
 40
0.0
 40
0.0
 40
0.5
 40
0.5
 40
1.0
 40
1.0
 40
1.0
 40
1.0
 10
24.40268274654151
 20
4.024071958102723
 30
0.0
 10
24.40268274654151
 20
4.018889955424321
 30
0.0
 10
24.40155817631536
 20
4.013783157427183
 30
0.0
 10
24.39730781703274
 20
4.004678121912373
 30
0.0
 10
24.39418412489882
 20
4.000676079516951
 30
0.0
 10
24.39042839603883
 20
3.997530385738754
 30
0.0
  0
SPLINE
  5
2E5
330
1F
100
AcDbEntity
  8
0
  6
Continuous
 62
     7
100
AcDbSpline
210
0.0
220
0.0
230
1.0
 70
     8
 71
     3
 72
    10
 73
     6
 74
     0
 42
0.000000001
 43
0.0000000001
 40
0.0
 40
0.0
 40
0.0
 40
0.0
 40
0.5
 40
0.5
 40
1.0
 40
1.0
 40
1.0
 40
1.0
 10
24.39042839603883
 20
3.997530385738754
 30
0.0
 10
24.38728309934158
 20
3.993775130964443
 30
0.0
 10
24.38329702087799
 20
3.990662031850789
 30
0.0
 10
24.37419730251459
 20
3.986407309886151
 30
0.0
 10
24.36907110591678
 20
3.985276035236076
 30
0.0
 10
24.36388682367485
 20
3.985276035236076
 30
0.0
  0
SPLINE
  5
2E6
330
1F
100
AcDbEntity
  8
0
  6
Continuous
 62
     7
100
AcDbSpline
210
0.0
220
0.0
230
1.0
 70
     8
 71
     3
 72
     8
 73
     4
 74
     0
 42
0.000000001
 43
0.0000000001
 40
0.0
 40
0.0
 40
0.0
 40
0.0
 40
1.0
 40
1.0
 40
1.0
 40
1.0
 10
24.15231425714181
 20
4.243144386327456
 30
0.0
 10
24.14995739707881
 20
4.240501338595998
 30
0.0
 10
24.14745744318159
 20
4.238001384698763
 30
0.0
 10
24.14481439545013
 20
4.235644524635763
 30
0.0
  0
SPLINE
  5
2E7
330
1F
100
AcDbEntity
  8
0
  6
Continuous
 62
     7
100
AcDbSpline
210
0.0
220
0.0
230
1.0
 70
     8
 71
     3
 72
     8
 73
     4
 74
     0
 42
0.000000001
 43
0.0000000001
 40
0.0
 40
0.0
 40
0.0
 40
0.0
 40
1.0
 40
1.0
 40
1.0
 40
1.0
 10
24.1370904958534
 20
4.246829898859424
 30
0.0
 10
24.13853451947497
 20
4.248078133281031
 30
0.0
 10
24.13988064849655
 20
4.249424262302616
 30
0.0
 10
24.14112888291816
 20
4.250868285924181
 30
0.0
  0
SPLINE
  5
2E8
330
1F
100
AcDbEntity
  8
0
  6
Continuous
 62
     7
100
AcDbSpline
210
0.0
220
0.0
230
1.0
 70
     8
 71
     3
 72
    10
 73
     6
 74
     0
 42
0.000000001
 43
0.0000000001
 40
0.0
 40
0.0
 40
0.0
 40
0.0
 40
0.5
 40
0.5
 40
1.0
 40
1.0
 40
1.0
 40
1.0
 10
12.54441503000607
 20
15.80474782890486
 30
0.0
 10
12.54441503000607
 20
15.80992983158326
 30
0.0
 10
12.54553960023221
 20
15.8150366295804
 30
0.0
 10
12.54978995951484
 20
15.82414166509522
 30
0.0
 10
12.55291365164875
 20
15.82814370749064
 30
0.0
 10
12.55666938050875
 20
15.83128940126883
 30
0.0
  0
SPLINE
  5
2E9
330
1F
100
AcDbEntity
  8
0
  6
Continuous
 62
     7
100
AcDbSpline
210
0.0
220
0.0
230
1.0
 70
     8
 71
     3
 72
    10
 73
     6
 74
     0
 42
0.000000001
 43
0.0000000001
 40
0.0
 40
0.0
 40
0.0
 40
0.0
 40
0.5
 40
0.5
 40
1.0
 40
1.0
 40
1.0
 40
1.0
 10
12.55666938050875
 20
15.83128940126883
 30
0.0
 10
12.55981467720599
 20
15.83504465604315
 30
0.0
 10
12.56380075566958
 20
15.83815775515679
 30
0.0
 10
12.57290047403298
 20
15.84241247712144
 30
0.0
 10
12.5780266706308
 20
15.84354375177151
 30
0.0
 10
12.58321095287273
 20
15.84354375177151
 30
0.0
  0
SPLINE
  5
2EA
330
1F
100
AcDbEntity
  8
0
  6
Continuous
 62
     7
100
AcDbSpline
210
0.0
220
0.0
230
1.0
 70
     8
 71
     3
 72
     8
 73
     4
 74
     0
 42
0.000000001
 43
0.0000000001
 40
0.0
 40
0.0
 40
0.0
 40
0.0
 40
1.0
 40
1.0
 40
1.0
 40
1.0
 10
12.79478351940577
 20
15.58567540068013
 30
0.0
 10
12.79714037946877
 20
15.58831844841159
 30
0.0
 10
12.79964033336599
 20
15.59081840230882
 30
0.0
 10
12.80228338109745
 20
15.59317526237182
 30
0.0
  0
SPLINE
  5
2EB
330
1F
100
AcDbEntity
  8
0
  6
Continuous
 62
     7
100
AcDbSpline
210
0.0
220
0.0
230
1.0
 70
     8
 71
     3
 72
    10
 73
     6
 74
     0
 42
0.000000001
 43
0.0000000001
 40
0.0
 40
0.0
 40
0.0
 40
0.0
 40
0.5
 40
0.5
 40
1.0
 40
1.0
 40
1.0
 40
1.0
 10
24.36388682367485
 20
15.84354375177151
 30
0.0
 10
24.36906882635325
 20
15.84354375177151
 30
0.0
 10
24.3741756243504
 20
15.84241918154537
 30
0.0
 10
24.38328065986522
 20
15.83816882226274
 30
0.0
 10
24.38728270226063
 20
15.83504513012882
 30
0.0
 10
24.39042839603883
 20
15.83128940126882
 30
0.0
  0
SPLINE
  5
2EC
330
1F
100
AcDbEntity
  8
0
  6
Continuous
 62
     7
100
AcDbSpline
210
0.0
220
0.0
230
1.0
 70
     8
 71
     3
 72
    10
 73
     6
 74
     0
 42
0.000000001
 43
0.0000000001
 40
0.0
 40
0.0
 40
0.0
 40
0.0
 40
0.5
 40
0.5
 40
1.0
 40
1.0
 40
1.0
 40
1.0
 10
24.39042839603883
 20
15.83128940126882
 30
0.0
 10
24.39418365081314
 20
15.82814410457157
 30
0.0
 10
24.3972967499268
 20
15.82415802610799
 30
0.0
 10
24.40155147189143
 20
15.81505830774459
 30
0.0
 10
24.40268274654151
 20
15.80993211114678
 30
0.0
 10
24.40268274654151
 20
15.80474782890486
 30
0.0
  0
SPLINE
  5
2ED
330
1F
100
AcDbEntity
  8
0
  6
Continuous
 62
     7
100
AcDbSpline
210
0.0
220
0.0
230
1.0
 70
     8
 71
     3
 72
     8
 73
     4
 74
     0
 42
0.000000001
 43
0.0000000001
 40
0.0
 40
0.0
 40
0.0
 40
0.0
 40
1.0
 40
1.0
 40
1.0
 40
1.0
 10
24.14481439545013
 20
15.59317526237182
 30
0.0
 10
24.14745744318159
 20
15.59081840230882
 30
0.0
 10
24.14995739707881
 20
15.58831844841159
 30
0.0
 10
24.15231425714181
 20
15.58567540068013
 30
0.0
  0
SPLINE
  5
2EE
330
1F
100
AcDbEntity
  8
0
  6
Continuous
 62
     7
100
AcDbSpline
210
0.0
220
0.0
230
1.0
 70
     8
 71
     3
 72
     8
 73
     4
 74
     0
 42
0.000000001
 43
0.0000000001
 40
0.0
 40
0.0
 40
0.0
 40
0.0
 40
1.0
 40
1.0
 40
1.0
 40
1.0
 10
12.81000728069418
 20
15.58198988814816
 30
0.0
 10
12.80856325707261
 20
15.58074165372656
 30
0.0
 10
12.80721712805103
 20
15.57939552470497
 30
0.0
 10
12.80596889362942
 20
15.57795150108341
 30
0.0
  0
SPLINE
  5
2EF
330
1F
100
AcDbEntity
  8
0
  6
Continuous
 62
     7
100
AcDbSpline
210
0.0
220
0.0
230
1.0
 70
     8
 71
     3
 72
     8
 73
     4
 74
     0
 42
0.000000001
 43
0.0000000001
 40
0.0
 40
0.0
 40
0.0
 40
0.0
 40
1.0
 40
1.0
 40
1.0
 40
1.0
 10
24.14112888291816
 20
15.57795150108341
 30
0.0
 10
24.13988064849655
 20
15.57939552470497
 30
0.0
 10
24.13853451947497
 20
15.58074165372656
 30
0.0
 10
24.1370904958534
 20
15.58198988814816
 30
0.0
  0
LINE
  5
2F0
330
1F
100
AcDbEntity
  8
0
  6
Continuous
 62
     7
100
AcDbLine
 10
24.1507142426045
 20
9.914409893503796
 30
0.0
 11
24.1507142426045
 21
15.55220516909435
 31
0.0
  0
SPLINE
  5
2F1
330
1F
100
AcDbEntity
  8
0
  6
Continuous
 62
     7
100
AcDbSpline
210
0.0
220
0.0
230
1.0
 70
    24
 71
     3
 72
    10
 73
     6
 74
     0
 42
0.000000001
 43
0.0000000001
 40
0.0
 40
0.0
 40
0.0
 40
0.0
 40
0.5
 40
0.5
 40
1.0
 40
1.0
 40
1.0
 40
1.0
 10
24.1507142426045
 20
9.914409893503796
 30
0.0
 10
24.1507142426045
 20
9.914409893503796
 30
0.0
 10
24.15241682339524
 20
9.914409893503796
 30
0.0
 10
24.15799186453202
 20
9.914409893503796
 30
0.0
 10
24.16180509415629
 20
9.914409893503796
 30
0.0
 10
24.1652607169779
 20
9.914409893503796
 30
0.0
  0
LINE
  5
2F2
330
1F
100
AcDbEntity
  8
0
  6
Continuous
 62
     7
100
AcDbLine
 10
24.1507142426045
 20
4.276614617913243
 30
0.0
 11
24.1507142426045
 21
9.914409893503796
 31
0.0
  0
LINE
  5
2F3
330
1F
100
AcDbEntity
  8
0
  6
Continuous
 62
     7
100
AcDbLine
 10
24.11134416386434
 20
15.5915752478345
 30
0.0
 11
12.83575361268324
 21
15.5915752478345
 31
0.0
  0
LINE
  5
2F4
330
1F
100
AcDbEntity
  8
0
  6
Continuous
 62
     7
100
AcDbLine
 10
12.83575361268324
 20
4.237244539173086
 30
0.0
 11
24.11134416386434
 21
4.237244539173086
 31
0.0
  0
LINE
  5
2F5
330
1F
100
AcDbEntity
  8
0
  6
Continuous
 62
     7
100
AcDbLine
 10
12.79638353394308
 20
15.55220516909435
 30
0.0
 11
12.79638353394308
 21
4.276614617913243
 31
0.0
  0
DIMENSION
  5
2F6
330
1F
100
AcDbEntity
  8
___2
100
AcDbDimension
  2
_D_3
 10
25.97951402999545
 20
3.985276035236076
 30
0.0
 11
25.97951402999545
 21
9.855142627942367
 31
0.0
 70
   160
  1
<>
 71
     5
 42
-1.0
  3
SLDDIMSTYLE2
100
AcDbAlignedDimension
 13
24.36388682367485
 23
15.84354375177151
 33
0.0
 14
24.36388682367485
 24
3.985276035236076
 34
0.0
 50
90.00000000000021
100
AcDbRotatedDimension
  0
DIMENSION
  5
308
330
1F
100
AcDbEntity
  8
___2
100
AcDbDimension
  2
_D_4
 10
24.40268274654151
 20
2.644665224223066
 30
0.0
 11
18.52882142642445
 21
2.644665224223066
 31
0.0
 70
   160
  1
<>
 71
     5
 42
-1.0
  3
SLDDIMSTYLE2
100
AcDbAlignedDimension
 13
12.54441503000607
 23
4.024071958102723
 33
0.0
 14
24.40268274654151
 24
4.024071958102723
 34
0.0
 50
0.0000000000000043
100
AcDbRotatedDimension
  0
LINE
  5
319
330
1F
100
AcDbEntity
  8
___2
  6
CENTERX2
100
AcDbLine
 10
24.44262698115517
 20
9.914409893503796
 30
0.0
 11
12.50447079539241
 21
9.914409893503796
 31
0.0
  0
LINE
  5
31A
330
1F
100
AcDbEntity
  8
___2
  6
CENTERX2
100
AcDbLine
 10
18.47354888827379
 20
3.945331800622408
 30
0.0
 11
18.47354888827379
 21
15.88348798638517
 31
0.0
  0
LINE
  5
31B
330
1F
100
AcDbEntity
  8
0
  6
Continuous
 62
     7
100
AcDbLine
 10
37.33653891536518
 20
2.804551382933275
 30
0.0
 11
37.3894327297059
 21
2.835086331997511
 31
0.0
  0
LINE
  5
31C
330
1F
100
AcDbEntity
  8
0
  6
Continuous
 62
     7
100
AcDbLine
 10
29.61325704217236
 20
16.30383244992752
 30
0.0
 11
29.56036322783163
 21
16.27329750086328
 31
0.0
  0
LINE
  5
31D
330
1F
100
AcDbEntity
  8
0
  6
Continuous
 62
     7
100
AcDbLine
 10
36.92233820477496
 20
11.81778857066487
 30
0.0
 11
36.90068290188448
 21
11.80528723040471
 31
0.0
  0
LINE
  5
31E
330
1F
100
AcDbEntity
  8
0
  6
Continuous
 62
     7
100
AcDbLine
 10
37.13688417731032
 20
11.39613028754768
 30
0.0
 11
37.15853948020079
 21
11.40863162780786
 31
0.0
  0
LINE
  5
31F
330
1F
100
AcDbEntity
  8
0
  6
Continuous
 62
     7
100
AcDbLine
 10
29.72599556947178
 20
15.97214874598345
 30
0.0
 11
29.70434026658046
 21
15.9596474057228
 31
0.0
  0
LINE
  5
320
330
1F
100
AcDbEntity
  8
0
  6
Continuous
 62
     7
100
AcDbLine
 10
29.9405415420063
 20
15.55049046286578
 30
0.0
 11
29.96219684489762
 21
15.56299180312643
 31
0.0
  0
LINE
  5
321
330
1F
100
AcDbEntity
  8
0
  6
Continuous
 62
     7
100
AcDbLine
 10
36.92233820477496
 20
3.507717709543916
 30
0.0
 11
36.90068290188469
 21
3.495216369283871
 31
0.0
  0
LINE
  5
322
330
1F
100
AcDbEntity
  8
0
  6
Continuous
 62
     7
100
AcDbLine
 10
37.13688417731053
 20
3.086059426426856
 30
0.0
 11
37.15853948020079
 21
3.098560766686901
 31
0.0
  0
LINE
  5
323
330
1F
100
AcDbEntity
  8
0
  6
Continuous
 62
     7
100
AcDbLine
 10
29.72599556947173
 20
7.662077884862463
 30
0.0
 11
29.70434026658066
 21
7.649576544601957
 31
0.0
  0
LINE
  5
324
330
1F
100
AcDbEntity
  8
0
  6
Continuous
 62
     7
100
AcDbLine
 10
29.94054154200651
 20
7.240419601744942
 30
0.0
 11
29.96219684489757
 21
7.252920942005447
 31
0.0
  0
ARC
  5
325
330
1F
100
AcDbEntity
  8
0
  6
Continuous
 62
     7
100
AcDbCircle
 10
37.23673045733355
 20
11.72657355801547
 30
0.0
 40
0.0605041262823742
100
AcDbArc
 50
2.605478485655345
 51
57.39452165997065
  0
LINE
  5
326
330
1F
100
AcDbEntity
  8
0
  6
Continuous
 62
     7
100
AcDbLine
 10
37.26933318647454
 20
11.77754228715161
 30
0.0
 11
37.29717203612753
 21
11.82576058903338
 31
0.0
  0
ARC
  5
327
330
1F
100
AcDbEntity
  8
0
  6
Continuous
 62
     7
100
AcDbCircle
 10
37.23196657784557
 20
11.72382313076112
 30
0.0
 40
0.1210082525647341
100
AcDbArc
 50
2.60547848565481
 51
57.39452165997451
  0
LINE
  5
328
330
1F
100
AcDbEntity
  8
0
  6
Continuous
 62
     7
100
AcDbLine
 10
37.29717203612754
 20
11.72932398526983
 30
0.0
 11
37.35284973543357
 21
11.72932398526983
 31
0.0
  0
ARC
  5
329
330
1F
100
AcDbEntity
  8
0
  6
Continuous
 62
     7
100
AcDbCircle
 10
37.28486039218632
 20
11.75435807982537
 30
0.0
 40
0.121008252564705
100
AcDbArc
 50
2.605478485647859
 51
57.39452165998177
  0
LINE
  5
32A
330
1F
100
AcDbEntity
  8
0
  6
Continuous
 62
     7
100
AcDbLine
 10
37.40574354977429
 20
11.75985893433407
 30
0.0
 11
37.35284973543357
 21
11.72932398526983
 31
0.0
  0
LINE
  5
32B
330
1F
100
AcDbEntity
  8
0
  6
Continuous
 62
     7
100
AcDbLine
 10
37.29717203612753
 20
11.82576058903338
 30
0.0
 11
37.35006585046826
 21
11.85629553809762
 31
0.0
  0
LINE
  5
32C
330
1F
100
AcDbEntity
  8
0
  6
Continuous
 62
     7
100
AcDbLine
 10
29.56910737245095
 20
10.84293145509967
 30
0.0
 11
29.56910737245095
 21
12.71069812048085
 31
0.0
  0
LWPOLYLINE
  5
32D
330
1F
100
AcDbEntity
  8
0
  6
Continuous
 62
     7
100
AcDbPolyline
 90
       14
 70
   128
 43
0.0
 10
29.6495018200206
 20
12.72535729190746
 10
29.69157738161269
 20
12.90148722666167
 10
29.74152588484647
 20
13.07064733481303
 10
29.79924335059201
 20
13.23248547125751
 10
29.8646096268631
 20
13.38666473323463
 10
29.93748863894088
 20
13.53286416166698
 10
30.01772867264421
 20
13.67077940930922
 10
30.10516269015711
 20
13.80012337431587
 10
30.19960867775583
 20
13.9206267979089
 10
30.30087002471168
 20
14.03203882490086
 10
30.40873593258082
 20
14.13412752590683
 10
30.52298185402897
 20
14.226680380158
 10
30.64336996027763
 20
14.30950471791179
 10
30.67969384742799
 20
14.3318575728608
  0
LINE
  5
32E
330
1F
100
AcDbEntity
  8
0
  6
Continuous
 62
     7
100
AcDbLine
 10
32.63834054669571
 20
14.45133806631496
 30
0.0
 11
32.63834054669571
 21
14.54417460704148
 31
0.0
  0
LINE
  5
32F
330
1F
100
AcDbEntity
  8
0
  6
Continuous
 62
     7
100
AcDbLine
 10
32.63834054669571
 20
14.54417460704148
 30
0.0
 11
34.30867152587654
 21
13.57991305764458
 31
0.0
  0
LINE
  5
330
330
1F
100
AcDbEntity
  8
0
  6
Continuous
 62
     7
100
AcDbLine
 10
37.37790470012129
 20
8.263845275178799
 30
0.0
 11
37.37790470012129
 21
6.335008711669153
 31
0.0
  0
LINE
  5
331
330
1F
100
AcDbEntity
  8
0
  6
Continuous
 62
     7
100
AcDbLine
 10
37.37790470012129
 20
6.335008711669153
 30
0.0
 11
37.29751025255164
 21
6.381419438371012
 31
0.0
  0
LWPOLYLINE
  5
332
330
1F
100
AcDbEntity
  8
0
  6
Continuous
 62
     7
100
AcDbPolyline
 90
       14
 70
   128
 43
0.0
 10
36.21442441072928
 20
4.744384208310591
 10
36.17736243637369
 20
4.724348608740824
 10
36.04545407054635
 20
4.661477945835135
 10
35.90819161197211
 20
4.608790903183627
 10
35.76586080356808
 20
4.566397160806722
 10
35.61875793917018
 20
4.534384970887415
 10
35.46718924673048
 20
4.512820974054351
 10
35.31147025083423
 20
4.501750060654271
 10
35.15192511586401
 20
4.501195277302558
 10
34.98888597117799
 20
4.511157778906492
 10
34.82269221970752
 20
4.531616826261058
 10
34.65368983141288
 20
4.562529829222293
 10
34.48223062306849
 20
4.603832435368322
 10
34.30867152587654
 20
4.655438663963504
  0
LINE
  5
333
330
1F
100
AcDbEntity
  8
0
  6
Continuous
 62
     7
100
AcDbLine
 10
34.2557777115358
 20
4.593137072301221
 30
0.0
 11
32.63834054669571
 21
5.526863672633889
 31
0.0
  0
LINE
  5
334
330
1F
100
AcDbEntity
  8
0
  6
Continuous
 62
     7
100
AcDbLine
 10
32.63834054669571
 20
5.526863672633889
 30
0.0
 11
32.63834054669571
 21
5.619700213360407
 31
0.0
  0
LWPOLYLINE
  5
335
330
1F
100
AcDbEntity
  8
0
  6
Continuous
 62
     7
100
AcDbPolyline
 90
       26
 70
   128
 43
0.0
 10
32.63834054669571
 20
5.619700213360407
 10
32.46478144950375
 20
5.768481053024383
 10
32.29332224115936
 20
5.925141035080614
 10
32.12431985286472
 20
6.089354036270592
 10
31.95812610139424
 20
6.26077821001464
 10
31.79508695670823
 20
6.439056698043048
 10
31.635541821738
 20
6.623818373277444
 10
31.47982282584175
 20
6.814678612415927
 10
31.32825413340205
 20
7.011240096613616
 10
31.18115126900415
 20
7.21309363859191
 10
31.03882046060013
 20
7.419819034454523
 10
30.90155800202588
 20
7.630985938437138
 10
30.76964963619854
 20
7.846154758769652
 10
30.64336996027764
 20
8.06487757278607
 10
30.52298185402897
 20
8.286699059377069
 10
30.40873593258082
 20
8.511157446844054
 10
30.30087002471169
 20
8.737785474181628
 10
30.19960867775583
 20
8.966111363787276
 10
30.10516269015711
 20
9.195659803573356
 10
30.01772867264421
 20
9.425952936436948
 10
29.93748863894088
 20
9.656511355027712
 10
29.8646096268631
 20
9.886855099742936
 10
29.79924335059201
 20
10.11650465787224
 10
29.74152588484647
 20
10.34498196181195
 10
29.69157738161269
 20
10.57181138427118
 10
29.6495018200206
 20
10.79652072839781
  0
LINE
  5
336
330
1F
100
AcDbEntity
  8
0
  6
Continuous
 62
     7
100
AcDbLine
 10
29.6495018200206
 20
10.79652072839781
 30
0.0
 11
29.56910737245095
 21
10.84293145509967
 31
0.0
  0
LWPOLYLINE
  5
337
330
1F
100
AcDbEntity
  8
0
  6
Continuous
 62
     7
100
AcDbPolyline
 90
      137
 70
   128
 43
0.0
 10
29.92405270552712
 20
11.60244415760751
 10
29.92784006166886
 20
11.78955349373422
 10
29.93919404768514
 20
11.97189074078439
 10
29.95809043359767
 20
12.1490667818839
 10
29.9844888935666
 20
12.3207035144322
 10
30.018333091948
 20
12.48643465699235
 10
30.05955080351694
 20
12.64590653095407
 10
30.10805406759976
 20
12.7987788153017
 10
30.16373937578656
 20
12.9447252728764
 10
30.22648789282341
 20
13.08343444658271
 10
30.29616571021271
 20
13.21461032405364
 10
30.37262413198073
 20
13.33797296935603
 10
30.45569999200227
 20
13.45325912038792
 10
30.54521600220542
 20
13.56022275069312
 10
30.64098113091322
 20
13.65863559449412
 10
30.7427910105149
 20
13.74828763382268
 10
30.85042837359666
 20
13.82898754670886
 10
30.96366351660126
 20
13.90056311547166
 10
31.08225479002703
 20
13.96286159424027
 10
31.20594911412002
 20
14.01575003492145
 10
31.33448251895905
 20
14.05911557091745
 10
31.46758070778066
 20
14.09286565798905
 10
31.60495964234244
 20
14.1169282717496
 10
31.74632614907475
 20
14.13125206136868
 10
31.89137854472806
 20
14.1358064591574
 10
32.03980728018006
 20
14.13058174580136
 10
32.19129560102921
 20
14.11558907110215
 10
32.34552022356452
 20
14.09086043018315
 10
32.50215202466931
 20
14.05644859521029
 10
32.66085674418652
 20
14.01242700277358
 10
32.82129569824674
 20
13.95888959716978
 10
32.98312650203665
 20
13.89595062992046
 10
33.14600380046544
 20
13.82374441595356
 10
33.30958000517004
 20
13.74242504696855
 10
33.47350603628613
 20
13.65216606259694
 10
33.63743206740223
 20
13.55316008006
 10
33.80100827210681
 20
13.44561838311391
 10
33.96388557053561
 20
13.32977047115954
 10
34.12571637432551
 20
13.20586356947918
 10
34.28615532838574
 20
13.07416210164534
 10
34.44486004790295
 20
12.9349471252275
 10
34.60149184900775
 20
12.78851573200112
 10
34.75571647154306
 20
12.63518041393879
 10
34.9072047923922
 20
12.47526839633662
 10
35.0556335278442
 20
12.30912093949898
 10
35.2006859234975
 20
12.13709261047182
 10
35.34205243022982
 20
11.95955052637868
 10
35.4794313647916
 20
11.7768735709743
 10
35.61252955361321
 20
11.58945158608757
 10
35.74106295845222
 20
11.39768453967941
 10
35.86475728254523
 20
11.201981672291
 10
35.98334855597099
 20
11.00276062370385
 10
36.09658369897559
 20
10.80044654167543
 10
36.20422106205735
 20
10.59547117465248
 10
36.30603094165902
 20
10.388271950398
 10
36.40179607036683
 20
10.1792910424984
 10
36.49131208056998
 20
9.968974426742786
 10
36.57438794059151
 20
9.757770929388151
 10
36.65084636235953
 20
9.546131269341496
 10
36.72052417974883
 20
9.334507096302996
 10
36.78327269678567
 20
9.123350026922774
 10
36.83895800497248
 20
8.913110681028188
 10
36.8874612690553
 20
8.704237719978462
 10
36.92867898062423
 20
8.497176889198668
 10
36.96252317900564
 20
8.292370066936577
 10
36.98892163897456
 20
8.090254321272193
 10
37.00781802488709
 20
7.891260977392433
 10
37.01917201090338
 20
7.695814697121459
 10
37.02295936704511
 20
7.504332572670932
 10
37.01917201090338
 20
7.317223236544224
 10
37.00781802488708
 20
7.134885989494048
 10
36.98892163897455
 20
6.957709948394545
 10
36.96252317900562
 20
6.78607321584625
 10
36.92867898062422
 20
6.620342073286099
 10
36.88746126905528
 20
6.46087019932438
 10
36.83895800497246
 20
6.30799791497675
 10
36.78327269678565
 20
6.162051457402047
 10
36.72052417974882
 20
6.023342283695745
 10
36.65084636235951
 20
5.892166406224816
 10
36.57438794059149
 20
5.768803760922422
 10
36.49131208056996
 20
5.653517609890537
 10
36.4017960703668
 20
5.546553979585333
 10
36.30603094165901
 20
5.448141135784342
 10
36.20422106205732
 20
5.358489096455775
 10
36.09658369897557
 20
5.277789183569599
 10
35.98334855597096
 20
5.206213614806804
 10
35.86475728254518
 20
5.143915136038199
 10
35.74106295845218
 20
5.091026695357023
 10
35.61252955361317
 20
5.047661159361018
 10
35.47943136479155
 20
5.013911072289416
 10
35.34205243022977
 20
4.989848458528871
 10
35.20068592349745
 20
4.97552466890979
 10
35.05563352784415
 20
4.970970271121073
 10
34.90720479239215
 20
4.976194984477118
 10
34.755716471543
 20
4.991187659176325
 10
34.6014918490077
 20
5.015916300095326
 10
34.4448600479029
 20
5.050328135068191
 10
34.28615532838569
 20
5.094349727504898
 10
34.12571637432546
 20
5.147887133108706
 10
33.96388557053556
 20
5.210826100358027
 10
33.80100827210676
 20
5.283032314324922
 10
33.63743206740217
 20
5.364351683309938
 10
33.47350603628608
 20
5.454610667681552
 10
33.30958000516999
 20
5.553616650218486
 10
33.14600380046539
 20
5.661158347164577
 10
32.9831265020366
 20
5.777006259118953
 10
32.82129569824669
 20
5.900913160799313
 10
32.66085674418647
 20
6.032614628633156
 10
32.50215202466926
 20
6.171829605050995
 10
32.34552022356447
 20
6.318260998277378
 10
32.19129560102916
 20
6.47159631633971
 10
32.03980728018001
 20
6.63150833394188
 10
31.89137854472801
 20
6.797655790779512
 10
31.74632614907471
 20
6.969684119806675
 10
31.6049596423424
 20
7.147226203899814
 10
31.46758070778063
 20
7.329903159304191
 10
31.334482518959
 20
7.517325144190928
 10
31.20594911411999
 20
7.709092190599091
 10
31.08225479002699
 20
7.9047950579875
 10
30.96366351660123
 20
8.10401610657465
 10
30.85042837359663
 20
8.306330188603065
 10
30.74279101051487
 20
8.511305555626018
 10
30.64098113091319
 20
8.718504779880503
 10
30.54521600220539
 20
8.927485687780104
 10
30.45569999200225
 20
9.137802303535713
 10
30.37262413198071
 20
9.34900580089035
 10
30.2961657102127
 20
9.560645460937003
 10
30.2264878928234
 20
9.772269633975503
 10
30.16373937578655
 20
9.983426703355725
 10
30.10805406759975
 20
10.19366604925031
 10
30.05955080351694
 20
10.40253901030004
 10
30.018333091948
 20
10.60959984107983
 10
29.9844888935666
 20
10.81440666334192
 10
29.95809043359767
 20
11.0165224090063
 10
29.93919404768515
 20
11.21551575288606
 10
29.92784006166886
 20
11.41096203315704
 10
29.92405270552712
 20
11.60244415760751
  0
LINE
  5
338
330
1F
100
AcDbEntity
  8
0
  6
Continuous
 62
     7
100
AcDbLine
 10
37.29717203612754
 20
8.249381351937844
 30
0.0
 11
37.29717203612754
 21
11.72932398526983
 31
0.0
  0
LINE
  5
339
330
1F
100
AcDbEntity
  8
0
  6
Continuous
 62
     7
100
AcDbLine
 10
37.35284973543357
 20
11.72932398526983
 30
0.0
 11
37.35284973543357
 21
8.249381351937842
 31
0.0
  0
LINE
  5
33A
330
1F
100
AcDbEntity
  8
0
  6
Continuous
 62
     7
100
AcDbLine
 10
37.35284973543357
 20
8.249381351937842
 30
0.0
 11
37.29717203612754
 21
8.249381351937844
 31
0.0
  0
LINE
  5
33B
330
1F
100
AcDbEntity
  8
0
  6
Continuous
 62
     7
100
AcDbLine
 10
37.29717203612754
 20
8.249381351937844
 30
0.0
 11
37.2446164382109
 21
8.279721052816427
 31
0.0
  0
LWPOLYLINE
  5
33C
330
1F
100
AcDbEntity
  8
0
  6
Continuous
 62
     7
100
AcDbPolyline
 90
       26
 70
   128
 43
0.0
 10
34.2557777115358
 20
13.45654156785383
 10
34.42933680872777
 20
13.30776072818985
 10
34.60079601707215
 20
13.15110074613362
 10
34.76979840536678
 20
12.98688774494364
 10
34.93599215683726
 20
12.81546357119959
 10
35.09903130152328
 20
12.63718508317119
 10
35.25857643649351
 20
12.45242340793679
 10
35.41429543238975
 20
12.26156316879831
 10
35.56586412482945
 20
12.06500168460062
 10
35.71296698922735
 20
11.86314814262232
 10
35.8552977976314
 20
11.65642274675971
 10
35.99256025620562
 20
11.4452558427771
 10
36.12446862203297
 20
11.23008702244458
 10
36.25074829795388
 20
11.01136420842816
 10
36.37113640420254
 20
10.78954272183716
 10
36.48538232565069
 20
10.56508433437018
 10
36.59324823351982
 20
10.33845630703261
 10
36.69450958047568
 20
10.11013041742696
 10
36.78895556807439
 20
9.880581977640876
 10
36.87638958558729
 20
9.650288844777284
 10
36.95662961929062
 20
9.419730426186524
 10
37.0295086313684
 20
9.189386681471301
 10
37.0948749076395
 20
8.959737123341998
 10
37.15259237338504
 20
8.731259819402286
 10
37.20254087661882
 20
8.504430396943059
 10
37.2446164382109
 20
8.279721052816427
  0
LINE
  5
33D
330
1F
100
AcDbEntity
  8
0
  6
Continuous
 62
     7
100
AcDbLine
 10
34.2557777115358
 20
13.45654156785383
 30
0.0
 11
34.2557777115358
 21
13.51723083252185
 31
0.0
  0
LINE
  5
33E
330
1F
100
AcDbEntity
  8
0
  6
Continuous
 62
     7
100
AcDbLine
 10
37.26933318647454
 20
11.77754228715161
 30
0.0
 11
34.2557777115358
 21
13.51723083252185
 31
0.0
  0
LWPOLYLINE
  5
33F
330
1F
100
AcDbEntity
  8
0
  6
Continuous
 62
     7
100
AcDbPolyline
 90
       30
 70
   128
 43
0.0
 10
37.18860052248079
 20
11.50267550145418
 10
37.18463029578998
 20
11.54712282046084
 10
37.17290525910504
 20
11.59407575839599
 10
37.15397366210993
 20
11.64133884806622
 10
37.12872072523913
 20
11.68670211992769
 10
37.09832724775415
 20
11.72804443780583
 10
37.06421439488224
 20
11.76343268086535
 10
37.02797724570998
 20
11.79121213419197
 10
36.99131020905796
 20
11.8100838614228
 10
36.95592779480757
 20
11.81916544156694
 10
36.92348444532438
 20
11.8180322300303
 10
36.89549717557207
 20
11.80673721452486
 10
36.87327463917865
 20
11.78580853742214
 10
36.85785593724727
 20
11.75622480040292
 10
36.84996203114361
 20
11.71936930613026
 10
36.84996203114361
 20
11.67696537655439
 10
36.85785593724727
 20
11.63099577229372
 10
36.87327463917865
 20
11.58360998095191
 10
36.89549717557208
 20
11.53702370946659
 10
36.92348444532438
 20
11.49341528011549
 10
36.95592779480757
 20
11.45482377458779
 10
36.99131020905796
 20
11.42305368879057
 10
37.02797724570998
 20
11.3995905566258
 10
37.06421439488224
 20
11.38553148807611
 10
37.09832724775415
 20
11.38153386956134
 10
37.12872072523913
 20
11.38778462528023
 10
37.15397366210993
 20
11.40399147684256
 10
37.17290525910504
 20
11.4293966098819
 10
37.18463029578998
 20
11.46281210861311
 10
37.18860052248079
 20
11.50267550145418
  0
LWPOLYLINE
  5
340
330
1F
100
AcDbEntity
  8
0
  6
Continuous
 62
     7
100
AcDbPolyline
 90
       25
 70
   128
 43
0.0
 10
36.91021202595065
 20
11.40620755121905
 10
36.90632282417479
 20
11.37433939771643
 10
36.89492026152104
 20
11.34913338300045
 10
36.87678140379062
 20
11.3323072553191
 10
36.85314238416197
 20
11.32500768746734
 10
36.82561416275747
 20
11.32773213293121
 10
36.79607274237329
 20
11.34029492525468
 10
36.76653132198911
 20
11.36183993090189
 10
36.7390031005846
 20
11.39089889334281
 10
36.71536408095597
 20
11.42549149230928
 10
36.69722522322555
 20
11.46326029934872
 10
36.68582266057179
 20
11.5016314326773
 10
36.68193345879594
 20
11.53798996296996
 10
36.68582266057179
 20
11.56985811647257
 10
36.69722522322555
 20
11.59506413118855
 10
36.71536408095597
 20
11.61189025886991
 10
36.73900310058462
 20
11.61918982672165
 10
36.76653132198911
 20
11.61646538125779
 10
36.7960727423733
 20
11.60390258893433
 10
36.82561416275747
 20
11.58235758328711
 10
36.85314238416197
 20
11.55329862084619
 10
36.87678140379062
 20
11.51870602187972
 10
36.89492026152104
 20
11.48093721484028
 10
36.90632282417479
 20
11.4425660815117
 10
36.91021202595065
 20
11.40620755121905
  0
LINE
  5
341
330
1F
100
AcDbEntity
  8
0
  6
Continuous
 62
     7
100
AcDbLine
 10
34.2557777115358
 20
13.51723083252185
 30
0.0
 11
34.28361656118881
 21
13.56544913440363
 31
0.0
  0
LINE
  5
342
330
1F
100
AcDbEntity
  8
0
  6
Continuous
 62
     7
100
AcDbLine
 10
34.28361656118881
 20
13.56544913440363
 30
0.0
 11
37.29717203612753
 21
11.82576058903338
 31
0.0
  0
LINE
  5
343
330
1F
100
AcDbEntity
  8
0
  6
Continuous
 62
     7
100
AcDbLine
 10
37.35284973543357
 20
2.840602155096215
 30
0.0
 11
37.40574354977429
 21
2.871137104160448
 31
0.0
  0
LINE
  5
344
330
1F
100
AcDbEntity
  8
0
  6
Continuous
 62
     7
100
AcDbLine
 10
37.35284973543357
 20
6.320544788428197
 30
0.0
 11
37.35284973543357
 21
2.840602155096215
 31
0.0
  0
LINE
  5
345
330
1F
100
AcDbEntity
  8
0
  6
Continuous
 62
     7
100
AcDbLine
 10
37.37790470012129
 20
6.335008711669153
 30
0.0
 11
37.35284973543357
 21
6.320544788428197
 31
0.0
  0
LINE
  5
346
330
1F
100
AcDbEntity
  8
0
  6
Continuous
 62
     7
100
AcDbLine
 10
37.35284973543357
 20
8.249381351937842
 30
0.0
 11
37.37790470012129
 21
8.263845275178799
 31
0.0
  0
LINE
  5
347
330
1F
100
AcDbEntity
  8
0
  6
Continuous
 62
     7
100
AcDbLine
 10
37.40574354977429
 20
11.75985893433407
 30
0.0
 11
37.40574354977429
 21
2.871137104160448
 31
0.0
  0
LINE
  5
348
330
1F
100
AcDbEntity
  8
0
  6
Continuous
 62
     7
100
AcDbLine
 10
34.30867152587654
 20
13.57991305764458
 30
0.0
 11
34.28361656118881
 21
13.56544913440363
 31
0.0
  0
LINE
  5
349
330
1F
100
AcDbEntity
  8
0
  6
Continuous
 62
     7
100
AcDbLine
 10
32.61328558200799
 20
14.52971068380053
 30
0.0
 11
32.63834054669571
 21
14.54417460704148
 31
0.0
  0
LINE
  5
34A
330
1F
100
AcDbEntity
  8
0
  6
Continuous
 62
     7
100
AcDbLine
 10
29.59973010706927
 20
16.26939922917077
 30
0.0
 11
32.61328558200799
 21
14.52971068380053
 31
0.0
  0
LINE
  5
34B
330
1F
100
AcDbEntity
  8
0
  6
Continuous
 62
     7
100
AcDbLine
 10
29.65262392140999
 20
16.29993417823501
 30
0.0
 11
29.59973010706927
 21
16.26939922917077
 31
0.0
  0
LINE
  5
34C
330
1F
100
AcDbEntity
  8
0
  6
Continuous
 62
     7
100
AcDbLine
 10
29.65262392140999
 20
16.29993417823501
 30
0.0
 11
37.35006585046826
 21
11.85629553809762
 31
0.0
  0
LWPOLYLINE
  5
34D
330
1F
100
AcDbEntity
  8
0
  6
Continuous
 62
     7
100
AcDbPolyline
 90
       18
 70
   128
 43
0.0
 10
29.95189155518014
 20
11.61851518343079
 10
29.95567891132186
 20
11.8056245195575
 10
29.96703289733816
 20
11.98796176660768
 10
29.98592928325068
 20
12.16513780770718
 10
30.01232774321961
 20
12.33677454025548
 10
30.04617194160101
 20
12.50250568281563
 10
30.08738965316996
 20
12.66197755677735
 10
30.13589291725277
 20
12.81484984112498
 10
30.19157822543957
 20
12.96079629869969
 10
30.25432674247642
 20
13.09950547240599
 10
30.32400455986572
 20
13.23068134987692
 10
30.40046298163374
 20
13.35404399517931
 10
30.48353884165529
 20
13.4693301462112
 10
30.57305485185843
 20
13.57629377651641
 10
30.66881998056623
 20
13.6747066203174
 10
30.77062986016791
 20
13.76435865964597
 10
30.87826722324968
 20
13.84505857253214
 10
30.97782549944932
 20
13.9086495509787
  0
LWPOLYLINE
  5
34E
330
1F
100
AcDbEntity
  8
0
  6
Continuous
 62
     7
100
AcDbPolyline
 90
       52
 70
   128
 43
0.0
 10
35.99702542441103
 20
5.214198206064879
 10
35.89259613219821
 20
5.159986161861481
 10
35.7689018081052
 20
5.107097721180305
 10
35.64036840326619
 20
5.063732185184299
 10
35.50727021444456
 20
5.029982098112697
 10
35.36989127988279
 20
5.005919484352153
 10
35.22852477315047
 20
4.991595694733072
 10
35.08347237749717
 20
4.987041296944353
 10
34.93504364204517
 20
4.992266010300401
 10
34.78355532119601
 20
5.007258684999606
 10
34.6293306986607
 20
5.031987325918608
 10
34.47269889755592
 20
5.066399160891474
 10
34.3139941780387
 20
5.110420753328179
 10
34.15355522397848
 20
5.163958158931988
 10
33.99172442018858
 20
5.226897126181308
 10
33.82884712175978
 20
5.299103340148204
 10
33.66527091705517
 20
5.380422709133221
 10
33.50134488593909
 20
5.470681693504833
 10
33.337418854823
 20
5.569687676041768
 10
33.17384265011841
 20
5.67722937298786
 10
33.01096535168961
 20
5.793077284942236
 10
32.84913454789971
 20
5.916984186622596
 10
32.68869559383949
 20
6.048685654456439
 10
32.52999087432228
 20
6.187900630874276
 10
32.37335907321749
 20
6.334332024100657
 10
32.21913445068218
 20
6.487667342162991
 10
32.06764612983303
 20
6.647579359765162
 10
31.91921739438103
 20
6.813726816602795
 10
31.77416499872773
 20
6.985755145629957
 10
31.63279849199541
 20
7.163297229723097
 10
31.49541955743364
 20
7.345974185127474
 10
31.36232136861201
 20
7.533396170014208
 10
31.233787963773
 20
7.725163216422371
 10
31.11009363968002
 20
7.920866083810782
 10
30.99150236625424
 20
8.120087132397932
 10
30.87826722324964
 20
8.322401214426346
 10
30.77062986016788
 20
8.527376581449301
 10
30.66881998056621
 20
8.734575805703784
 10
30.57305485185841
 20
8.943556713603387
 10
30.48353884165527
 20
9.153873329358994
 10
30.40046298163373
 20
9.365076826713633
 10
30.32400455986572
 20
9.576716486760281
 10
30.25432674247641
 20
9.788340659798783
 10
30.19157822543957
 20
9.999497729179009
 10
30.13589291725277
 20
10.20973707507359
 10
30.08738965316995
 20
10.41861003612332
 10
30.04617194160101
 20
10.62567086690311
 10
30.01232774321961
 20
10.8304776891652
 10
29.98592928325068
 20
11.03259343482958
 10
29.96703289733816
 20
11.23158677870934
 10
29.95567891132187
 20
11.42703305898032
 10
29.95189155518014
 20
11.61851518343079
  0
LWPOLYLINE
  5
34F
330
1F
100
AcDbEntity
  8
0
  6
Continuous
 62
     7
100
AcDbPolyline
 90
       12
 70
   128
 43
0.0
 10
36.82867579981569
 20
11.5795897928523
 10
36.81651946609981
 20
11.57845278624801
 10
36.80204540094994
 20
11.56847397412164
 10
36.7942842769757
 20
11.54982011708236
 10
36.7942842769757
 20
11.52501052188793
 10
36.80204540094994
 20
11.49739586184406
 10
36.81651946609981
 20
11.47070564980779
 10
36.83575166972328
 20
11.44854454681019
 10
36.85714459615166
 20
11.43390553261
 10
36.87780901212852
 20
11.42876568719252
 10
36.89495407377068
 20
11.43381917516227
 10
36.9054618444045
 20
11.44657805021357
  0
ARC
  5
350
330
1F
100
AcDbEntity
  8
0
  6
Continuous
 62
     7
100
AcDbCircle
 10
36.92314619206939
 20
11.5454566981364
 30
0.0
 40
0.1040588523670357
100
AcDbArc
 50
160.782170805644
 51
259.2124526617368
  0
LINE
  5
351
330
1F
100
AcDbEntity
  8
0
  6
Continuous
 62
     7
100
AcDbLine
 10
37.29717203612754
 20
2.840602155096215
 30
0.0
 11
37.29717203612754
 21
6.3205447884282
 31
0.0
  0
LINE
  5
352
330
1F
100
AcDbEntity
  8
0
  6
Continuous
 62
     7
100
AcDbLine
 10
37.29717203612754
 20
6.3205447884282
 30
0.0
 11
37.35284973543357
 21
6.320544788428197
 31
0.0
  0
LINE
  5
353
330
1F
100
AcDbEntity
  8
0
  6
Continuous
 62
     7
100
AcDbLine
 10
37.29717203612754
 20
2.840602155096215
 30
0.0
 11
37.35284973543357
 21
2.840602155096215
 31
0.0
  0
LINE
  5
354
330
1F
100
AcDbEntity
  8
0
  6
Continuous
 62
     7
100
AcDbLine
 10
37.2446164382109
 20
6.350884489306777
 30
0.0
 11
37.29751025255164
 21
6.381419438371012
 31
0.0
  0
LINE
  5
355
330
1F
100
AcDbEntity
  8
0
  6
Continuous
 62
     7
100
AcDbLine
 10
37.2446164382109
 20
6.350884489306777
 30
0.0
 11
37.29717203612754
 21
6.3205447884282
 31
0.0
  0
LINE
  5
356
330
1F
100
AcDbEntity
  8
0
  6
Continuous
 62
     7
100
AcDbLine
 10
32.58544673235498
 20
14.48149238191875
 30
0.0
 11
29.57189125741625
 21
16.221180927289
 31
0.0
  0
LINE
  5
357
330
1F
100
AcDbEntity
  8
0
  6
Continuous
 62
     7
100
AcDbLine
 10
29.57189125741625
 20
16.221180927289
 30
0.0
 11
29.59973010706927
 21
16.26939922917077
 31
0.0
  0
LINE
  5
358
330
1F
100
AcDbEntity
  8
0
  6
Continuous
 62
     7
100
AcDbLine
 10
32.61328558200799
 20
14.52971068380053
 30
0.0
 11
32.58544673235498
 21
14.48149238191875
 31
0.0
  0
LINE
  5
359
330
1F
100
AcDbEntity
  8
0
  6
Continuous
 62
     7
100
AcDbLine
 10
32.63834054669571
 20
14.45133806631496
 30
0.0
 11
32.58544673235498
 21
14.42080311725072
 31
0.0
  0
LINE
  5
35A
330
1F
100
AcDbEntity
  8
0
  6
Continuous
 62
     7
100
AcDbLine
 10
32.58544673235498
 20
14.48149238191875
 30
0.0
 11
32.58544673235498
 21
14.42080311725072
 31
0.0
  0
LINE
  5
35B
330
1F
100
AcDbEntity
  8
0
  6
Continuous
 62
     7
100
AcDbLine
 10
34.2557777115358
 20
4.564214450231248
 30
0.0
 11
37.26933318647454
 21
2.824525904861003
 31
0.0
  0
LINE
  5
35C
330
1F
100
AcDbEntity
  8
0
  6
Continuous
 62
     7
100
AcDbLine
 10
34.2557777115358
 20
4.564214450231248
 30
0.0
 11
34.2557777115358
 21
4.624903714899269
 31
0.0
  0
LWPOLYLINE
  5
35D
330
1F
100
AcDbEntity
  8
0
  6
Continuous
 62
     7
100
AcDbPolyline
 90
       26
 70
   128
 43
0.0
 10
37.2446164382109
 20
6.350884489306777
 10
37.20254087661882
 20
6.174754554552566
 10
37.15259237338504
 20
6.005594446401202
 10
37.0948749076395
 20
5.843756309956726
 10
37.0295086313684
 20
5.689577047979601
 10
36.95662961929062
 20
5.543377619547251
 10
36.8763895855873
 20
5.405462371905016
 10
36.78895556807439
 20
5.276118406898362
 10
36.69450958047568
 20
5.155614983305331
 10
36.59324823351982
 20
5.044202956313371
 10
36.48538232565069
 20
4.9421142553074
 10
36.37113640420254
 20
4.849561401056234
 10
36.25074829795388
 20
4.76673706330244
 10
36.12446862203297
 20
4.69381365967659
 10
35.99256025620562
 20
4.630942996770901
 10
35.8552977976314
 20
4.578255954119393
 10
35.71296698922735
 20
4.535862211742488
 10
35.56586412482945
 20
4.503850021823179
 10
35.41429543238975
 20
4.482286024990117
 10
35.25857643649351
 20
4.471215111590037
 10
35.09903130152328
 20
4.470660328238322
 10
34.93599215683726
 20
4.480622829842256
 10
34.76979840536678
 20
4.501081877196825
 10
34.60079601707215
 20
4.531994880158058
 10
34.42933680872776
 20
4.573297486304086
 10
34.2557777115358
 20
4.624903714899269
  0
ARC
  5
35E
330
1F
100
AcDbEntity
  8
0
  6
Continuous
 62
     7
100
AcDbCircle
 10
37.28020060433909
 20
2.837849115848161
 30
0.0
 40
0.0171932754893162
100
AcDbArc
 50
230.7967147643098
 51
9.214036990442636
  0
LWPOLYLINE
  5
35F
330
1F
100
AcDbEntity
  8
0
  6
Continuous
 62
     7
100
AcDbPolyline
 90
       30
 70
   128
 43
0.0
 10
37.18860052248094
 20
3.192604640333373
 10
37.18463029579014
 20
3.237051959340022
 10
37.1729052591052
 20
3.284004897275154
 10
37.15397366211008
 20
3.331267986945368
 10
37.1287207252393
 20
3.376631258806831
 10
37.09832724775433
 20
3.417973576684961
 10
37.06421439488244
 20
3.453361819744461
 10
37.02797724571018
 20
3.481141273071076
 10
36.99131020905817
 20
3.500013000301898
 10
36.95592779480779
 20
3.509094580446035
 10
36.92348444532461
 20
3.507961368909393
 10
36.89549717557232
 20
3.496666353403957
 10
36.87327463917889
 20
3.475737676301248
 10
36.85785593724752
 20
3.446153939282039
 10
36.84996203114386
 20
3.409298445009384
 10
36.84996203114386
 20
3.366894515433533
 10
36.85785593724752
 20
3.32092491117287
 10
36.87327463917891
 20
3.273539119831076
 10
36.89549717557232
 20
3.226952848345773
 10
36.92348444532461
 20
3.18334441899469
 10
36.95592779480779
 20
3.144752913466993
 10
36.99131020905817
 20
3.112982827669783
 10
37.02797724571018
 20
3.089519695505021
 10
37.06421439488244
 20
3.075460626955336
 10
37.09832724775433
 20
3.071463008440573
 10
37.1287207252393
 20
3.077713764159455
 10
37.15397366211008
 20
3.093920615721778
 10
37.1729052591052
 20
3.119325748761113
 10
37.18463029579014
 20
3.152741247492316
 10
37.18860052248094
 20
3.192604640333373
  0
LWPOLYLINE
  5
360
330
1F
100
AcDbEntity
  8
0
  6
Continuous
 62
     7
100
AcDbPolyline
 90
       25
 70
   128
 43
0.0
 10
36.91021202595079
 20
3.610493107034148
 10
36.90632282417494
 20
3.578624953531546
 10
36.89492026152119
 20
3.553418938815578
 10
36.87678140379077
 20
3.536592811134227
 10
36.85314238416214
 20
3.529293243282486
 10
36.82561416275766
 20
3.532017688746346
 10
36.79607274237348
 20
3.544580481069803
 10
36.76653132198932
 20
3.566125486717011
 10
36.73900310058483
 20
3.595184449157916
 10
36.71536408095619
 20
3.629777048124376
 10
36.69722522322578
 20
3.667545855163802
 10
36.68582266057204
 20
3.70591698849236
 10
36.68193345879617
 20
3.742275518785004
 10
36.68582266057204
 20
3.774143672287606
 10
36.69722522322578
 20
3.799349687003573
 10
36.71536408095619
 20
3.816175814684925
 10
36.73900310058483
 20
3.823475382536665
 10
36.76653132198932
 20
3.820750937072805
 10
36.79607274237348
 20
3.808188144749347
 10
36.82561416275766
 20
3.78664313910214
 10
36.85314238416214
 20
3.757584176661236
 10
36.87678140379077
 20
3.722991577694773
 10
36.89492026152119
 20
3.685222770655348
 10
36.90632282417494
 20
3.646851637326791
 10
36.91021202595079
 20
3.610493107034148
  0
LWPOLYLINE
  5
361
330
1F
100
AcDbEntity
  8
0
  6
Continuous
 62
     7
100
AcDbPolyline
 90
       26
 70
   128
 43
0.0
 10
29.59660800567987
 20
12.69482234284322
 10
29.63868356727196
 20
12.87095227759743
 10
29.68863207050575
 20
13.0401123857488
 10
29.74634953625129
 20
13.20195052219327
 10
29.81171581252238
 20
13.3561297841704
 10
29.88459482460015
 20
13.50232921260275
 10
29.96483485830349
 20
13.64024446024498
 10
30.05226887581638
 20
13.76958842525164
 10
30.14671486341511
 20
13.89009184884467
 10
30.24797621037096
 20
14.00150387583663
 10
30.35584211824009
 20
14.1035925768426
 10
30.47008803968825
 20
14.19614543109376
 10
30.5904761459369
 20
14.27896976884756
 10
30.71675582185782
 20
14.35189317247341
 10
30.84866418768516
 20
14.4147638353791
 10
30.98592664625939
 20
14.46745087803061
 10
31.12825745466343
 20
14.50984462040751
 10
31.27536031906132
 20
14.54185681032682
 10
31.42692901150103
 20
14.56342080715988
 10
31.58264800739727
 20
14.57449172055996
 10
31.7421931423675
 20
14.57504650391168
 10
31.90523228705352
 20
14.56508400230774
 10
32.07142603852399
 20
14.54462495495317
 10
32.24042842681862
 20
14.51371195199194
 10
32.41188763516302
 20
14.47240934584591
 10
32.58544673235498
 20
14.42080311725072
  0
LINE
  5
362
330
1F
100
AcDbEntity
  8
0
  6
Continuous
 62
     7
100
AcDbLine
 10
29.59660800567987
 20
12.69482234284322
 30
0.0
 11
29.54405240776324
 21
12.7251620437218
 31
0.0
  0
LINE
  5
363
330
1F
100
AcDbEntity
  8
0
  6
Continuous
 62
     7
100
AcDbLine
 10
29.54405240776324
 20
16.20510467705379
 30
0.0
 11
29.54405240776324
 21
12.7251620437218
 31
0.0
  0
ARC
  5
364
330
1F
100
AcDbEntity
  8
0
  6
Continuous
 62
     7
100
AcDbCircle
 10
29.56102383955168
 20
16.20785771630185
 30
0.0
 40
0.0171932754893121
100
AcDbArc
 50
50.7967147642702
 51
189.214036990468
  0
LWPOLYLINE
  5
365
330
1F
100
AcDbEntity
  8
0
  6
Continuous
 62
     7
100
AcDbPolyline
 90
       30
 70
   128
 43
0.0
 10
29.99225788717698
 20
15.65703567677215
 10
29.98828766048617
 20
15.70148299577886
 10
29.97656262380121
 20
15.74843593371407
 10
29.95763102680606
 20
15.79569902338436
 10
29.93237808993525
 20
15.84106229524589
 10
29.90198461245022
 20
15.88240461312409
 10
29.86787175957827
 20
15.91779285618364
 10
29.83163461040596
 20
15.9455723095103
 10
29.7949675737539
 20
15.96444403674115
 10
29.75958515950345
 20
15.9735256168853
 10
29.72714181002024
 20
15.97239240534866
 10
29.6991545402679
 20
15.96109738984321
 10
29.67693200387444
 20
15.94016871274047
 10
29.66151330194304
 20
15.91058497572121
 10
29.65361939583936
 20
15.8737294814485
 10
29.65361939583936
 20
15.83132555187258
 10
29.66151330194304
 20
15.78535594761184
 10
29.67693200387444
 20
15.73797015626998
 10
29.6991545402679
 20
15.6913838847846
 10
29.72714181002024
 20
15.64777545543345
 10
29.75958515950346
 20
15.60918394990569
 10
29.7949675737539
 20
15.57741386410843
 10
29.83163461040596
 20
15.55395073194363
 10
29.86787175957828
 20
15.53989166339392
 10
29.90198461245023
 20
15.53589404487915
 10
29.93237808993525
 20
15.54214480059805
 10
29.95763102680607
 20
15.5583516521604
 10
29.97656262380121
 20
15.58375678519977
 10
29.98828766048617
 20
15.61717228393102
 10
29.99225788717698
 20
15.65703567677215
  0
LWPOLYLINE
  5
366
330
1F
100
AcDbEntity
  8
0
  6
Continuous
 62
     7
100
AcDbPolyline
 90
       25
 70
   128
 43
0.0
 10
30.15929098509504
 20
15.30343131336452
 10
30.15540178331918
 20
15.27156315986185
 10
30.14399922066541
 20
15.24635714514583
 10
30.12586036293495
 20
15.22953101746444
 10
30.10222134330627
 20
15.22223144961268
 10
30.07469312190172
 20
15.22495589507655
 10
30.04515170151749
 20
15.23751868740004
 10
30.01561028113326
 20
15.25906369304729
 10
29.98808205972872
 20
15.28812265548826
 10
29.96444304010002
 20
15.3227152544548
 10
29.94630418236956
 20
15.3604840614943
 10
29.93490161971579
 20
15.39885519482294
 10
29.93101241793993
 20
15.43521372511567
 10
29.93490161971579
 20
15.46708187861834
 10
29.94630418236956
 20
15.49228789333436
 10
29.96444304010002
 20
15.50911402101575
 10
29.98808205972872
 20
15.51641358886751
 10
30.01561028113326
 20
15.51368914340364
 10
30.04515170151749
 20
15.50112635108016
 10
30.07469312190172
 20
15.4795813454329
 10
30.10222134330627
 20
15.45052238299193
 10
30.12586036293495
 20
15.41592978402539
 10
30.14399922066541
 20
15.37816097698589
 10
30.15540178331918
 20
15.33978984365725
 10
30.15929098509504
 20
15.30343131336452
  0
LINE
  5
367
330
1F
100
AcDbEntity
  8
0
  6
Continuous
 62
     7
100
AcDbLine
 10
34.30867152587654
 20
4.655438663963504
 30
0.0
 11
34.2557777115358
 21
4.624903714899269
 31
0.0
  0
LINE
  5
368
330
1F
100
AcDbEntity
  8
0
  6
Continuous
 62
     7
100
AcDbLine
 10
29.59660800567987
 20
12.69482234284322
 30
0.0
 11
29.6495018200206
 21
12.72535729190746
 31
0.0
  0
LWPOLYLINE
  5
369
330
1F
100
AcDbEntity
  8
0
  6
Continuous
 62
     7
100
AcDbPolyline
 90
       12
 70
   128
 43
0.0
 10
36.82867579984268
 20
3.783875348665135
 10
36.81651946610003
 20
3.782738342063019
 10
36.80204540095016
 20
3.772759529936658
 10
36.79428427697594
 20
3.754105672897401
 10
36.79428427697594
 20
3.729296077702989
 10
36.80204540095016
 20
3.701681417659142
 10
36.81651946610003
 20
3.674991205622894
 10
36.83575166972348
 20
3.652830102625312
 10
36.85714459615186
 20
3.638191088425128
 10
36.87780901212868
 20
3.633051243007658
 10
36.89495407377083
 20
3.638104730977395
 10
36.90546184441646
 20
3.650863606053615
  0
LWPOLYLINE
  5
36A
330
1F
100
AcDbEntity
  8
0
  6
Continuous
 62
     7
100
AcDbPolyline
 90
       12
 70
   128
 43
0.0
 10
30.07775475907784
 20
15.47681355498857
 10
30.06559842524388
 20
15.47567654839386
 10
30.05112436009395
 20
15.46569773626745
 10
30.04336323611969
 20
15.44704387922812
 10
30.04336323611969
 20
15.4222342840336
 10
30.05112436009395
 20
15.39461962398963
 10
30.06559842524388
 20
15.36792941195327
 10
30.08483062886742
 20
15.34576830895559
 10
30.10622355529588
 20
15.33112929475535
 10
30.1268879712728
 20
15.32598944933786
 10
30.14403303291502
 20
15.33104293730761
 10
30.15454080359724
 20
15.34380181246098
  0
ARC
  5
36B
330
1F
100
AcDbEntity
  8
0
  6
Continuous
 62
     7
100
AcDbCircle
 10
36.9231461920697
 20
3.749742253951525
 30
0.0
 40
0.1040588523671079
100
AcDbArc
 50
160.7821708057795
 51
259.2124526615216
  0
ARC
  5
36C
330
1F
100
AcDbEntity
  8
0
  6
Continuous
 62
     7
100
AcDbCircle
 10
30.17222515121354
 20
15.44268046028194
 30
0.0
 40
0.1040588523671735
100
AcDbArc
 50
160.7821708053431
 51
259.2124526619507
  0
ARC
  5
36D
330
1F
100
AcDbEntity
  8
0
  6
Continuous
 62
     7
100
AcDbCircle
 10
37.31890687185668
 20
2.835096076600096
 30
0.0
 40
0.0343865509786211
100
AcDbArc
 50
230.7967147642821
 51
9.214036990465122
  0
LINE
  5
36E
330
1F
100
AcDbEntity
  8
0
  6
Continuous
 62
     7
100
AcDbLine
 10
37.26933318647454
 20
2.824525904861003
 30
0.0
 11
37.29717203612754
 21
2.808449654625789
 31
0.0
  0
LINE
  5
36F
330
1F
100
AcDbEntity
  8
0
  6
Continuous
 62
     7
100
AcDbLine
 10
29.54405240776324
 20
16.20510467705379
 30
0.0
 11
29.54405240776324
 21
16.23724672870035
 31
0.0
  0
ARC
  5
370
330
1F
100
AcDbEntity
  8
0
  6
Continuous
 62
     7
100
AcDbCircle
 10
29.57799527134013
 20
16.24275280719646
 30
0.0
 40
0.0343865509786197
100
AcDbArc
 50
50.79671476427936
 51
189.2140369904671
  0
ARC
  5
371
330
1F
100
AcDbEntity
  8
0
  6
Continuous
 62
     7
100
AcDbCircle
 10
37.36828799420353
 20
2.86636828300538
 30
0.0
 40
0.0377579170284118
100
AcDbArc
 50
304.056350820218
 51
7.255829573142979
  0
ARC
  5
372
330
1F
100
AcDbEntity
  8
0
  6
Continuous
 62
     7
100
AcDbCircle
 10
29.62955935016193
 20
16.26773879798946
 30
0.0
 40
0.0396045067639167
100
AcDbArc
 50
54.38242252480717
 51
114.307119046105
  0
LINE
  5
373
330
1F
100
AcDbEntity
  8
0
  6
Continuous
 62
     7
100
AcDbLine
 10
37.29717203612754
 20
2.808449654625789
 30
0.0
 11
34.28361656118881
 21
4.548138199996033
 31
0.0
  0
LINE
  5
374
330
1F
100
AcDbEntity
  8
0
  6
Continuous
 62
     7
100
AcDbLine
 10
34.28361656118881
 20
4.548138199996033
 30
0.0
 11
34.2557777115358
 21
4.564214450231248
 31
0.0
  0
LINE
  5
375
330
1F
100
AcDbEntity
  8
0
  6
Continuous
 62
     7
100
AcDbLine
 10
32.58544673235498
 20
5.589165264296171
 30
0.0
 11
32.63834054669571
 21
5.619700213360407
 31
0.0
  0
LWPOLYLINE
  5
376
330
1F
100
AcDbEntity
  8
0
  6
Continuous
 62
     7
100
AcDbPolyline
 90
       26
 70
   128
 43
0.0
 10
32.58544673235498
 20
5.589165264296171
 10
32.41188763516302
 20
5.737946103960147
 10
32.24042842681862
 20
5.894606086016381
 10
32.07142603852399
 20
6.058819087206357
 10
31.90523228705352
 20
6.230243260950403
 10
31.7421931423675
 20
6.408521748978811
 10
31.58264800739727
 20
6.59328342421321
 10
31.42692901150103
 20
6.784143663351692
 10
31.27536031906132
 20
6.980705147549382
 10
31.12825745466343
 20
7.182558689527676
 10
30.98592664625939
 20
7.389284085390288
 10
30.84866418768516
 20
7.600450989372902
 10
30.71675582185782
 20
7.815619809705416
 10
30.5904761459369
 20
8.034342623721837
 10
30.47008803968825
 20
8.256164110312833
 10
30.35584211824009
 20
8.480622497779818
 10
30.24797621037096
 20
8.707250525117393
 10
30.14671486341511
 20
8.93557641472304
 10
30.05226887581638
 20
9.165124854509124
 10
29.96483485830349
 20
9.395417987372713
 10
29.88459482460017
 20
9.625976405963478
 10
29.81171581252238
 20
9.856320150678698
 10
29.74634953625129
 20
10.085969708808
 10
29.68863207050575
 20
10.31444701274771
 10
29.63868356727196
 20
10.54127643520694
 10
29.59660800567987
 20
10.76598577933357
  0
LINE
  5
377
330
1F
100
AcDbEntity
  8
0
  6
Continuous
 62
     7
100
AcDbLine
 10
29.6495018200206
 20
10.79652072839781
 30
0.0
 11
29.59660800567987
 21
10.76598577933357
 31
0.0
  0
LINE
  5
378
330
1F
100
AcDbEntity
  8
0
  6
Continuous
 62
     7
100
AcDbLine
 10
29.54405240776324
 20
10.79632548021215
 30
0.0
 11
29.54405240776324
 21
7.316382846880166
 31
0.0
  0
LINE
  5
379
330
1F
100
AcDbEntity
  8
0
  6
Continuous
 62
     7
100
AcDbLine
 10
29.54405240776324
 20
10.79632548021215
 30
0.0
 11
29.59660800567987
 21
10.76598577933357
 31
0.0
  0
LINE
  5
37A
330
1F
100
AcDbEntity
  8
0
  6
Continuous
 62
     7
100
AcDbLine
 10
32.58544673235498
 20
5.589165264296171
 30
0.0
 11
32.58544673235498
 21
5.528475999628146
 31
0.0
  0
LINE
  5
37B
330
1F
100
AcDbEntity
  8
0
  6
Continuous
 62
     7
100
AcDbLine
 10
29.57189125741625
 20
7.268164544998392
 30
0.0
 11
32.58544673235498
 21
5.528475999628146
 31
0.0
  0
ARC
  5
37C
330
1F
100
AcDbEntity
  8
0
  6
Continuous
 62
     7
100
AcDbCircle
 10
29.60449398655724
 20
7.319133274134528
 30
0.0
 40
0.0605041262823746
100
AcDbArc
 50
182.6054784856636
 51
237.3945216599724
  0
LWPOLYLINE
  5
37D
330
1F
100
AcDbEntity
  8
0
  6
Continuous
 62
     7
100
AcDbPolyline
 90
       30
 70
   128
 43
0.0
 10
29.99225788717711
 20
7.346964815651345
 10
29.98828766048631
 20
7.391412134658044
 10
29.97656262380136
 20
7.438365072593234
 10
29.95763102680621
 20
7.485628162263503
 10
29.93237808993541
 20
7.530991434125021
 10
29.90198461245039
 20
7.572333752003201
 10
29.86787175957845
 20
7.607721995062741
 10
29.83163461040616
 20
7.635501448389391
 10
29.79496757375411
 20
7.654373175620235
 10
29.75958515950368
 20
7.663454755764383
 10
29.72714181002047
 20
7.66232154422774
 10
29.69915454026815
 20
7.651026528722289
 10
29.67693200387469
 20
7.630097851619557
 10
29.6615133019433
 20
7.600514114600312
 10
29.65361939583962
 20
7.563658620327612
 10
29.65361939583962
 20
7.521254690751712
 10
29.6615133019433
 20
7.475285086490992
 10
29.67693200387469
 20
7.427899295149144
 10
29.69915454026815
 20
7.381313023663785
 10
29.72714181002048
 20
7.337704594312647
 10
29.75958515950368
 20
7.299113088784905
 10
29.79496757375411
 20
7.267343002987657
 10
29.83163461040617
 20
7.243879870822869
 10
29.86787175957847
 20
7.229820802273165
 10
29.9019846124504
 20
7.2258231837584
 10
29.93237808993541
 20
7.232073939477287
 10
29.95763102680622
 20
7.248280791039631
 10
29.97656262380136
 20
7.273685924078997
 10
29.98828766048631
 20
7.307101422810239
 10
29.99225788717711
 20
7.346964815651345
  0
LWPOLYLINE
  5
37E
330
1F
100
AcDbEntity
  8
0
  6
Continuous
 62
     7
100
AcDbPolyline
 90
       25
 70
   128
 43
0.0
 10
30.15929098509517
 20
7.507716869179632
 10
30.15540178331931
 20
7.475848715676977
 10
30.14399922066555
 20
7.450642700960968
 10
30.1258603629351
 20
7.433816573279589
 10
30.10222134330642
 20
7.426517005427837
 10
30.07469312190189
 20
7.429241450891701
 10
30.04515170151767
 20
7.441804243215178
 10
30.01561028113346
 20
7.46334924886242
 10
29.98808205972892
 20
7.492408211303374
 10
29.96444304010025
 20
7.527000810269892
 10
29.9463041823698
 20
7.56476961730938
 10
29.93490161971604
 20
7.603140750638001
 10
29.93101241794018
 20
7.639499280930707
 10
29.93490161971604
 20
7.67136743443336
 10
29.94630418236981
 20
7.69657344914937
 10
29.96444304010026
 20
7.713399576830747
 10
29.98808205972893
 20
7.7206991446825
 10
30.01561028113346
 20
7.717974699218636
 10
30.04515170151768
 20
7.705411906895156
 10
30.07469312190189
 20
7.683866901247914
 10
30.10222134330643
 20
7.654807938806962
 10
30.1258603629351
 20
7.620215339840441
 10
30.14399922066555
 20
7.582446532800955
 10
30.15540178331931
 20
7.544075399472335
 10
30.15929098509517
 20
7.507716869179632
  0
LINE
  5
37F
330
1F
100
AcDbEntity
  8
0
  6
Continuous
 62
     7
100
AcDbLine
 10
32.58544673235498
 20
5.528475999628146
 30
0.0
 11
32.61328558200799
 21
5.512399749392933
 31
0.0
  0
LINE
  5
380
330
1F
100
AcDbEntity
  8
0
  6
Continuous
 62
     7
100
AcDbLine
 10
32.63834054669571
 20
5.526863672633889
 30
0.0
 11
32.61328558200799
 21
5.512399749392933
 31
0.0
  0
LINE
  5
381
330
1F
100
AcDbEntity
  8
0
  6
Continuous
 62
     7
100
AcDbLine
 10
29.54405240776324
 20
10.82846753185872
 30
0.0
 11
29.54405240776324
 21
10.79632548021215
 31
0.0
  0
LINE
  5
382
330
1F
100
AcDbEntity
  8
0
  6
Continuous
 62
     7
100
AcDbLine
 10
29.54405240776324
 20
10.82846753185872
 30
0.0
 11
29.56910737245095
 21
10.84293145509967
 31
0.0
  0
LINE
  5
383
330
1F
100
AcDbEntity
  8
0
  6
Continuous
 62
     7
100
AcDbLine
 10
29.57189125741625
 20
7.268164544998392
 30
0.0
 11
29.59973010706927
 21
7.252088294763181
 31
0.0
  0
LINE
  5
384
330
1F
100
AcDbEntity
  8
0
  6
Continuous
 62
     7
100
AcDbLine
 10
32.61328558200799
 20
5.512399749392933
 30
0.0
 11
29.59973010706927
 21
7.252088294763181
 31
0.0
  0
LWPOLYLINE
  5
385
330
1F
100
AcDbEntity
  8
0
  6
Continuous
 62
     7
100
AcDbPolyline
 90
       12
 70
   128
 43
0.0
 10
30.07775475896315
 20
7.681099110812892
 10
30.06559842524411
 20
7.679962104208849
 10
30.0511243600942
 20
7.669983292082457
 10
30.04336323611995
 20
7.651329435043138
 10
30.04336323611995
 20
7.626519839848648
 10
30.0511243600942
 20
7.598905179804713
 10
30.06559842524411
 20
7.572214967768383
 10
30.08483062886762
 20
7.55005386477073
 10
30.10622355529606
 20
7.535414850570499
 10
30.12688797127296
 20
7.530275005153011
 10
30.14403303291517
 20
7.535328493122766
 10
30.15454080355017
 20
7.548087368176558
  0
ARC
  5
386
330
1F
100
AcDbEntity
  8
0
  6
Continuous
 62
     7
100
AcDbCircle
 10
30.17222515121394
 20
7.646966016097137
 30
0.0
 40
0.1040588523673289
100
AcDbArc
 50
160.7821708056562
 51
259.2124526616442
  0
LWPOLYLINE
  5
387
330
1F
100
AcDbEntity
  8
0
  6
Continuous
 62
     7
100
AcDbPolyline
 90
       30
 70
   128
 43
0.0
 10
37.1858166375155
 20
11.50428260403651
 10
37.18191149650814
 20
11.54800127846929
 10
37.17037867353936
 20
11.59418449611042
 10
37.15175743059332
 20
11.64067278103195
 10
37.12691847629419
 20
11.68529239269898
 10
37.09702325253847
 20
11.72595696766109
 10
37.06346962676282
 20
11.76076507558848
 10
37.02782652921633
 20
11.78808912804089
 10
36.99176059152583
 20
11.80665148269417
 10
36.95695821685329
 20
11.81558418447528
 10
36.92504672555837
 20
11.81446955017695
 10
36.89751826350692
 20
11.80335969886012
 10
36.87566003098879
 20
11.78277411482467
 10
36.86049409466284
 20
11.75367535710085
 10
36.85272959685596
 20
11.71742405125888
 10
36.85272959685596
 20
11.6757152680695
 10
36.86049409466284
 20
11.63049926387868
 10
36.87566003098879
 20
11.58389028878837
 10
36.89751826350692
 20
11.53806772667167
 10
36.92504672555837
 20
11.49517418960501
 10
36.95695821685329
 20
11.45721533170891
 10
36.99176059152583
 20
11.42596606699033
 10
37.02782652921633
 20
11.40288757633646
 10
37.06346962676282
 20
11.38905898432037
 10
37.09702325253847
 20
11.38512690053536
 10
37.12691847629419
 20
11.39127518484901
 10
37.15175743059332
 20
11.40721635032016
 10
37.17037867353936
 20
11.43220500576869
 10
37.18191149650814
 20
11.46507270943874
 10
37.1858166375155
 20
11.50428260403651
  0
LWPOLYLINE
  5
388
330
1F
100
AcDbEntity
  8
0
  6
Continuous
 62
     7
100
AcDbPolyline
 90
       30
 70
   128
 43
0.0
 10
29.98947400221146
 20
15.6586427793546
 10
29.98556886120411
 20
15.70236145378738
 10
29.97403603823532
 20
15.74854467142851
 10
29.95541479528929
 20
15.79503295635004
 10
29.93057584099017
 20
15.83965256801707
 10
29.90068061723444
 20
15.88031714297918
 10
29.86712699145879
 20
15.91512525090657
 10
29.8314838939123
 20
15.94244930335898
 10
29.7954179562218
 20
15.96101165801226
 10
29.76061558154927
 20
15.96994435979337
 10
29.72870409025434
 20
15.96882972549504
 10
29.7011756282029
 20
15.95771987417821
 10
29.67931739568476
 20
15.93713429014276
 10
29.66415145935882
 20
15.90803553241894
 10
29.65638696155193
 20
15.87178422657697
 10
29.65638696155193
 20
15.83007544338759
 10
29.66415145935882
 20
15.78485943919676
 10
29.67931739568478
 20
15.73825046410646
 10
29.7011756282029
 20
15.69242790198976
 10
29.72870409025435
 20
15.6495343649231
 10
29.76061558154927
 20
15.611575507027
 10
29.7954179562218
 20
15.58032624230842
 10
29.8314838939123
 20
15.55724775165455
 10
29.86712699145879
 20
15.54341915963846
 10
29.90068061723444
 20
15.53948707585345
 10
29.93057584099017
 20
15.5456353601671
 10
29.95541479528929
 20
15.56157652563825
 10
29.97403603823532
 20
15.58656518108677
 10
29.98556886120411
 20
15.61943288475683
 10
29.98947400221146
 20
15.6586427793546
  0
LWPOLYLINE
  5
389
330
1F
100
AcDbEntity
  8
0
  6
Continuous
 62
     7
100
AcDbPolyline
 90
       30
 70
   128
 43
0.0
 10
37.18581663751569
 20
3.194211742915673
 10
37.18191149650833
 20
3.237930417348455
 10
37.17037867353955
 20
3.284113634989582
 10
37.15175743059353
 20
3.330601919911116
 10
37.12691847629439
 20
3.375221531578143
 10
37.09702325253867
 20
3.415886106540251
 10
37.06346962676303
 20
3.450694214467638
 10
37.02782652921654
 20
3.478018266920056
 10
36.99176059152602
 20
3.49658062157333
 10
36.95695821685349
 20
3.50551332335445
 10
36.92504672555858
 20
3.504398689056114
 10
36.89751826350712
 20
3.493288837739287
 10
36.875660030989
 20
3.47270325370383
 10
36.86049409466305
 20
3.443604495980008
 10
36.85272959685616
 20
3.407353190138043
 10
36.85272959685616
 20
3.365644406948667
 10
36.86049409466305
 20
3.320428402757837
 10
36.875660030989
 20
3.273819427667534
 10
36.89751826350712
 20
3.227996865550828
 10
36.92504672555858
 20
3.185103328484176
 10
36.95695821685349
 20
3.147144470588069
 10
36.99176059152602
 20
3.115895205869493
 10
37.02782652921654
 20
3.092816715215622
 10
37.06346962676303
 20
3.078988123199533
 10
37.09702325253867
 20
3.075056039414521
 10
37.12691847629439
 20
3.081204323728176
 10
37.15175743059353
 20
3.097145489199319
 10
37.17037867353955
 20
3.122134144647852
 10
37.18191149650835
 20
3.155001848317898
 10
37.18581663751569
 20
3.194211742915673
  0
LWPOLYLINE
  5
38A
330
1F
100
AcDbEntity
  8
0
  6
Continuous
 62
     7
100
AcDbPolyline
 90
       30
 70
   128
 43
0.0
 10
29.98947400221166
 20
7.348571918233758
 10
29.98556886120431
 20
7.392290592666542
 10
29.97403603823552
 20
7.438473810307668
 10
29.95541479528951
 20
7.484962095229203
 10
29.93057584099037
 20
7.529581706896232
 10
29.90068061723464
 20
7.570246281858338
 10
29.86712699145899
 20
7.605054389785727
 10
29.83148389391251
 20
7.632378442238142
 10
29.795417956222
 20
7.650940796891417
 10
29.76061558154947
 20
7.659873498672536
 10
29.72870409025454
 20
7.6587588643742
 10
29.7011756282031
 20
7.647649013057373
 10
29.67931739568496
 20
7.627063429021917
 10
29.66415145935902
 20
7.597964671298097
 10
29.65638696155213
 20
7.561713365456129
 10
29.65638696155213
 20
7.520004582266756
 10
29.66415145935902
 20
7.474788578075925
 10
29.67931739568497
 20
7.428179602985621
 10
29.7011756282031
 20
7.382357040868916
 10
29.72870409025455
 20
7.339463503802262
 10
29.76061558154947
 20
7.301504645906157
 10
29.795417956222
 20
7.270255381187581
 10
29.83148389391251
 20
7.247176890533709
 10
29.867126991459
 20
7.233348298517621
 10
29.90068061723464
 20
7.229416214732607
 10
29.93057584099037
 20
7.235564499046262
 10
29.95541479528951
 20
7.251505664517407
 10
29.97403603823552
 20
7.27649431996594
 10
29.98556886120431
 20
7.309362023635985
 10
29.98947400221166
 20
7.348571918233758
  0
TEXT
  5
3EE
330
1F
100
AcDbEntity
  8
TB
 62
     3
100
AcDbText
 10
42.8560118289807
 20
5.244758718710084
 30
0.0
 40
0.2505937499999999
  1
212 Avenida Fabricante, San Clemente, CA. 92630
 50
90.0
100
AcDbText
  0
TEXT
  5
3EF
330
1F
100
AcDbEntity
  8
TB
 62
     3
100
AcDbText
 10
43.35912321919872
 20
5.244758718710084
 30
0.0
 40
0.2505937499999999
  1
800 582-7777 949 492-7777  FAX 949 361-5579
 50
90.0
100
AcDbText
  0
TEXT
  5
3F0
330
1F
100
AcDbEntity
  8
TB
 62
     3
100
AcDbText
 10
42.35442216374636
 20
5.244758718710084
 30
0.0
 40
0.3758906249999999
  1
SONANCE
 50
90.0
100
AcDbText
  0
TEXT
  5
3F1
330
1F
100
AcDbEntity
  8
TB
 62
     3
100
AcDbText
 10
43.77596981135812
 20
5.244758718710084
 30
0.0
 40
0.2505937499999999
  1
www.sonance.com
 50
90.0
100
AcDbText
  0
ENDSEC
  0
SECTION
  2
OBJECTS
  0
DICTIONARY
  5
C
330
0
100
AcDbDictionary
281
     1
  3
ACAD_CIP_PREVIOUS_PRODUCT_INFO
350
3C9
  3
ACAD_COLOR
350
3BE
  3
ACAD_DETAILVIEWSTYLE
350
3C5
  3
ACAD_GROUP
350
D
  3
ACAD_LAYOUT
350
1A
  3
ACAD_MATERIAL
350
38C
  3
ACAD_MLEADERSTYLE
350
3C1
  3
ACAD_MLINESTYLE
350
17
  3
ACAD_PLOTSETTINGS
350
19
  3
ACAD_PLOTSTYLENAME
350
639
  3
ACAD_SCALELIST
350
47
  3
ACAD_SECTIONVIEWSTYLE
350
3C3
  3
ACAD_TABLESTYLE
350
63C
  3
ACAD_VISUALSTYLE
350
3A5
  3
ACDBHEADERROUNDTRIPXREC
350
646
  3
ACDBVARIABLEDICTIONARY
350
500
  3
DWGPROPS
350
649
  0
DICTIONARY
  5
64A
330
8
100
AcDbDictionary
280
     1
281
     1
  3
ACAD_XREC_ROUNDTRIP
360
64B
  0
DICTIONARY
  5
3CC
330
2
100
AcDbDictionary
280
     1
281
     1
  3
ACAD_LAYERSTATES
360
3CD
  0
DICTIONARY
  5
3F2
330
10
100
AcDbDictionary
280
     1
281
     1
  3
ADSK_XREC_LAYER_RECONCILED
360
3F3
  0
DICTIONARY
  5
3F4
330
73
100
AcDbDictionary
280
     1
281
     1
  3
ADSK_XREC_LAYER_RECONCILED
360
3F5
  0
DICTIONARY
  5
3F6
330
74
100
AcDbDictionary
280
     1
281
     1
  3
ADSK_XREC_LAYER_RECONCILED
360
3F7
  0
DICTIONARY
  5
3F8
330
75
100
AcDbDictionary
280
     1
281
     1
  3
ADSK_XREC_LAYER_RECONCILED
360
3F9
  0
DICTIONARY
  5
3FA
330
76
100
AcDbDictionary
280
     1
281
     1
  3
ADSK_XREC_LAYER_RECONCILED
360
3FB
  0
DICTIONARY
  5
3FC
330
77
100
AcDbDictionary
280
     1
281
     1
  3
ADSK_XREC_LAYER_RECONCILED
360
3FD
  0
DICTIONARY
  5
3FE
330
78
100
AcDbDictionary
280
     1
281
     1
  3
ADSK_XREC_LAYER_RECONCILED
360
3FF
  0
DICTIONARY
  5
400
330
79
100
AcDbDictionary
280
     1
281
     1
  3
ADSK_XREC_LAYER_RECONCILED
360
401
  0
DICTIONARY
  5
402
330
7A
100
AcDbDictionary
280
     1
281
     1
  3
ADSK_XREC_LAYER_RECONCILED
360
403
  0
DICTIONARY
  5
404
330
7B
100
AcDbDictionary
280
     1
281
     1
  3
ADSK_XREC_LAYER_RECONCILED
360
405
  0
DICTIONARY
  5
406
330
7C
100
AcDbDictionary
280
     1
281
     1
  3
ADSK_XREC_LAYER_RECONCILED
360
407
  0
DICTIONARY
  5
408
330
7D
100
AcDbDictionary
280
     1
281
     1
  3
ADSK_XREC_LAYER_RECONCILED
360
409
  0
DICTIONARY
  5
40A
330
7E
100
AcDbDictionary
280
     1
281
     1
  3
ADSK_XREC_LAYER_RECONCILED
360
40B
  0
DICTIONARY
  5
40C
330
7F
100
AcDbDictionary
280
     1
281
     1
  3
ADSK_XREC_LAYER_RECONCILED
360
40D
  0
DICTIONARY
  5
40E
330
80
100
AcDbDictionary
280
     1
281
     1
  3
ADSK_XREC_LAYER_RECONCILED
360
40F
  0
DICTIONARY
  5
410
330
81
100
AcDbDictionary
280
     1
281
     1
  3
ADSK_XREC_LAYER_RECONCILED
360
411
  0
DICTIONARY
  5
412
330
82
100
AcDbDictionary
280
     1
281
     1
  3
ADSK_XREC_LAYER_RECONCILED
360
413
  0
DICTIONARY
  5
414
330
83
100
AcDbDictionary
280
     1
281
     1
  3
ADSK_XREC_LAYER_RECONCILED
360
415
  0
DICTIONARY
  5
416
330
84
100
AcDbDictionary
280
     1
281
     1
  3
ADSK_XREC_LAYER_RECONCILED
360
417
  0
XRECORD
  5
3C9
102
{ACAD_REACTORS
330
C
102
}
330
C
100
AcDbXrecord
280
     1
300
ACD
300
2014
300
ACD_F_S
  0
DICTIONARY
  5
3BE
102
{ACAD_REACTORS
330
C
102
}
330
C
100
AcDbDictionary
281
     1
  0
DICTIONARY
  5
3C5
102
{ACAD_REACTORS
330
C
102
}
330
C
100
AcDbDictionary
281
     1
  3
IMPERIAL24
350
3C6
  0
DICTIONARY
  5
D
102
{ACAD_REACTORS
330
C
102
}
330
C
100
AcDbDictionary
281
     1
  0
DICTIONARY
  5
1A
102
{ACAD_REACTORS
330
C
102
}
330
C
100
AcDbDictionary
281
     1
  3
Layout1
350
63F
  3
Model
350
63E
  0
DICTIONARY
  5
38C
102
{ACAD_REACTORS
330
C
102
}
330
C
100
AcDbDictionary
281
     1
  3
BYBLOCK
350
395
  3
BYLAYER
350
38D
  3
GLOBAL
350
39D
  0
DICTIONARY
  5
3C1
102
{ACAD_REACTORS
330
C
102
}
330
C
100
AcDbDictionary
281
     1
  3
STANDARD
350
3C2
  0
DICTIONARY
  5
17
102
{ACAD_REACTORS
330
C
102
}
330
C
100
AcDbDictionary
281
     1
  3
STANDARD
350
18
  0
DICTIONARY
  5
19
102
{ACAD_REACTORS
330
C
102
}
330
C
100
AcDbDictionary
281
     1
  0
ACDBDICTIONARYWDFLT
  5
639
102
{ACAD_REACTORS
330
C
102
}
330
C
100
AcDbDictionary
281
     1
  3
Normal
350
63A
100
AcDbDictionaryWithDefault
340
63A
  0
DICTIONARY
  5
47
102
{ACAD_REACTORS
330
C
102
}
330
C
100
AcDbDictionary
281
     1
  3
A0
350
48
  3
A1
350
49
  3
A2
350
4A
  3
A3
350
4B
  3
A4
350
4C
  3
A5
350
4D
  3
A6
350
4E
  3
A7
350
4F
  3
A8
350
50
  3
A9
350
51
  3
B0
350
52
  3
B1
350
53
  3
B2
350
54
  3
B3
350
55
  3
B4
350
56
  3
B5
350
57
  3
B6
350
58
  3
B7
350
59
  3
B8
350
5A
  3
B9
350
5B
  3
C0
350
5C
  3
C1
350
5D
  3
C2
350
5E
  3
C3
350
5F
  3
C4
350
60
  3
C5
350
61
  3
C6
350
62
  3
C7
350
63
  3
C8
350
64
  3
C9
350
65
  3
D0
350
66
  3
D1
350
67
  3
D2
350
68
  0
DICTIONARY
  5
3C3
102
{ACAD_REACTORS
330
C
102
}
330
C
100
AcDbDictionary
281
     1
  3
IMPERIAL24
350
3C4
  0
DICTIONARY
  5
63C
102
{ACAD_REACTORS
330
C
102
}
330
C
100
AcDbDictionary
281
     1
  3
Standard
350
63D
  0
DICTIONARY
  5
3A5
102
{ACAD_REACTORS
330
C
102
}
330
C
100
AcDbDictionary
281
     1
  3
2DWIREFRAME
350
3AB
  3
3D Hidden
350
63B
  3
3D_HIDDEN
350
5FF
  3
3DWIREFRAME
350
5FE
  3
BASIC
350
3AA
  3
BRIGHTEN
350
3B1
  3
COLORCHANGE
350
3B5
  3
CONCEPTUAL
350
3AE
  3
DIM
350
3B0
  3
EDGECOLOROFF
350
3BD
  3
FACEPATTERN
350
3B4
  3
FLAT
350
3A6
  3
FLATWITHEDGES
350
3A7
  3
GOURAUD
350
3A8
  3
GOURAUDWITHEDGES
350
3A9
  3
HIDDEN
350
3AD
  3
JITTEROFF
350
3BB
  3
LINEPATTERN
350
3B3
  3
OVERHANGOFF
350
3BC
  3
REALISTIC
350
3AF
  3
SHADED
350
3BA
  3
Shaded with edges
350
645
  3
SHADED_WITH_EDGES
350
3B9
  3
Shades of Gray
350
644
  3
SHADES_OF_GRAY
350
3B6
  3
SKETCHY
350
3B7
  3
THICKEN
350
3B2
  3
WIREFRAME
350
3AC
  3
X-RAY
350
3B8
  0
DICTIONARY
  5
646
102
{ACAD_REACTORS
330
C
102
}
330
C
100
AcDbDictionary
281
     1
  3
COLORDICT
350
647
  3
MATERIALDICT
350
648
  0
DICTIONARY
  5
500
102
{ACAD_REACTORS
330
C
102
}
330
C
100
AcDbDictionary
281
     1
  3
CANNOSCALE
350
506
  3
CMLEADERSTYLE
350
502
  3
CTABLESTYLE
350
501
  3
CVIEWDETAILSTYLE
350
503
  3
CVIEWSECTIONSTYLE
350
504
  3
DIMASSOC
350
5FB
  3
HIDETEXT
350
62A
  3
INDEXCTL
350
5FA
  3
LAYEREVAL
350
508
  3
LAYERNOTIFY
350
509
  3
LIGHTINGUNITS
350
507
  3
MSLTSCALE
350
505
  3
SORTENTS
350
5F9
  0
XRECORD
  5
649
102
{ACAD_REACTORS
330
C
102
}
330
C
100
AcDbXrecord
280
     1
  1
DWGPROPS COOKIE
  2

  3

  4

  6

  7

  8
Todd Ryan
  9

300
=
301
=
302
=
303
=
304
=
305
=
306
=
307
=
308
=
309
=
 40
0.0
 41
2458010.116714919
 42
2458019.800914572
  1

 90
        0
  0
XRECORD
  5
64B
102
{ACAD_REACTORS
330
64A
102
}
330
64A
100
AcDbXrecord
280
     1
102
VTR_0.000_0.000_1.000_1.000_VISUALSTYLE
340
3AB
102
VTR_0.000_0.000_1.000_1.000_GRIDDISPLAY
 70
     3
102
VTR_0.000_0.000_1.000_1.000_GRIDMAJOR
 70
     5
102
VTR_0.000_0.000_1.000_1.000_DEFAULTLIGHTING
280
     1
102
VTR_0.000_0.000_1.000_1.000_DEFAULTLIGHTINGTYPE
 70
     1
102
VTR_0.000_0.000_1.000_1.000_BRIGHTNESS
141
0.0
102
VTR_0.000_0.000_1.000_1.000_CONTRAST
142
0.0
  0
DICTIONARY
  5
3CD
102
{ACAD_REACTORS
330
3CC
102
}
330
3CC
100
AcDbDictionary
281
     1
  0
XRECORD
  5
3F3
102
{ACAD_REACTORS
330
3F2
102
}
330
3F2
100
AcDbXrecord
280
     1
290
     1
  0
XRECORD
  5
3F5
102
{ACAD_REACTORS
330
3F4
102
}
330
3F4
100
AcDbXrecord
280
     1
290
     1
  0
XRECORD
  5
3F7
102
{ACAD_REACTORS
330
3F6
102
}
330
3F6
100
AcDbXrecord
280
     1
290
     1
  0
XRECORD
  5
3F9
102
{ACAD_REACTORS
330
3F8
102
}
330
3F8
100
AcDbXrecord
280
     1
290
     1
  0
XRECORD
  5
3FB
102
{ACAD_REACTORS
330
3FA
102
}
330
3FA
100
AcDbXrecord
280
     1
290
     1
  0
XRECORD
  5
3FD
102
{ACAD_REACTORS
330
3FC
102
}
330
3FC
100
AcDbXrecord
280
     1
290
     1
  0
XRECORD
  5
3FF
102
{ACAD_REACTORS
330
3FE
102
}
330
3FE
100
AcDbXrecord
280
     1
290
     1
  0
XRECORD
  5
401
102
{ACAD_REACTORS
330
400
102
}
330
400
100
AcDbXrecord
280
     1
290
     1
  0
XRECORD
  5
403
102
{ACAD_REACTORS
330
402
102
}
330
402
100
AcDbXrecord
280
     1
290
     1
  0
XRECORD
  5
405
102
{ACAD_REACTORS
330
404
102
}
330
404
100
AcDbXrecord
280
     1
290
     1
  0
XRECORD
  5
407
102
{ACAD_REACTORS
330
406
102
}
330
406
100
AcDbXrecord
280
     1
290
     1
  0
XRECORD
  5
409
102
{ACAD_REACTORS
330
408
102
}
330
408
100
AcDbXrecord
280
     1
290
     1
  0
XRECORD
  5
40B
102
{ACAD_REACTORS
330
40A
102
}
330
40A
100
AcDbXrecord
280
     1
290
     1
  0
XRECORD
  5
40D
102
{ACAD_REACTORS
330
40C
102
}
330
40C
100
AcDbXrecord
280
     1
290
     1
  0
XRECORD
  5
40F
102
{ACAD_REACTORS
330
40E
102
}
330
40E
100
AcDbXrecord
280
     1
290
     1
  0
XRECORD
  5
411
102
{ACAD_REACTORS
330
410
102
}
330
410
100
AcDbXrecord
280
     1
290
     1
  0
XRECORD
  5
413
102
{ACAD_REACTORS
330
412
102
}
330
412
100
AcDbXrecord
280
     1
290
     1
  0
XRECORD
  5
415
102
{ACAD_REACTORS
330
414
102
}
330
414
100
AcDbXrecord
280
     1
290
     1
  0
XRECORD
  5
417
102
{ACAD_REACTORS
330
416
102
}
330
416
100
AcDbXrecord
280
     1
290
     1
  0
ACDBDETAILVIEWSTYLE
  5
3C6
102
{ACAD_REACTORS
330
3C5
102
}
102
{ACAD_XDICTIONARY
360
5F3
102
}
330
3C5
100
AcDbModelDocViewStyle
 70
     0
  3
Imperial24
290
     0
100
AcDbDetailViewStyle
 70
     0
 71
     0
 90
        3
 71
     1
340
11
 40
0.24
340
0
 40
0.24
300

 40
0.36
280
     3
 71
     2
340
16
 90
       25
 71
     3
340
11
 40
0.24
 90
        1
 40
0.75
 90
        1
300
%<\AcVar ViewType \f "%tc1">% %<\AcVar ViewDetailId>%\PSCALE %<\AcVar ViewScale \f "%sn">%
 71
     4
340
16
 90
       25
340
16
 90
       25
280
     0
  0
LAYOUT
  5
63F
102
{ACAD_REACTORS
330
1A
102
}
330
1A
100
AcDbPlotSettings
  1

  2
CutePDF Writer
  4

  6

 40
0.0
 41
0.0
 42
0.0
 43
0.0
 44
0.0
 45
0.0
 46
0.0
 47
0.0
 48
0.0
 49
0.0
140
0.0
141
0.0
142
1.0
143
1.0
 70
   688
 72
     0
 73
     0
 74
     5
  7

 75
    16
147
1.0
148
0.0
149
0.0
100
AcDbLayout
  1
Layout1
 70
     1
 71
     1
 10
0.0
 20
0.0
 11
12.0
 21
9.0
 12
0.0
 22
0.0
 32
0.0
 14
1.000000000000000E+20
 24
1.000000000000000E+20
 34
1.000000000000000E+20
 15
-1.000000000000000E+20
 25
-1.000000000000000E+20
 35
-1.000000000000000E+20
146
0.0
 13
0.0
 23
0.0
 33
0.0
 16
1.0
 26
0.0
 36
0.0
 17
0.0
 27
1.0
 37
0.0
 76
     0
330
1B
  0
LAYOUT
  5
63E
102
{ACAD_REACTORS
330
1A
102
}
330
1A
100
AcDbPlotSettings
  1

  2
CutePDF Writer
  4

  6

 40
0.0
 41
0.0
 42
0.0
 43
0.0
 44
0.0
 45
0.0
 46
0.0
 47
0.0
 48
0.0
 49
0.0
140
0.0
141
0.0
142
1.0
143
1.0
 70
  1712
 72
     0
 73
     0
 74
     0
  7

 75
     0
147
1.0
148
0.0
149
0.0
100
AcDbLayout
  1
Model
 70
     1
 71
     0
 10
0.0
 20
0.0
 11
12.0
 21
9.0
 12
0.0
 22
0.0
 32
0.0
 14
0.0
 24
0.0
 34
0.0
 15
0.0
 25
0.0
 35
0.0
146
0.0
 13
0.0
 23
0.0
 33
0.0
 16
1.0
 26
0.0
 36
0.0
 17
0.0
 27
1.0
 37
0.0
 76
     0
330
1F
331
29
  0
MATERIAL
  5
395
102
{ACAD_REACTORS
330
38C
102
}
102
{ACAD_XDICTIONARY
360
630
102
}
330
38C
100
AcDbMaterial
  1
BYBLOCK
 72
     0
 43
0.0208333333333333
 43
0.0
 43
0.0
 43
0.0
 43
0.0
 43
0.0208333333333333
 43
0.0
 43
0.0
 43
0.0
 43
0.0
 43
1.0
 43
0.0
 43
0.0
 43
0.0
 43
0.0
 43
1.0
 77
     0
 47
0.0208333333333333
 47
0.0
 47
0.0
 47
0.0
 47
0.0
 47
0.0208333333333333
 47
0.0
 47
0.0
 47
0.0
 47
0.0
 47
1.0
 47
0.0
 47
0.0
 47
0.0
 47
0.0
 47
1.0
171
     0
 49
0.0208333333333333
 49
0.0
 49
0.0
 49
0.0
 49
0.0
 49
0.0208333333333333
 49
0.0
 49
0.0
 49
0.0
 49
0.0
 49
1.0
 49
0.0
 49
0.0
 49
0.0
 49
0.0
 49
1.0
175
     0
142
0.0208333333333333
142
0.0
142
0.0
142
0.0
142
0.0
142
0.0208333333333333
142
0.0
142
0.0
142
0.0
142
0.0
142
1.0
142
0.0
142
0.0
142
0.0
142
0.0
142
1.0
179
     0
144
0.0208333333333333
144
0.0
144
0.0
144
0.0
144
0.0
144
0.0208333333333333
144
0.0
144
0.0
144
0.0
144
0.0
144
1.0
144
0.0
144
0.0
144
0.0
144
0.0
144
1.0
147
0.0208333333333333
147
0.0
147
0.0
147
0.0
147
0.0
147
0.0208333333333333
147
0.0
147
0.0
147
0.0
147
0.0
147
1.0
147
0.0
147
0.0
147
0.0
147
0.0
147
1.0
  0
MATERIAL
  5
38D
102
{ACAD_REACTORS
330
38C
102
}
102
{ACAD_XDICTIONARY
360
632
102
}
330
38C
100
AcDbMaterial
  1
BYLAYER
 72
     0
 43
0.0208333333333333
 43
0.0
 43
0.0
 43
0.0
 43
0.0
 43
0.0208333333333333
 43
0.0
 43
0.0
 43
0.0
 43
0.0
 43
1.0
 43
0.0
 43
0.0
 43
0.0
 43
0.0
 43
1.0
 77
     0
 47
0.0208333333333333
 47
0.0
 47
0.0
 47
0.0
 47
0.0
 47
0.0208333333333333
 47
0.0
 47
0.0
 47
0.0
 47
0.0
 47
1.0
 47
0.0
 47
0.0
 47
0.0
 47
0.0
 47
1.0
171
     0
 49
0.0208333333333333
 49
0.0
 49
0.0
 49
0.0
 49
0.0
 49
0.0208333333333333
 49
0.0
 49
0.0
 49
0.0
 49
0.0
 49
1.0
 49
0.0
 49
0.0
 49
0.0
 49
0.0
 49
1.0
175
     0
142
0.0208333333333333
142
0.0
142
0.0
142
0.0
142
0.0
142
0.0208333333333333
142
0.0
142
0.0
142
0.0
142
0.0
142
1.0
142
0.0
142
0.0
142
0.0
142
0.0
142
1.0
179
     0
144
0.0208333333333333
144
0.0
144
0.0
144
0.0
144
0.0
144
0.0208333333333333
144
0.0
144
0.0
144
0.0
144
0.0
144
1.0
144
0.0
144
0.0
144
0.0
144
0.0
144
1.0
147
0.0208333333333333
147
0.0
147
0.0
147
0.0
147
0.0
147
0.0208333333333333
147
0.0
147
0.0
147
0.0
147
0.0
147
1.0
147
0.0
147
0.0
147
0.0
147
0.0
147
1.0
  0
MATERIAL
  5
39D
102
{ACAD_REACTORS
330
38C
102
}
102
{ACAD_XDICTIONARY
360
634
102
}
330
38C
100
AcDbMaterial
  1
GLOBAL
 72
     0
 43
0.0208333333333333
 43
0.0
 43
0.0
 43
0.0
 43
0.0
 43
0.0208333333333333
 43
0.0
 43
0.0
 43
0.0
 43
0.0
 43
1.0
 43
0.0
 43
0.0
 43
0.0
 43
0.0
 43
1.0
 77
     0
 47
0.0208333333333333
 47
0.0
 47
0.0
 47
0.0
 47
0.0
 47
0.0208333333333333
 47
0.0
 47
0.0
 47
0.0
 47
0.0
 47
1.0
 47
0.0
 47
0.0
 47
0.0
 47
0.0
 47
1.0
171
     0
 49
0.0208333333333333
 49
0.0
 49
0.0
 49
0.0
 49
0.0
 49
0.0208333333333333
 49
0.0
 49
0.0
 49
0.0
 49
0.0
 49
1.0
 49
0.0
 49
0.0
 49
0.0
 49
0.0
 49
1.0
175
     0
142
0.0208333333333333
142
0.0
142
0.0
142
0.0
142
0.0
142
0.0208333333333333
142
0.0
142
0.0
142
0.0
142
0.0
142
1.0
142
0.0
142
0.0
142
0.0
142
0.0
142
1.0
179
     0
144
0.0208333333333333
144
0.0
144
0.0
144
0.0
144
0.0
144
0.0208333333333333
144
0.0
144
0.0
144
0.0
144
0.0
144
1.0
144
0.0
144
0.0
144
0.0
144
0.0
144
1.0
147
0.0208333333333333
147
0.0
147
0.0
147
0.0
147
0.0
147
0.0208333333333333
147
0.0
147
0.0
147
0.0
147
0.0
147
1.0
147
0.0
147
0.0
147
0.0
147
0.0
147
1.0
  0
MLEADERSTYLE
  5
3C2
102
{ACAD_REACTORS
330
3C1
102
}
102
{ACAD_XDICTIONARY
360
64C
102
}
330
3C1
100
AcDbMLeaderStyle
170
     2
171
     1
172
     0
 90
        2
 40
0.0
 41
0.0
173
     1
 91
-1056964608
340
14
 92
       -2
290
     1
 42
0.09
291
     1
 43
0.36
  3
Standard
341
0
 44
0.18
300

342
11
174
     1
178
     6
175
     1
176
     0
 93
-1056964608
 45
0.18
292
     0
297
     0
 46
0.18
343
0
 94
-1056964608
 47
1.0
 49
1.0
140
1.0
293
     1
141
0.0
294
     1
177
     0
142
1.0
295
     0
296
     0
143
0.125
1001
ACAD_MLEADERVER
1070
     2
  0
MLINESTYLE
  5
18
102
{ACAD_REACTORS
330
17
102
}
330
17
100
AcDbMlineStyle
  2
STANDARD
 70
     0
  3

 62
   256
 51
90.0
 52
90.0
 71
     2
 49
0.5
 62
   256
  6
BYLAYER
 49
-0.5
 62
   256
  6
BYLAYER
  0
ACDBPLACEHOLDER
  5
63A
102
{ACAD_REACTORS
330
639
102
}
330
639
  0
SCALE
  5
48
102
{ACAD_REACTORS
330
47
102
}
330
47
100
AcDbScale
 70
     0
300
1:1
140
1.0
141
1.0
290
     1
  0
SCALE
  5
49
102
{ACAD_REACTORS
330
47
102
}
330
47
100
AcDbScale
 70
     0
300
1:2
140
1.0
141
2.0
290
     0
  0
SCALE
  5
4A
102
{ACAD_REACTORS
330
47
102
}
330
47
100
AcDbScale
 70
     0
300
1:4
140
1.0
141
4.0
290
     0
  0
SCALE
  5
4B
102
{ACAD_REACTORS
330
47
102
}
330
47
100
AcDbScale
 70
     0
300
1:5
140
1.0
141
5.0
290
     0
  0
SCALE
  5
4C
102
{ACAD_REACTORS
330
47
102
}
330
47
100
AcDbScale
 70
     0
300
1:8
140
1.0
141
8.0
290
     0
  0
SCALE
  5
4D
102
{ACAD_REACTORS
330
47
102
}
330
47
100
AcDbScale
 70
     0
300
1:10
140
1.0
141
10.0
290
     0
  0
SCALE
  5
4E
102
{ACAD_REACTORS
330
47
102
}
330
47
100
AcDbScale
 70
     0
300
1:16
140
1.0
141
16.0
290
     0
  0
SCALE
  5
4F
102
{ACAD_REACTORS
330
47
102
}
330
47
100
AcDbScale
 70
     0
300
1:20
140
1.0
141
20.0
290
     0
  0
SCALE
  5
50
102
{ACAD_REACTORS
330
47
102
}
330
47
100
AcDbScale
 70
     0
300
1:30
140
1.0
141
30.0
290
     0
  0
SCALE
  5
51
102
{ACAD_REACTORS
330
47
102
}
330
47
100
AcDbScale
 70
     0
300
1:40
140
1.0
141
40.0
290
     0
  0
SCALE
  5
52
102
{ACAD_REACTORS
330
47
102
}
330
47
100
AcDbScale
 70
     0
300
1:50
140
1.0
141
50.0
290
     0
  0
SCALE
  5
53
102
{ACAD_REACTORS
330
47
102
}
330
47
100
AcDbScale
 70
     0
300
1:100
140
1.0
141
100.0
290
     0
  0
SCALE
  5
54
102
{ACAD_REACTORS
330
47
102
}
330
47
100
AcDbScale
 70
     0
300
2:1
140
2.0
141
1.0
290
     0
  0
SCALE
  5
55
102
{ACAD_REACTORS
330
47
102
}
330
47
100
AcDbScale
 70
     0
300
4:1
140
4.0
141
1.0
290
     0
  0
SCALE
  5
56
102
{ACAD_REACTORS
330
47
102
}
330
47
100
AcDbScale
 70
     0
300
8:1
140
8.0
141
1.0
290
     0
  0
SCALE
  5
57
102
{ACAD_REACTORS
330
47
102
}
330
47
100
AcDbScale
 70
     0
300
10:1
140
10.0
141
1.0
290
     0
  0
SCALE
  5
58
102
{ACAD_REACTORS
330
47
102
}
330
47
100
AcDbScale
 70
     0
300
100:1
140
100.0
141
1.0
290
     0
  0
SCALE
  5
59
102
{ACAD_REACTORS
330
47
102
}
330
47
100
AcDbScale
 70
     0
300
1/128" = 1'-0"
140
0.0078125
141
12.0
290
     0
  0
SCALE
  5
5A
102
{ACAD_REACTORS
330
47
102
}
330
47
100
AcDbScale
 70
     0
300
1/64" = 1'-0"
140
0.015625
141
12.0
290
     0
  0
SCALE
  5
5B
102
{ACAD_REACTORS
330
47
102
}
330
47
100
AcDbScale
 70
     0
300
1/32" = 1'-0"
140
0.03125
141
12.0
290
     0
  0
SCALE
  5
5C
102
{ACAD_REACTORS
330
47
102
}
330
47
100
AcDbScale
 70
     0
300
1/16" = 1'-0"
140
0.0625
141
12.0
290
     0
  0
SCALE
  5
5D
102
{ACAD_REACTORS
330
47
102
}
330
47
100
AcDbScale
 70
     0
300
3/32" = 1'-0"
140
0.09375
141
12.0
290
     0
  0
SCALE
  5
5E
102
{ACAD_REACTORS
330
47
102
}
330
47
100
AcDbScale
 70
     0
300
1/8" = 1'-0"
140
0.125
141
12.0
290
     0
  0
SCALE
  5
5F
102
{ACAD_REACTORS
330
47
102
}
330
47
100
AcDbScale
 70
     0
300
3/16" = 1'-0"
140
0.1875
141
12.0
290
     0
  0
SCALE
  5
60
102
{ACAD_REACTORS
330
47
102
}
330
47
100
AcDbScale
 70
     0
300
1/4" = 1'-0"
140
0.25
141
12.0
290
     0
  0
SCALE
  5
61
102
{ACAD_REACTORS
330
47
102
}
330
47
100
AcDbScale
 70
     0
300
3/8" = 1'-0"
140
0.375
141
12.0
290
     0
  0
SCALE
  5
62
102
{ACAD_REACTORS
330
47
102
}
330
47
100
AcDbScale
 70
     0
300
1/2" = 1'-0"
140
0.5
141
12.0
290
     0
  0
SCALE
  5
63
102
{ACAD_REACTORS
330
47
102
}
330
47
100
AcDbScale
 70
     0
300
3/4" = 1'-0"
140
0.75
141
12.0
290
     0
  0
SCALE
  5
64
102
{ACAD_REACTORS
330
47
102
}
330
47
100
AcDbScale
 70
     0
300
1" = 1'-0"
140
1.0
141
12.0
290
     0
  0
SCALE
  5
65
102
{ACAD_REACTORS
330
47
102
}
330
47
100
AcDbScale
 70
     0
300
1-1/2" = 1'-0"
140
1.5
141
12.0
290
     0
  0
SCALE
  5
66
102
{ACAD_REACTORS
330
47
102
}
330
47
100
AcDbScale
 70
     0
300
3" = 1'-0"
140
3.0
141
12.0
290
     0
  0
SCALE
  5
67
102
{ACAD_REACTORS
330
47
102
}
330
47
100
AcDbScale
 70
     0
300
6" = 1'-0"
140
6.0
141
12.0
290
     0
  0
SCALE
  5
68
102
{ACAD_REACTORS
330
47
102
}
330
47
100
AcDbScale
 70
     0
300
1'-0" = 1'-0"
140
12.0
141
12.0
290
     0
  0
ACDBSECTIONVIEWSTYLE
  5
3C4
102
{ACAD_REACTORS
330
3C3
102
}
102
{ACAD_XDICTIONARY
360
5EF
102
}
330
3C3
100
AcDbModelDocViewStyle
 70
     0
  3
Imperial24
290
     0
100
AcDbSectionViewStyle
 70
     0
 71
     0
 90
       78
 71
     1
340
11
 40
0.24
340
0
340
0
 40
0.24
300
I, O, Q, S, X, Z
 40
0.48
 90
        3
 40
0.18
 90
        1
 71
     2
340
16
 90
       25
340
16
 90
       50
 40
0.24
 40
0.0
 40
0.24
 71
     3
340
11
 40
0.24
 90
        1
 40
0.75
 90
        1
300
%<\AcVar ViewType \f "%tc1">% %<\AcVar ViewSectionStartId>%-%<\AcVar ViewSectionEndId>%\PSCALE %<\AcVar ViewScale \f "%sn">%
 71
     4
300
ANSI31
 40
1.0
 90
        0
290
     0
290
     0
 90
        6
 40
0.0
 40
1.570796326794897
 40
0.2617993877991494
 40
1.308996938995747
 40
-0.2617993877991494
 40
1.832595714594046
  0
TABLESTYLE
  5
63D
102
{ACAD_REACTORS
330
63C
102
}
330
63C
100
AcDbTableStyle
  3
Standard
 70
     0
 71
     0
 40
0.06
 41
0.06
280
     0
281
     0
  7
STANDARD
140
0.18
170
     2
 62
     0
 63
   257
283
     0
274
    -2
284
     1
 64
     0
275
    -2
285
     1
 65
     0
276
    -2
286
     1
 66
     0
277
    -2
287
     1
 67
     0
278
    -2
288
     1
 68
     0
279
    -2
289
     1
 69
     0
  7
STANDARD
140
0.25
170
     5
 62
     0
 63
   257
283
     0
274
    -2
284
     1
 64
     0
275
    -2
285
     1
 65
     0
276
    -2
286
     1
 66
     0
277
    -2
287
     1
 67
     0
278
    -2
288
     1
 68
     0
279
    -2
289
     1
 69
     0
  7
STANDARD
140
0.18
170
     5
 62
     0
 63
   257
283
     0
274
    -2
284
     1
 64
     0
275
    -2
285
     1
 65
     0
276
    -2
286
     1
 66
     0
277
    -2
287
     1
 67
     0
278
    -2
288
     1
 68
     0
279
    -2
289
     1
 69
     0
  0
VISUALSTYLE
  5
3AB
102
{ACAD_REACTORS
330
3A5
102
}
102
{ACAD_XDICTIONARY
360
64E
102
}
330
3A5
100
AcDbVisualStyle
  2
2dWireframe
 70
     4
 71
     0
 72
     2
 73
     0
 90
        0
 40
0.6
 41
30.0
 62
     5
 63
     7
 74
     1
 91
        4
 64
     7
 65
   257
 75
     1
175
     1
 42
1.0
 92
        0
 66
   257
 43
1.0
 76
     1
 77
     6
 78
     2
 67
     7
 79
     5
170
     0
171
     0
290
     0
174
     0
 93
        1
 44
0.0
173
     0
291
     0
 45
0.0
1001
ACAD
1000
AcDbSavedByObjectVersion
1070
     0
  0
VISUALSTYLE
  5
63B
102
{ACAD_REACTORS
330
3A5
102
}
102
{ACAD_XDICTIONARY
360
650
102
}
330
3A5
100
AcDbVisualStyle
  2
3D Hidden
 70
     6
 71
     1
 72
     2
 73
     2
 90
        0
 40
0.6
 41
30.0
 62
     5
 63
     7
 74
     2
 91
        2
 64
     7
 65
   257
 75
     2
175
     1
 42
179.0
 92
        0
 66
   257
 43
1.0
 76
     1
 77
     6
 78
     2
 67
     7
 79
     3
170
     0
171
     0
290
     0
174
     0
 93
        1
 44
0.0
173
     0
291
     0
 45
0.0
1001
ACAD
1000
AcDbSavedByObjectVersion
1070
     0
  0
VISUALSTYLE
  5
5FF
102
{ACAD_REACTORS
330
3A5
102
}
102
{ACAD_XDICTIONARY
360
652
102
}
330
3A5
100
AcDbVisualStyle
  2
3D Hidden
 70
     6
 71
     1
 72
     2
 73
     2
 90
        0
 40
0.6
 41
30.0
 62
     5
 63
     7
 74
     2
 91
        2
 64
     7
 65
   257
 75
     2
175
     1
 42
179.0
 92
        0
 66
   257
 43
1.0
 76
     1
 77
     6
 78
     2
 67
     7
 79
     3
170
     0
171
     0
290
     0
174
     0
 93
        1
 44
0.0
173
     0
291
     0
 45
0.0
1001
ACAD
1000
AcDbSavedByObjectVersion
1070
     0
  0
VISUALSTYLE
  5
5FE
102
{ACAD_REACTORS
330
3A5
102
}
102
{ACAD_XDICTIONARY
360
654
102
}
330
3A5
100
AcDbVisualStyle
  2
3dWireframe
 70
     5
 71
     0
 72
     2
 73
     0
 90
        0
 40
0.6
 41
30.0
 62
     5
 63
     7
 74
     1
 91
        4
 64
     7
 65
   257
 75
     1
175
     1
 42
1.0
 92
        0
 66
   257
 43
1.0
 76
     1
 77
     6
 78
     2
 67
     7
 79
     5
170
     0
171
     0
290
     0
174
     0
 93
        1
 44
0.0
173
     0
291
     0
 45
0.0
1001
ACAD
1000
AcDbSavedByObjectVersion
1070
     0
  0
VISUALSTYLE
  5
3AA
102
{ACAD_REACTORS
330
3A5
102
}
102
{ACAD_XDICTIONARY
360
656
102
}
330
3A5
100
AcDbVisualStyle
  2
Basic
 70
     7
 71
     1
 72
     0
 73
     1
 90
        0
 40
0.6
 41
30.0
 62
     5
 63
     7
 74
     0
 91
        4
 64
     7
 65
   257
 75
     1
175
     1
 42
1.0
 92
        8
 66
     7
 43
1.0
 76
     1
 77
     6
 78
     2
 67
     7
 79
     5
170
     0
171
     0
290
     0
174
     0
 93
        1
 44
0.0
173
     0
291
     1
 45
0.0
1001
ACAD
1000
AcDbSavedByObjectVersion
1070
     0
  0
VISUALSTYLE
  5
3B1
102
{ACAD_REACTORS
330
3A5
102
}
102
{ACAD_XDICTIONARY
360
658
102
}
330
3A5
100
AcDbVisualStyle
  2
Brighten
 70
    12
 71
     2
 72
     2
 73
     0
 90
        0
 40
0.6
 41
30.0
 62
     5
 63
     7
 74
     1
 91
        4
 64
     7
 65
   257
 75
     1
175
     1
 42
1.0
 92
        8
 66
     7
 43
1.0
 76
     1
 77
     6
 78
     2
 67
     7
 79
     5
170
     0
171
     0
290
     0
174
     0
 93
        1
 44
50.0
173
     0
291
     1
 45
0.0
1001
ACAD
1000
AcDbSavedByObjectVersion
1070
     0
  0
VISUALSTYLE
  5
3B5
102
{ACAD_REACTORS
330
3A5
102
}
102
{ACAD_XDICTIONARY
360
65A
102
}
330
3A5
100
AcDbVisualStyle
  2
ColorChange
 70
    16
 71
     2
 72
     2
 73
     3
 90
        0
 40
0.6
 41
30.0
 62
     5
 63
     8
 74
     1
 91
        4
 64
     7
 65
   257
 75
     1
175
     1
 42
1.0
 92
        8
 66
     8
 43
1.0
 76
     1
 77
     6
 78
     2
 67
     7
 79
     5
170
     0
171
     0
290
     0
174
     0
 93
        1
 44
0.0
173
     0
291
     1
 45
0.0
1001
ACAD
1000
AcDbSavedByObjectVersion
1070
     0
  0
VISUALSTYLE
  5
3AE
102
{ACAD_REACTORS
330
3A5
102
}
102
{ACAD_XDICTIONARY
360
65C
102
}
330
3A5
100
AcDbVisualStyle
  2
Conceptual
 70
     9
 71
     3
 72
     2
 73
     0
 90
        0
 40
0.6
 41
30.0
 62
     5
 63
     7
 74
     2
 91
        2
 64
     7
 65
   257
 75
     1
175
     1
 42
179.0
 92
        8
 66
     7
 43
1.0
 76
     1
 77
     6
 78
     2
 67
     7
 79
     3
170
     0
171
     0
290
     0
174
     0
 93
        1
 44
0.0
173
     0
291
     0
 45
0.0
1001
ACAD
1000
AcDbSavedByObjectVersion
1070
     0
  0
VISUALSTYLE
  5
3B0
102
{ACAD_REACTORS
330
3A5
102
}
102
{ACAD_XDICTIONARY
360
65E
102
}
330
3A5
100
AcDbVisualStyle
  2
Dim
 70
    11
 71
     2
 72
     2
 73
     0
 90
        0
 40
0.6
 41
30.0
 62
     5
 63
     7
 74
     1
 91
        4
 64
     7
 65
   257
 75
     1
175
     1
 42
1.0
 92
        8
 66
     7
 43
1.0
 76
     1
 77
     6
 78
     2
 67
     7
 79
     5
170
     0
171
     0
290
     0
174
     0
 93
        1
 44
-50.0
173
     0
291
     1
 45
0.0
1001
ACAD
1000
AcDbSavedByObjectVersion
1070
     0
  0
VISUALSTYLE
  5
3BD
102
{ACAD_REACTORS
330
3A5
102
}
102
{ACAD_XDICTIONARY
360
660
102
}
330
3A5
100
AcDbVisualStyle
  2
EdgeColorOff
 70
    22
 71
     2
 72
     2
 73
     0
 90
        0
 40
0.6
 41
30.0
 62
     5
 63
     7
 74
     1
 91
        4
 64
     7
 65
   257
 75
     1
175
     1
 42
1.0
 92
        8
 66
     7
 43
1.0
 76
     1
 77
     6
 78
     2
 67
     7
 79
     5
170
     0
171
     0
290
     0
174
     0
 93
        1
 44
0.0
173
     0
291
     1
 45
0.0
1001
ACAD
1000
AcDbSavedByObjectVersion
1070
     0
  0
VISUALSTYLE
  5
3B4
102
{ACAD_REACTORS
330
3A5
102
}
102
{ACAD_XDICTIONARY
360
662
102
}
330
3A5
100
AcDbVisualStyle
  2
Facepattern
 70
    15
 71
     2
 72
     2
 73
     0
 90
        0
 40
0.6
 41
30.0
 62
     5
 63
     7
 74
     1
 91
        4
 64
     7
 65
   257
 75
     1
175
     1
 42
1.0
 92
        8
 66
     7
 43
1.0
 76
     1
 77
     6
 78
     2
 67
     7
 79
     5
170
     0
171
     0
290
     0
174
     0
 93
        1
 44
0.0
173
     0
291
     1
 45
0.0
1001
ACAD
1000
AcDbSavedByObjectVersion
1070
     0
  0
VISUALSTYLE
  5
3A6
102
{ACAD_REACTORS
330
3A5
102
}
102
{ACAD_XDICTIONARY
360
664
102
}
330
3A5
100
AcDbVisualStyle
  2
Flat
 70
     0
 71
     2
 72
     1
 73
     1
 90
        2
 40
0.6
 41
30.0
 62
     5
 63
     7
 74
     0
 91
        0
 64
     7
 65
   257
 75
     1
175
     1
 42
1.0
 92
        8
 66
     7
 43
1.0
 76
     1
 77
     6
 78
     2
 67
     7
 79
     5
170
     0
171
     0
290
     0
174
     0
 93
       13
 44
0.0
173
     0
291
     1
 45
0.0
1001
ACAD
1000
AcDbSavedByObjectVersion
1070
     0
  0
VISUALSTYLE
  5
3A7
102
{ACAD_REACTORS
330
3A5
102
}
102
{ACAD_XDICTIONARY
360
666
102
}
330
3A5
100
AcDbVisualStyle
  2
FlatWithEdges
 70
     1
 71
     2
 72
     1
 73
     1
 90
        2
 40
0.6
 41
30.0
 62
     5
 63
     7
 74
     1
 91
        0
 64
     7
 65
   257
 75
     1
175
     1
 42
1.0
 92
        0
 66
   257
 43
1.0
 76
     1
 77
     6
 78
     2
 67
     7
 79
     5
170
     0
171
     0
290
     0
174
     0
 93
       13
 44
0.0
173
     0
291
     1
 45
0.0
1001
ACAD
1000
AcDbSavedByObjectVersion
1070
     0
  0
VISUALSTYLE
  5
3A8
102
{ACAD_REACTORS
330
3A5
102
}
102
{ACAD_XDICTIONARY
360
668
102
}
330
3A5
100
AcDbVisualStyle
  2
Gouraud
 70
     2
 71
     2
 72
     2
 73
     1
 90
        2
 40
0.6
 41
30.0
 62
     5
 63
     7
 74
     0
 91
        0
 64
     7
 65
   257
 75
     1
175
     1
 42
1.0
 92
        0
 66
     7
 43
1.0
 76
     1
 77
     6
 78
     2
 67
     7
 79
     5
170
     0
171
     0
290
     0
174
     0
 93
       13
 44
0.0
173
     0
291
     1
 45
0.0
1001
ACAD
1000
AcDbSavedByObjectVersion
1070
     0
  0
VISUALSTYLE
  5
3A9
102
{ACAD_REACTORS
330
3A5
102
}
102
{ACAD_XDICTIONARY
360
66A
102
}
330
3A5
100
AcDbVisualStyle
  2
GouraudWithEdges
 70
     3
 71
     2
 72
     2
 73
     1
 90
        2
 40
0.6
 41
30.0
 62
     5
 63
     7
 74
     1
 91
        0
 64
     7
 65
   257
 75
     1
175
     1
 42
1.0
 92
        0
 66
   257
 43
1.0
 76
     1
 77
     6
 78
     2
 67
     7
 79
     5
170
     0
171
     0
290
     0
174
     0
 93
       13
 44
0.0
173
     0
291
     1
 45
0.0
1001
ACAD
1000
AcDbSavedByObjectVersion
1070
     0
  0
VISUALSTYLE
  5
3AD
102
{ACAD_REACTORS
330
3A5
102
}
102
{ACAD_XDICTIONARY
360
66C
102
}
330
3A5
100
AcDbVisualStyle
  2
Hidden
 70
     6
 71
     1
 72
     2
 73
     2
 90
        0
 40
0.6
 41
30.0
 62
     5
 63
     7
 74
     2
 91
        2
 64
     7
 65
   257
 75
     2
175
     1
 42
40.0
 92
        0
 66
   257
 43
1.0
 76
     1
 77
     6
 78
     2
 67
     7
 79
     3
170
     0
171
     0
290
     0
174
     0
 93
        1
 44
0.0
173
     0
291
     0
 45
0.0
1001
ACAD
1000
AcDbSavedByObjectVersion
1070
     0
  0
VISUALSTYLE
  5
3BB
102
{ACAD_REACTORS
330
3A5
102
}
102
{ACAD_XDICTIONARY
360
66E
102
}
330
3A5
100
AcDbVisualStyle
  2
JitterOff
 70
    20
 71
     2
 72
     2
 73
     0
 90
        0
 40
0.6
 41
30.0
 62
     5
 63
     7
 74
     1
 91
        4
 64
     7
 65
   257
 75
     1
175
     1
 42
1.0
 92
       10
 66
     7
 43
1.0
 76
     1
 77
     6
 78
     2
 67
     7
 79
     5
170
     0
171
     0
290
     0
174
     0
 93
        1
 44
0.0
173
     0
291
     1
 45
0.0
1001
ACAD
1000
AcDbSavedByObjectVersion
1070
     0
  0
VISUALSTYLE
  5
3B3
102
{ACAD_REACTORS
330
3A5
102
}
102
{ACAD_XDICTIONARY
360
670
102
}
330
3A5
100
AcDbVisualStyle
  2
Linepattern
 70
    14
 71
     2
 72
     2
 73
     0
 90
        0
 40
0.6
 41
30.0
 62
     5
 63
     7
 74
     1
 91
        4
 64
     7
 65
   257
 75
     7
175
     7
 42
1.0
 92
        8
 66
     7
 43
1.0
 76
     1
 77
     6
 78
     2
 67
     7
 79
     5
170
     0
171
     0
290
     0
174
     0
 93
        1
 44
0.0
173
     0
291
     1
 45
0.0
1001
ACAD
1000
AcDbSavedByObjectVersion
1070
     0
  0
VISUALSTYLE
  5
3BC
102
{ACAD_REACTORS
330
3A5
102
}
102
{ACAD_XDICTIONARY
360
672
102
}
330
3A5
100
AcDbVisualStyle
  2
OverhangOff
 70
    21
 71
     2
 72
     2
 73
     0
 90
        0
 40
0.6
 41
30.0
 62
     5
 63
     7
 74
     1
 91
        4
 64
     7
 65
   257
 75
     1
175
     1
 42
1.0
 92
        9
 66
     7
 43
1.0
 76
     1
 77
     6
 78
     2
 67
     7
 79
     5
170
     0
171
     0
290
     0
174
     0
 93
        1
 44
0.0
173
     0
291
     1
 45
0.0
1001
ACAD
1000
AcDbSavedByObjectVersion
1070
     0
  0
VISUALSTYLE
  5
3AF
102
{ACAD_REACTORS
330
3A5
102
}
102
{ACAD_XDICTIONARY
360
674
102
}
330
3A5
100
AcDbVisualStyle
  2
Realistic
 70
     8
 71
     2
 72
     2
 73
     0
 90
        2
 40
0.6
 41
30.0
 62
     5
 63
     7
 74
     0
 91
        0
 64
     7
 65
   257
 75
     1
175
     1
 42
1.0
 92
        8
 66
   257
 43
1.0
 76
     1
 77
     6
 78
     2
 67
     7
 79
     3
170
     0
171
     0
290
     0
174
     0
 93
       13
 44
0.0
173
     0
291
     0
 45
0.0
1001
ACAD
1000
AcDbSavedByObjectVersion
1070
     0
  0
VISUALSTYLE
  5
3BA
102
{ACAD_REACTORS
330
3A5
102
}
102
{ACAD_XDICTIONARY
360
676
102
}
330
3A5
100
AcDbVisualStyle
  2
Shaded
 70
    27
 71
     2
 72
     2
 73
     1
 90
        2
 40
0.6
 41
30.0
 62
     5
 63
     7
 74
     0
 91
        4
 64
     7
 65
   257
 75
     1
175
     1
 42
1.0
 92
        8
 66
   257
 43
1.0
 76
     1
 77
     6
 78
     2
 67
     8
 79
     3
170
     0
171
     0
290
     0
174
     0
 93
        5
 44
0.0
173
     0
291
     0
 45
0.0
1001
ACAD
1000
AcDbSavedByObjectVersion
1070
     0
  0
VISUALSTYLE
  5
645
102
{ACAD_REACTORS
330
3A5
102
}
102
{ACAD_XDICTIONARY
360
686
102
}
330
3A5
100
AcDbVisualStyle
  2
Shaded with edges
 70
    26
 71
     2
 72
     2
 73
     1
 90
        2
 40
0.6
 41
30.0
 62
     5
 63
     7
 74
     1
 91
       10
 64
     7
 65
   257
 75
     2
175
     1
 42
1.0
 92
        8
 66
   257
 43
1.0
 76
     1
 77
     6
 78
     2
 67
     7
 79
     3
170
     0
171
     0
290
     0
174
     0
 93
        5
 44
0.0
173
     0
291
     0
 45
0.0
1001
ACAD
1000
AcDbSavedByObjectVersion
1070
     0
  0
VISUALSTYLE
  5
3B9
102
{ACAD_REACTORS
330
3A5
102
}
102
{ACAD_XDICTIONARY
360
678
102
}
330
3A5
100
AcDbVisualStyle
  2
Shaded with edges
 70
    26
 71
     2
 72
     2
 73
     1
 90
        2
 40
0.6
 41
30.0
 62
     5
 63
     7
 74
     1
 91
       10
 64
     7
 65
   257
 75
     2
175
     1
 42
1.0
 92
        8
 66
   257
 43
1.0
 76
     1
 77
     6
 78
     2
 67
     7
 79
     3
170
     0
171
     0
290
     0
174
     0
 93
        5
 44
0.0
173
     0
291
     0
 45
0.0
1001
ACAD
1000
AcDbSavedByObjectVersion
1070
     0
  0
VISUALSTYLE
  5
644
102
{ACAD_REACTORS
330
3A5
102
}
102
{ACAD_XDICTIONARY
360
684
102
}
330
3A5
100
AcDbVisualStyle
  2
Shades of Gray
 70
    23
 71
     2
 72
     2
 73
     3
 90
        0
 40
0.6
 41
30.0
 62
     5
 63
     7
 74
     2
 91
        2
 64
     7
 65
     7
 75
     1
175
     1
 42
40.0
 92
        8
 66
     7
 43
1.0
 76
     1
 77
     6
 78
     2
 67
     7
 79
     3
170
     0
171
     0
290
     0
174
     0
 93
        1
 44
0.0
173
     0
291
     0
 45
0.0
1001
ACAD
1000
AcDbSavedByObjectVersion
1070
     0
  0
VISUALSTYLE
  5
3B6
102
{ACAD_REACTORS
330
3A5
102
}
102
{ACAD_XDICTIONARY
360
67A
102
}
330
3A5
100
AcDbVisualStyle
  2
Shades of Gray
 70
    23
 71
     2
 72
     2
 73
     3
 90
        0
 40
0.6
 41
30.0
 62
     5
 63
     7
 74
     2
 91
        2
 64
     7
 65
     7
 75
     1
175
     1
 42
40.0
 92
        8
 66
     7
 43
1.0
 76
     1
 77
     6
 78
     2
 67
     7
 79
     3
170
     0
171
     0
290
     0
174
     0
 93
        1
 44
0.0
173
     0
291
     0
 45
0.0
1001
ACAD
1000
AcDbSavedByObjectVersion
1070
     0
  0
VISUALSTYLE
  5
3B7
102
{ACAD_REACTORS
330
3A5
102
}
102
{ACAD_XDICTIONARY
360
67C
102
}
330
3A5
100
AcDbVisualStyle
  2
Sketchy
 70
    24
 71
     1
 72
     2
 73
     2
 90
        0
 40
0.6
 41
30.0
 62
     5
 63
     7
 74
     2
 91
        2
 64
     7
 65
     7
 75
     1
175
     1
 42
40.0
 92
       11
 66
     7
 43
1.0
 76
     1
 77
     6
 78
     2
 67
     7
 79
     6
170
     0
171
     0
290
     0
174
     0
 93
        1
 44
0.0
173
     0
291
     0
 45
0.0
1001
ACAD
1000
AcDbSavedByObjectVersion
1070
     0
  0
VISUALSTYLE
  5
3B2
102
{ACAD_REACTORS
330
3A5
102
}
102
{ACAD_XDICTIONARY
360
67E
102
}
330
3A5
100
AcDbVisualStyle
  2
Thicken
 70
    13
 71
     2
 72
     2
 73
     0
 90
        0
 40
0.6
 41
30.0
 62
     5
 63
     7
 74
     1
 91
        4
 64
     7
 65
   257
 75
     1
175
     1
 42
1.0
 92
       12
 66
     7
 43
1.0
 76
     1
 77
     6
 78
     2
 67
     7
 79
     5
170
     0
171
     0
290
     0
174
     0
 93
        1
 44
0.0
173
     0
291
     1
 45
0.0
1001
ACAD
1000
AcDbSavedByObjectVersion
1070
     0
  0
VISUALSTYLE
  5
3AC
102
{ACAD_REACTORS
330
3A5
102
}
102
{ACAD_XDICTIONARY
360
680
102
}
330
3A5
100
AcDbVisualStyle
  2
Wireframe
 70
     5
 71
     0
 72
     2
 73
     0
 90
        0
 40
0.6
 41
30.0
 62
     5
 63
     7
 74
     1
 91
        4
 64
     7
 65
   257
 75
     1
175
     1
 42
1.0
 92
        0
 66
   257
 43
1.0
 76
     1
 77
     6
 78
     2
 67
     7
 79
     3
170
     0
171
     0
290
     0
174
     0
 93
        1
 44
0.0
173
     0
291
     0
 45
0.0
1001
ACAD
1000
AcDbSavedByObjectVersion
1070
     0
  0
VISUALSTYLE
  5
3B8
102
{ACAD_REACTORS
330
3A5
102
}
102
{ACAD_XDICTIONARY
360
682
102
}
330
3A5
100
AcDbVisualStyle
  2
X-Ray
 70
    25
 71
     2
 72
     2
 73
     1
 90
        1
 40
0.5
 41
30.0
 62
     5
 63
     7
 74
     1
 91
        0
 64
     7
 65
   257
 75
     1
175
     1
 42
1.0
 92
        8
 66
     7
 43
1.0
 76
     1
 77
     6
 78
     2
 67
     7
 79
     3
170
     0
171
     0
290
     0
174
     0
 93
       13
 44
0.0
173
     0
291
     0
 45
0.0
1001
ACAD
1000
AcDbSavedByObjectVersion
1070
     0
  0
XRECORD
  5
647
102
{ACAD_REACTORS
330
646
102
}
330
646
100
AcDbXrecord
280
     1
340
3BE
  0
XRECORD
  5
648
102
{ACAD_REACTORS
330
646
102
}
330
646
100
AcDbXrecord
280
     1
340
38C
  0
DICTIONARYVAR
  5
506
102
{ACAD_REACTORS
330
500
102
}
330
500
100
DictionaryVariables
280
     0
  1
1:1
  0
DICTIONARYVAR
  5
502
102
{ACAD_REACTORS
330
500
102
}
330
500
100
DictionaryVariables
280
     0
  1
STANDARD
  0
DICTIONARYVAR
  5
501
102
{ACAD_REACTORS
330
500
102
}
330
500
100
DictionaryVariables
280
     0
  1
Standard
  0
DICTIONARYVAR
  5
503
102
{ACAD_REACTORS
330
500
102
}
330
500
100
DictionaryVariables
280
     0
  1
IMPERIAL24
  0
DICTIONARYVAR
  5
504
102
{ACAD_REACTORS
330
500
102
}
330
500
100
DictionaryVariables
280
     0
  1
IMPERIAL24
  0
DICTIONARYVAR
  5
5FB
102
{ACAD_REACTORS
330
500
102
}
330
500
100
DictionaryVariables
280
     0
  1
1
  0
DICTIONARYVAR
  5
62A
102
{ACAD_REACTORS
330
500
102
}
330
500
100
DictionaryVariables
280
     0
  1
0
  0
DICTIONARYVAR
  5
5FA
102
{ACAD_REACTORS
330
500
102
}
330
500
100
DictionaryVariables
280
     0
  1
0
  0
DICTIONARYVAR
  5
508
102
{ACAD_REACTORS
330
500
102
}
330
500
100
DictionaryVariables
280
     0
  1
1
  0
DICTIONARYVAR
  5
509
102
{ACAD_REACTORS
330
500
102
}
330
500
100
DictionaryVariables
280
     0
  1
15
  0
DICTIONARYVAR
  5
507
102
{ACAD_REACTORS
330
500
102
}
330
500
100
DictionaryVariables
280
     0
  1
0
  0
DICTIONARYVAR
  5
505
102
{ACAD_REACTORS
330
500
102
}
330
500
100
DictionaryVariables
280
     0
  1
0
  0
DICTIONARYVAR
  5
5F9
102
{ACAD_REACTORS
330
500
102
}
330
500
100
DictionaryVariables
280
     0
  1
127
  0
DICTIONARY
  5
5F3
330
3C6
100
AcDbDictionary
280
     1
281
     1
  0
DICTIONARY
  5
630
330
395
100
AcDbDictionary
280
     1
281
     1
  3
ACAD_XREC_ROUNDTRIP
360
631
  0
DICTIONARY
  5
632
330
38D
100
AcDbDictionary
280
     1
281
     1
  3
ACAD_XREC_ROUNDTRIP
360
633
  0
DICTIONARY
  5
634
330
39D
100
AcDbDictionary
280
     1
281
     1
  3
ACAD_XREC_ROUNDTRIP
360
635
  0
DICTIONARY
  5
64C
330
3C2
100
AcDbDictionary
280
     1
281
     1
  3
ACAD_XREC_ROUNDTRIP
360
64D
  0
DICTIONARY
  5
5EF
330
3C4
100
AcDbDictionary
280
     1
281
     1
  0
DICTIONARY
  5
64E
330
3AB
100
AcDbDictionary
280
     1
281
     1
  3
ACAD_XREC_ROUNDTRIP
360
64F
  0
DICTIONARY
  5
650
330
63B
100
AcDbDictionary
280
     1
281
     1
  3
ACAD_XREC_ROUNDTRIP
360
651
  0
DICTIONARY
  5
652
330
5FF
100
AcDbDictionary
280
     1
281
     1
  3
ACAD_XREC_ROUNDTRIP
360
653
  0
DICTIONARY
  5
654
330
5FE
100
AcDbDictionary
280
     1
281
     1
  3
ACAD_XREC_ROUNDTRIP
360
655
  0
DICTIONARY
  5
656
330
3AA
100
AcDbDictionary
280
     1
281
     1
  3
ACAD_XREC_ROUNDTRIP
360
657
  0
DICTIONARY
  5
658
330
3B1
100
AcDbDictionary
280
     1
281
     1
  3
ACAD_XREC_ROUNDTRIP
360
659
  0
DICTIONARY
  5
65A
330
3B5
100
AcDbDictionary
280
     1
281
     1
  3
ACAD_XREC_ROUNDTRIP
360
65B
  0
DICTIONARY
  5
65C
330
3AE
100
AcDbDictionary
280
     1
281
     1
  3
ACAD_XREC_ROUNDTRIP
360
65D
  0
DICTIONARY
  5
65E
330
3B0
100
AcDbDictionary
280
     1
281
     1
  3
ACAD_XREC_ROUNDTRIP
360
65F
  0
DICTIONARY
  5
660
330
3BD
100
AcDbDictionary
280
     1
281
     1
  3
ACAD_XREC_ROUNDTRIP
360
661
  0
DICTIONARY
  5
662
330
3B4
100
AcDbDictionary
280
     1
281
     1
  3
ACAD_XREC_ROUNDTRIP
360
663
  0
DICTIONARY
  5
664
330
3A6
100
AcDbDictionary
280
     1
281
     1
  3
ACAD_XREC_ROUNDTRIP
360
665
  0
DICTIONARY
  5
666
330
3A7
100
AcDbDictionary
280
     1
281
     1
  3
ACAD_XREC_ROUNDTRIP
360
667
  0
DICTIONARY
  5
668
330
3A8
100
AcDbDictionary
280
     1
281
     1
  3
ACAD_XREC_ROUNDTRIP
360
669
  0
DICTIONARY
  5
66A
330
3A9
100
AcDbDictionary
280
     1
281
     1
  3
ACAD_XREC_ROUNDTRIP
360
66B
  0
DICTIONARY
  5
66C
330
3AD
100
AcDbDictionary
280
     1
281
     1
  3
ACAD_XREC_ROUNDTRIP
360
66D
  0
DICTIONARY
  5
66E
330
3BB
100
AcDbDictionary
280
     1
281
     1
  3
ACAD_XREC_ROUNDTRIP
360
66F
  0
DICTIONARY
  5
670
330
3B3
100
AcDbDictionary
280
     1
281
     1
  3
ACAD_XREC_ROUNDTRIP
360
671
  0
DICTIONARY
  5
672
330
3BC
100
AcDbDictionary
280
     1
281
     1
  3
ACAD_XREC_ROUNDTRIP
360
673
  0
DICTIONARY
  5
674
330
3AF
100
AcDbDictionary
280
     1
281
     1
  3
ACAD_XREC_ROUNDTRIP
360
675
  0
DICTIONARY
  5
676
330
3BA
100
AcDbDictionary
280
     1
281
     1
  3
ACAD_XREC_ROUNDTRIP
360
677
  0
DICTIONARY
  5
686
330
645
100
AcDbDictionary
280
     1
281
     1
  3
ACAD_XREC_ROUNDTRIP
360
687
  0
DICTIONARY
  5
678
330
3B9
100
AcDbDictionary
280
     1
281
     1
  3
ACAD_XREC_ROUNDTRIP
360
679
  0
DICTIONARY
  5
684
330
644
100
AcDbDictionary
280
     1
281
     1
  3
ACAD_XREC_ROUNDTRIP
360
685
  0
DICTIONARY
  5
67A
330
3B6
100
AcDbDictionary
280
     1
281
     1
  3
ACAD_XREC_ROUNDTRIP
360
67B
  0
DICTIONARY
  5
67C
330
3B7
100
AcDbDictionary
280
     1
281
     1
  3
ACAD_XREC_ROUNDTRIP
360
67D
  0
DICTIONARY
  5
67E
330
3B2
100
AcDbDictionary
280
     1
281
     1
  3
ACAD_XREC_ROUNDTRIP
360
67F
  0
DICTIONARY
  5
680
330
3AC
100
AcDbDictionary
280
     1
281
     1
  3
ACAD_XREC_ROUNDTRIP
360
681
  0
DICTIONARY
  5
682
330
3B8
100
AcDbDictionary
280
     1
281
     1
  3
ACAD_XREC_ROUNDTRIP
360
683
  0
XRECORD
  5
631
102
{ACAD_REACTORS
330
630
102
}
330
630
100
AcDbXrecord
280
     1
102
MATERIAL
148
0.0
149
0.0
149
0.0
 93
        0
 94
      127
282
     0
 72
     0
 77
     0
171
     0
175
     0
179
     0
273
     0
  0
XRECORD
  5
633
102
{ACAD_REACTORS
330
632
102
}
330
632
100
AcDbXrecord
280
     1
102
MATERIAL
148
0.0
149
0.0
149
0.0
 93
        0
 94
      127
282
     0
 72
     0
 77
     0
171
     0
175
     0
179
     0
273
     0
  0
XRECORD
  5
635
102
{ACAD_REACTORS
330
634
102
}
330
634
100
AcDbXrecord
280
     1
102
MATERIAL
148
0.0
149
0.0
149
0.0
 93
        0
 94
      127
282
     0
 72
     0
 77
     0
171
     0
175
     0
179
     0
273
     0
  0
XRECORD
  5
64D
102
{ACAD_REACTORS
330
64C
102
}
330
64C
100
AcDbXrecord
280
     1
102
ACAD_ROUNDTRIP_2010_MLEADER_STYLE
  0
XRECORD
  5
64F
102
{ACAD_REACTORS
330
64E
102
}
330
64E
100
AcDbXrecord
280
     1
102
RTVSPropertyOp0
 70
     1
102
RTVSPropertyOp1
 70
     1
102
RTVSPropertyOp2
 70
     1
102
RTVSPropertyOp3
 70
     1
102
RTVSPropertyOp4
 70
     1
102
RTVSPropertyOp5
 70
     1
102
RTVSPropertyOp6
 70
     1
102
RTVSPropertyOp7
 70
     1
102
RTVSPropertyOp8
 70
     1
102
RTVSPropertyOp9
 70
     1
102
RTVSPropertyOp10
 70
     1
102
RTVSPropertyOp11
 70
     1
102
RTVSPropertyOp12
 70
     1
102
RTVSPropertyOp13
 70
     1
102
RTVSPropertyOp14
 70
     1
102
RTVSPropertyOp15
 70
     1
102
RTVSPropertyOp16
 70
     1
102
RTVSPropertyOp17
 70
     1
102
RTVSPropertyOp18
 70
     1
102
RTVSPropertyOp19
 70
     1
102
RTVSPropertyOp20
 70
     1
102
RTVSPropertyOp21
 70
     1
102
RTVSPropertyOp22
 70
     1
102
RTVSPropertyOp23
 70
     1
102
RTVSPropertyOp24
 70
     1
102
RTVSPropertyOp25
 70
     1
102
RTVSPropertyOp26
 70
     1
102
RTVSPropertyOp27
 70
     1
102
RTVSPropertyOp28
 70
     1
102
RTVSPropertyOp29
 70
     1
102
RTVSPropertyOp30
 70
     1
102
RTVSPropertyOp31
 70
     1
102
RTVSPropertyOp32
 70
     1
102
RTVSPropertyOp33
 70
     1
102
RTVSPropertyOp34
 70
     1
102
RTVSPropertyOp35
 70
     1
102
RTVSPropertyOp36
 70
     1
102
RTVSPropertyOp37
 70
     1
102
RTVSPropertyOp38
 70
     1
102
RTVSPropertyOp39
 70
     1
102
RTVSPropertyOp40
 70
     1
102
RTVSPropertyOp41
 70
     1
102
RTVSPropertyOp42
 70
     1
102
RTVSPropertyOp43
 70
     1
102
RTVSPropertyOp44
 70
     1
102
RTVSPropertyOp45
 70
     1
102
RTVSPropertyOp46
 70
     1
102
RTVSPropertyOp47
 70
     1
102
RTVSPropertyOp48
 70
     1
102
RTVSPropertyOp49
 70
     1
102
RTVSPropertyOp50
 70
     1
102
RTVSPropertyOp51
 70
     0
102
RTVSPropertyOp52
 70
     0
102
RTVSPropertyOp53
 70
     1
102
RTVSPropertyOp54
 70
     1
102
RTVSPropertyOp55
 70
     1
102
RTVSPropertyOp56
 70
     1
102
RTVSPropertyOp57
 70
     1
102
RTVSPost2010Prop28
280
     1
102
RTVSPost2010PropOp28
 70
     1
102
RTVSPost2010Prop29
280
     1
102
RTVSPost2010PropOp29
 70
     1
102
RTVSPost2010Prop30
280
     0
102
RTVSPost2010PropOp30
 70
     1
102
RTVSPost2010Prop31
280
     0
102
RTVSPost2010PropOp31
 70
     1
102
RTVSPost2010Prop32
280
     0
102
RTVSPost2010PropOp32
 70
     1
102
RTVSPost2010Prop33
280
     0
102
RTVSPost2010PropOp33
 70
     1
102
RTVSPost2010Prop34
280
     0
102
RTVSPost2010PropOp34
 70
     1
102
RTVSPost2010Prop35
280
     0
102
RTVSPost2010PropOp35
 70
     1
102
RTVSPost2010Prop36
280
     0
102
RTVSPost2010PropOp36
 70
     1
102
RTVSPost2010Prop37
 90
       50
102
RTVSPost2010PropOp37
 70
     1
102
RTVSPost2010Prop38
140
0.0
102
RTVSPost2010PropOp38
 70
     1
102
RTVSPost2010Prop39
140
1.0
102
RTVSPost2010PropOp39
 70
     1
102
RTVSPost2010Prop40
 90
        0
102
RTVSPost2010PropOp40
 70
     1
102
RTVSPost2010Prop41ColorIndex
 90
       18
102
RTVSPost2010Prop41ColorRGB
 90
        0
102
RTVSPost2010PropOp41
 70
     1
102
RTVSPost2010Prop42
 90
       50
102
RTVSPost2010PropOp42
 70
     1
102
RTVSPost2010Prop43
 90
        3
102
RTVSPost2010PropOp43
 70
     1
102
RTVSPost2010Prop44ColorIndex
 90
        5
102
RTVSPost2010Prop44ColorRGB
 90
      255
102
RTVSPost2010PropOp44
 70
     1
102
RTVSPost2010Prop45
280
     0
102
RTVSPost2010PropOp45
 70
     1
102
RTVSPost2010Prop46
 90
       50
102
RTVSPost2010PropOp46
 70
     1
102
RTVSPost2010Prop47
 90
       50
102
RTVSPost2010PropOp47
 70
     1
102
RTVSPost2010Prop48
 90
       50
102
RTVSPost2010PropOp48
 70
     1
102
RTVSPost2010Prop49
280
     0
102
RTVSPost2010PropOp49
 70
     1
102
RTVSPost2010Prop50
 90
       50
102
RTVSPost2010PropOp50
 70
     1
102
RTVSPost2010Prop51ColorIndex
 90
      256
102
RTVSPost2010Prop51ColorRGB
 90
-16777216
102
RTVSPost2010PropOp51
 70
     0
102
RTVSPost2010Prop52
140
1.0
102
RTVSPost2010PropOp52
 70
     0
102
RTVSPost2010Prop53
 90
        2
102
RTVSPost2010PropOp53
 70
     1
102
RTVSPost2010Prop54
  1
strokes_ogs.tif
102
RTVSPost2010PropOp54
 70
     1
102
RTVSPost2010Prop55
280
     0
102
RTVSPost2010PropOp55
 70
     1
102
RTVSPost2010Prop56
140
1.0
102
RTVSPost2010PropOp56
 70
     1
102
RTVSPost2010Prop57
140
1.0
102
RTVSPost2010PropOp57
 70
     1
  0
XRECORD
  5
651
102
{ACAD_REACTORS
330
650
102
}
330
650
100
AcDbXrecord
280
     1
102
RTVSPropertyOp0
 70
     1
102
RTVSPropertyOp1
 70
     1
102
RTVSPropertyOp2
 70
     1
102
RTVSPropertyOp3
 70
     1
102
RTVSPropertyOp4
 70
     1
102
RTVSPropertyOp5
 70
     1
102
RTVSPropertyOp6
 70
     1
102
RTVSPropertyOp7
 70
     1
102
RTVSPropertyOp8
 70
     1
102
RTVSPropertyOp9
 70
     1
102
RTVSPropertyOp10
 70
     1
102
RTVSPropertyOp11
 70
     1
102
RTVSPropertyOp12
 70
     1
102
RTVSPropertyOp13
 70
     1
102
RTVSPropertyOp14
 70
     1
102
RTVSPropertyOp15
 70
     1
102
RTVSPropertyOp16
 70
     1
102
RTVSPropertyOp17
 70
     1
102
RTVSPropertyOp18
 70
     1
102
RTVSPropertyOp19
 70
     1
102
RTVSPropertyOp20
 70
     1
102
RTVSPropertyOp21
 70
     1
102
RTVSPropertyOp22
 70
     1
102
RTVSPropertyOp23
 70
     1
102
RTVSPropertyOp24
 70
     1
102
RTVSPropertyOp25
 70
     1
102
RTVSPropertyOp26
 70
     1
102
RTVSPropertyOp27
 70
     1
102
RTVSPropertyOp28
 70
     1
102
RTVSPropertyOp29
 70
     1
102
RTVSPropertyOp30
 70
     1
102
RTVSPropertyOp31
 70
     1
102
RTVSPropertyOp32
 70
     1
102
RTVSPropertyOp33
 70
     1
102
RTVSPropertyOp34
 70
     1
102
RTVSPropertyOp35
 70
     1
102
RTVSPropertyOp36
 70
     1
102
RTVSPropertyOp37
 70
     1
102
RTVSPropertyOp38
 70
     1
102
RTVSPropertyOp39
 70
     1
102
RTVSPropertyOp40
 70
     1
102
RTVSPropertyOp41
 70
     1
102
RTVSPropertyOp42
 70
     1
102
RTVSPropertyOp43
 70
     1
102
RTVSPropertyOp44
 70
     1
102
RTVSPropertyOp45
 70
     1
102
RTVSPropertyOp46
 70
     1
102
RTVSPropertyOp47
 70
     1
102
RTVSPropertyOp48
 70
     1
102
RTVSPropertyOp49
 70
     1
102
RTVSPropertyOp50
 70
     1
102
RTVSPropertyOp51
 70
     0
102
RTVSPropertyOp52
 70
     0
102
RTVSPropertyOp53
 70
     1
102
RTVSPropertyOp54
 70
     1
102
RTVSPropertyOp55
 70
     1
102
RTVSPropertyOp56
 70
     1
102
RTVSPropertyOp57
 70
     1
102
RTVSPost2010Prop28
280
     0
102
RTVSPost2010PropOp28
 70
     1
102
RTVSPost2010Prop29
280
     1
102
RTVSPost2010PropOp29
 70
     1
102
RTVSPost2010Prop30
280
     1
102
RTVSPost2010PropOp30
 70
     1
102
RTVSPost2010Prop31
280
     0
102
RTVSPost2010PropOp31
 70
     1
102
RTVSPost2010Prop32
280
     0
102
RTVSPost2010PropOp32
 70
     1
102
RTVSPost2010Prop33
280
     0
102
RTVSPost2010PropOp33
 70
     1
102
RTVSPost2010Prop34
280
     0
102
RTVSPost2010PropOp34
 70
     1
102
RTVSPost2010Prop35
280
     0
102
RTVSPost2010PropOp35
 70
     1
102
RTVSPost2010Prop36
280
     0
102
RTVSPost2010PropOp36
 70
     1
102
RTVSPost2010Prop37
 90
       50
102
RTVSPost2010PropOp37
 70
     1
102
RTVSPost2010Prop38
140
0.0
102
RTVSPost2010PropOp38
 70
     1
102
RTVSPost2010Prop39
140
1.0
102
RTVSPost2010PropOp39
 70
     1
102
RTVSPost2010Prop40
 90
        0
102
RTVSPost2010PropOp40
 70
     1
102
RTVSPost2010Prop41ColorIndex
 90
       18
102
RTVSPost2010Prop41ColorRGB
 90
        0
102
RTVSPost2010PropOp41
 70
     1
102
RTVSPost2010Prop42
 90
       50
102
RTVSPost2010PropOp42
 70
     1
102
RTVSPost2010Prop43
 90
        3
102
RTVSPost2010PropOp43
 70
     1
102
RTVSPost2010Prop44ColorIndex
 90
        5
102
RTVSPost2010Prop44ColorRGB
 90
      255
102
RTVSPost2010PropOp44
 70
     1
102
RTVSPost2010Prop45
280
     0
102
RTVSPost2010PropOp45
 70
     1
102
RTVSPost2010Prop46
 90
       50
102
RTVSPost2010PropOp46
 70
     1
102
RTVSPost2010Prop47
 90
       50
102
RTVSPost2010PropOp47
 70
     1
102
RTVSPost2010Prop48
 90
       50
102
RTVSPost2010PropOp48
 70
     1
102
RTVSPost2010Prop49
280
     0
102
RTVSPost2010PropOp49
 70
     1
102
RTVSPost2010Prop50
 90
       50
102
RTVSPost2010PropOp50
 70
     1
102
RTVSPost2010Prop51ColorIndex
 90
      256
102
RTVSPost2010Prop51ColorRGB
 90
-16777216
102
RTVSPost2010PropOp51
 70
     0
102
RTVSPost2010Prop52
140
1.0
102
RTVSPost2010PropOp52
 70
     0
102
RTVSPost2010Prop53
 90
        2
102
RTVSPost2010PropOp53
 70
     1
102
RTVSPost2010Prop54
  1
strokes_ogs.tif
102
RTVSPost2010PropOp54
 70
     1
102
RTVSPost2010Prop55
280
     0
102
RTVSPost2010PropOp55
 70
     1
102
RTVSPost2010Prop56
140
1.0
102
RTVSPost2010PropOp56
 70
     1
102
RTVSPost2010Prop57
140
1.0
102
RTVSPost2010PropOp57
 70
     1
  0
XRECORD
  5
653
102
{ACAD_REACTORS
330
652
102
}
330
652
100
AcDbXrecord
280
     1
102
RTVSPropertyOp0
 70
     1
102
RTVSPropertyOp1
 70
     1
102
RTVSPropertyOp2
 70
     1
102
RTVSPropertyOp3
 70
     1
102
RTVSPropertyOp4
 70
     1
102
RTVSPropertyOp5
 70
     1
102
RTVSPropertyOp6
 70
     1
102
RTVSPropertyOp7
 70
     1
102
RTVSPropertyOp8
 70
     1
102
RTVSPropertyOp9
 70
     1
102
RTVSPropertyOp10
 70
     1
102
RTVSPropertyOp11
 70
     1
102
RTVSPropertyOp12
 70
     1
102
RTVSPropertyOp13
 70
     1
102
RTVSPropertyOp14
 70
     1
102
RTVSPropertyOp15
 70
     1
102
RTVSPropertyOp16
 70
     1
102
RTVSPropertyOp17
 70
     1
102
RTVSPropertyOp18
 70
     1
102
RTVSPropertyOp19
 70
     1
102
RTVSPropertyOp20
 70
     1
102
RTVSPropertyOp21
 70
     1
102
RTVSPropertyOp22
 70
     1
102
RTVSPropertyOp23
 70
     1
102
RTVSPropertyOp24
 70
     1
102
RTVSPropertyOp25
 70
     1
102
RTVSPropertyOp26
 70
     1
102
RTVSPropertyOp27
 70
     1
102
RTVSPropertyOp28
 70
     1
102
RTVSPropertyOp29
 70
     1
102
RTVSPropertyOp30
 70
     1
102
RTVSPropertyOp31
 70
     1
102
RTVSPropertyOp32
 70
     1
102
RTVSPropertyOp33
 70
     1
102
RTVSPropertyOp34
 70
     1
102
RTVSPropertyOp35
 70
     1
102
RTVSPropertyOp36
 70
     1
102
RTVSPropertyOp37
 70
     1
102
RTVSPropertyOp38
 70
     1
102
RTVSPropertyOp39
 70
     1
102
RTVSPropertyOp40
 70
     1
102
RTVSPropertyOp41
 70
     1
102
RTVSPropertyOp42
 70
     1
102
RTVSPropertyOp43
 70
     1
102
RTVSPropertyOp44
 70
     1
102
RTVSPropertyOp45
 70
     1
102
RTVSPropertyOp46
 70
     1
102
RTVSPropertyOp47
 70
     1
102
RTVSPropertyOp48
 70
     1
102
RTVSPropertyOp49
 70
     1
102
RTVSPropertyOp50
 70
     1
102
RTVSPropertyOp51
 70
     0
102
RTVSPropertyOp52
 70
     0
102
RTVSPropertyOp53
 70
     1
102
RTVSPropertyOp54
 70
     1
102
RTVSPropertyOp55
 70
     1
102
RTVSPropertyOp56
 70
     1
102
RTVSPropertyOp57
 70
     1
102
RTVSPost2010Prop28
280
     0
102
RTVSPost2010PropOp28
 70
     1
102
RTVSPost2010Prop29
280
     1
102
RTVSPost2010PropOp29
 70
     1
102
RTVSPost2010Prop30
280
     1
102
RTVSPost2010PropOp30
 70
     1
102
RTVSPost2010Prop31
280
     0
102
RTVSPost2010PropOp31
 70
     1
102
RTVSPost2010Prop32
280
     0
102
RTVSPost2010PropOp32
 70
     1
102
RTVSPost2010Prop33
280
     0
102
RTVSPost2010PropOp33
 70
     1
102
RTVSPost2010Prop34
280
     0
102
RTVSPost2010PropOp34
 70
     1
102
RTVSPost2010Prop35
280
     0
102
RTVSPost2010PropOp35
 70
     1
102
RTVSPost2010Prop36
280
     0
102
RTVSPost2010PropOp36
 70
     1
102
RTVSPost2010Prop37
 90
       50
102
RTVSPost2010PropOp37
 70
     1
102
RTVSPost2010Prop38
140
0.0
102
RTVSPost2010PropOp38
 70
     1
102
RTVSPost2010Prop39
140
1.0
102
RTVSPost2010PropOp39
 70
     1
102
RTVSPost2010Prop40
 90
        0
102
RTVSPost2010PropOp40
 70
     1
102
RTVSPost2010Prop41ColorIndex
 90
       18
102
RTVSPost2010Prop41ColorRGB
 90
        0
102
RTVSPost2010PropOp41
 70
     1
102
RTVSPost2010Prop42
 90
       50
102
RTVSPost2010PropOp42
 70
     1
102
RTVSPost2010Prop43
 90
        3
102
RTVSPost2010PropOp43
 70
     1
102
RTVSPost2010Prop44ColorIndex
 90
        5
102
RTVSPost2010Prop44ColorRGB
 90
      255
102
RTVSPost2010PropOp44
 70
     1
102
RTVSPost2010Prop45
280
     0
102
RTVSPost2010PropOp45
 70
     1
102
RTVSPost2010Prop46
 90
       50
102
RTVSPost2010PropOp46
 70
     1
102
RTVSPost2010Prop47
 90
       50
102
RTVSPost2010PropOp47
 70
     1
102
RTVSPost2010Prop48
 90
       50
102
RTVSPost2010PropOp48
 70
     1
102
RTVSPost2010Prop49
280
     0
102
RTVSPost2010PropOp49
 70
     1
102
RTVSPost2010Prop50
 90
       50
102
RTVSPost2010PropOp50
 70
     1
102
RTVSPost2010Prop51ColorIndex
 90
      256
102
RTVSPost2010Prop51ColorRGB
 90
-16777216
102
RTVSPost2010PropOp51
 70
     0
102
RTVSPost2010Prop52
140
1.0
102
RTVSPost2010PropOp52
 70
     0
102
RTVSPost2010Prop53
 90
        2
102
RTVSPost2010PropOp53
 70
     1
102
RTVSPost2010Prop54
  1
strokes_ogs.tif
102
RTVSPost2010PropOp54
 70
     1
102
RTVSPost2010Prop55
280
     0
102
RTVSPost2010PropOp55
 70
     1
102
RTVSPost2010Prop56
140
1.0
102
RTVSPost2010PropOp56
 70
     1
102
RTVSPost2010Prop57
140
1.0
102
RTVSPost2010PropOp57
 70
     1
  0
XRECORD
  5
655
102
{ACAD_REACTORS
330
654
102
}
330
654
100
AcDbXrecord
280
     1
102
RTVSPropertyOp0
 70
     1
102
RTVSPropertyOp1
 70
     1
102
RTVSPropertyOp2
 70
     1
102
RTVSPropertyOp3
 70
     1
102
RTVSPropertyOp4
 70
     1
102
RTVSPropertyOp5
 70
     1
102
RTVSPropertyOp6
 70
     1
102
RTVSPropertyOp7
 70
     1
102
RTVSPropertyOp8
 70
     1
102
RTVSPropertyOp9
 70
     1
102
RTVSPropertyOp10
 70
     1
102
RTVSPropertyOp11
 70
     1
102
RTVSPropertyOp12
 70
     1
102
RTVSPropertyOp13
 70
     1
102
RTVSPropertyOp14
 70
     1
102
RTVSPropertyOp15
 70
     1
102
RTVSPropertyOp16
 70
     1
102
RTVSPropertyOp17
 70
     1
102
RTVSPropertyOp18
 70
     1
102
RTVSPropertyOp19
 70
     1
102
RTVSPropertyOp20
 70
     1
102
RTVSPropertyOp21
 70
     1
102
RTVSPropertyOp22
 70
     1
102
RTVSPropertyOp23
 70
     1
102
RTVSPropertyOp24
 70
     1
102
RTVSPropertyOp25
 70
     1
102
RTVSPropertyOp26
 70
     1
102
RTVSPropertyOp27
 70
     1
102
RTVSPropertyOp28
 70
     1
102
RTVSPropertyOp29
 70
     1
102
RTVSPropertyOp30
 70
     1
102
RTVSPropertyOp31
 70
     1
102
RTVSPropertyOp32
 70
     1
102
RTVSPropertyOp33
 70
     1
102
RTVSPropertyOp34
 70
     1
102
RTVSPropertyOp35
 70
     1
102
RTVSPropertyOp36
 70
     1
102
RTVSPropertyOp37
 70
     1
102
RTVSPropertyOp38
 70
     1
102
RTVSPropertyOp39
 70
     1
102
RTVSPropertyOp40
 70
     1
102
RTVSPropertyOp41
 70
     1
102
RTVSPropertyOp42
 70
     1
102
RTVSPropertyOp43
 70
     1
102
RTVSPropertyOp44
 70
     1
102
RTVSPropertyOp45
 70
     1
102
RTVSPropertyOp46
 70
     1
102
RTVSPropertyOp47
 70
     1
102
RTVSPropertyOp48
 70
     1
102
RTVSPropertyOp49
 70
     1
102
RTVSPropertyOp50
 70
     1
102
RTVSPropertyOp51
 70
     0
102
RTVSPropertyOp52
 70
     0
102
RTVSPropertyOp53
 70
     1
102
RTVSPropertyOp54
 70
     1
102
RTVSPropertyOp55
 70
     1
102
RTVSPropertyOp56
 70
     1
102
RTVSPropertyOp57
 70
     1
102
RTVSPost2010Prop28
280
     0
102
RTVSPost2010PropOp28
 70
     1
102
RTVSPost2010Prop29
280
     1
102
RTVSPost2010PropOp29
 70
     1
102
RTVSPost2010Prop30
280
     1
102
RTVSPost2010PropOp30
 70
     1
102
RTVSPost2010Prop31
280
     0
102
RTVSPost2010PropOp31
 70
     1
102
RTVSPost2010Prop32
280
     0
102
RTVSPost2010PropOp32
 70
     1
102
RTVSPost2010Prop33
280
     0
102
RTVSPost2010PropOp33
 70
     1
102
RTVSPost2010Prop34
280
     0
102
RTVSPost2010PropOp34
 70
     1
102
RTVSPost2010Prop35
280
     0
102
RTVSPost2010PropOp35
 70
     1
102
RTVSPost2010Prop36
280
     0
102
RTVSPost2010PropOp36
 70
     1
102
RTVSPost2010Prop37
 90
       50
102
RTVSPost2010PropOp37
 70
     1
102
RTVSPost2010Prop38
140
0.0
102
RTVSPost2010PropOp38
 70
     1
102
RTVSPost2010Prop39
140
1.0
102
RTVSPost2010PropOp39
 70
     1
102
RTVSPost2010Prop40
 90
        0
102
RTVSPost2010PropOp40
 70
     1
102
RTVSPost2010Prop41ColorIndex
 90
       18
102
RTVSPost2010Prop41ColorRGB
 90
        0
102
RTVSPost2010PropOp41
 70
     1
102
RTVSPost2010Prop42
 90
       50
102
RTVSPost2010PropOp42
 70
     1
102
RTVSPost2010Prop43
 90
        3
102
RTVSPost2010PropOp43
 70
     1
102
RTVSPost2010Prop44ColorIndex
 90
        5
102
RTVSPost2010Prop44ColorRGB
 90
      255
102
RTVSPost2010PropOp44
 70
     1
102
RTVSPost2010Prop45
280
     0
102
RTVSPost2010PropOp45
 70
     1
102
RTVSPost2010Prop46
 90
       50
102
RTVSPost2010PropOp46
 70
     1
102
RTVSPost2010Prop47
 90
       50
102
RTVSPost2010PropOp47
 70
     1
102
RTVSPost2010Prop48
 90
       50
102
RTVSPost2010PropOp48
 70
     1
102
RTVSPost2010Prop49
280
     0
102
RTVSPost2010PropOp49
 70
     1
102
RTVSPost2010Prop50
 90
       50
102
RTVSPost2010PropOp50
 70
     1
102
RTVSPost2010Prop51ColorIndex
 90
      256
102
RTVSPost2010Prop51ColorRGB
 90
-16777216
102
RTVSPost2010PropOp51
 70
     0
102
RTVSPost2010Prop52
140
1.0
102
RTVSPost2010PropOp52
 70
     0
102
RTVSPost2010Prop53
 90
        2
102
RTVSPost2010PropOp53
 70
     1
102
RTVSPost2010Prop54
  1
strokes_ogs.tif
102
RTVSPost2010PropOp54
 70
     1
102
RTVSPost2010Prop55
280
     0
102
RTVSPost2010PropOp55
 70
     1
102
RTVSPost2010Prop56
140
1.0
102
RTVSPost2010PropOp56
 70
     1
102
RTVSPost2010Prop57
140
1.0
102
RTVSPost2010PropOp57
 70
     1
  0
XRECORD
  5
657
102
{ACAD_REACTORS
330
656
102
}
330
656
100
AcDbXrecord
280
     1
102
RTVSPropertyOp0
 70
     1
102
RTVSPropertyOp1
 70
     1
102
RTVSPropertyOp2
 70
     1
102
RTVSPropertyOp3
 70
     1
102
RTVSPropertyOp4
 70
     1
102
RTVSPropertyOp5
 70
     1
102
RTVSPropertyOp6
 70
     1
102
RTVSPropertyOp7
 70
     1
102
RTVSPropertyOp8
 70
     1
102
RTVSPropertyOp9
 70
     1
102
RTVSPropertyOp10
 70
     1
102
RTVSPropertyOp11
 70
     1
102
RTVSPropertyOp12
 70
     1
102
RTVSPropertyOp13
 70
     1
102
RTVSPropertyOp14
 70
     1
102
RTVSPropertyOp15
 70
     1
102
RTVSPropertyOp16
 70
     1
102
RTVSPropertyOp17
 70
     1
102
RTVSPropertyOp18
 70
     1
102
RTVSPropertyOp19
 70
     1
102
RTVSPropertyOp20
 70
     1
102
RTVSPropertyOp21
 70
     1
102
RTVSPropertyOp22
 70
     1
102
RTVSPropertyOp23
 70
     1
102
RTVSPropertyOp24
 70
     1
102
RTVSPropertyOp25
 70
     1
102
RTVSPropertyOp26
 70
     1
102
RTVSPropertyOp27
 70
     1
102
RTVSPropertyOp28
 70
     1
102
RTVSPropertyOp29
 70
     1
102
RTVSPropertyOp30
 70
     1
102
RTVSPropertyOp31
 70
     1
102
RTVSPropertyOp32
 70
     1
102
RTVSPropertyOp33
 70
     1
102
RTVSPropertyOp34
 70
     1
102
RTVSPropertyOp35
 70
     1
102
RTVSPropertyOp36
 70
     1
102
RTVSPropertyOp37
 70
     1
102
RTVSPropertyOp38
 70
     1
102
RTVSPropertyOp39
 70
     1
102
RTVSPropertyOp40
 70
     1
102
RTVSPropertyOp41
 70
     1
102
RTVSPropertyOp42
 70
     1
102
RTVSPropertyOp43
 70
     1
102
RTVSPropertyOp44
 70
     1
102
RTVSPropertyOp45
 70
     1
102
RTVSPropertyOp46
 70
     1
102
RTVSPropertyOp47
 70
     1
102
RTVSPropertyOp48
 70
     1
102
RTVSPropertyOp49
 70
     1
102
RTVSPropertyOp50
 70
     1
102
RTVSPropertyOp51
 70
     0
102
RTVSPropertyOp52
 70
     0
102
RTVSPropertyOp53
 70
     1
102
RTVSPropertyOp54
 70
     1
102
RTVSPropertyOp55
 70
     1
102
RTVSPropertyOp56
 70
     1
102
RTVSPropertyOp57
 70
     1
102
RTVSPost2010Prop28
280
     0
102
RTVSPost2010PropOp28
 70
     1
102
RTVSPost2010Prop29
280
     1
102
RTVSPost2010PropOp29
 70
     1
102
RTVSPost2010Prop30
280
     1
102
RTVSPost2010PropOp30
 70
     1
102
RTVSPost2010Prop31
280
     0
102
RTVSPost2010PropOp31
 70
     1
102
RTVSPost2010Prop32
280
     0
102
RTVSPost2010PropOp32
 70
     1
102
RTVSPost2010Prop33
280
     0
102
RTVSPost2010PropOp33
 70
     1
102
RTVSPost2010Prop34
280
     0
102
RTVSPost2010PropOp34
 70
     1
102
RTVSPost2010Prop35
280
     0
102
RTVSPost2010PropOp35
 70
     1
102
RTVSPost2010Prop36
280
     0
102
RTVSPost2010PropOp36
 70
     1
102
RTVSPost2010Prop37
 90
       50
102
RTVSPost2010PropOp37
 70
     1
102
RTVSPost2010Prop38
140
0.0
102
RTVSPost2010PropOp38
 70
     1
102
RTVSPost2010Prop39
140
1.0
102
RTVSPost2010PropOp39
 70
     1
102
RTVSPost2010Prop40
 90
        0
102
RTVSPost2010PropOp40
 70
     1
102
RTVSPost2010Prop41ColorIndex
 90
       18
102
RTVSPost2010Prop41ColorRGB
 90
        0
102
RTVSPost2010PropOp41
 70
     1
102
RTVSPost2010Prop42
 90
       50
102
RTVSPost2010PropOp42
 70
     1
102
RTVSPost2010Prop43
 90
        3
102
RTVSPost2010PropOp43
 70
     1
102
RTVSPost2010Prop44ColorIndex
 90
        5
102
RTVSPost2010Prop44ColorRGB
 90
      255
102
RTVSPost2010PropOp44
 70
     1
102
RTVSPost2010Prop45
280
     0
102
RTVSPost2010PropOp45
 70
     1
102
RTVSPost2010Prop46
 90
       50
102
RTVSPost2010PropOp46
 70
     1
102
RTVSPost2010Prop47
 90
       50
102
RTVSPost2010PropOp47
 70
     1
102
RTVSPost2010Prop48
 90
       50
102
RTVSPost2010PropOp48
 70
     1
102
RTVSPost2010Prop49
280
     0
102
RTVSPost2010PropOp49
 70
     1
102
RTVSPost2010Prop50
 90
       50
102
RTVSPost2010PropOp50
 70
     1
102
RTVSPost2010Prop51ColorIndex
 90
      256
102
RTVSPost2010Prop51ColorRGB
 90
-16777216
102
RTVSPost2010PropOp51
 70
     0
102
RTVSPost2010Prop52
140
1.0
102
RTVSPost2010PropOp52
 70
     0
102
RTVSPost2010Prop53
 90
        2
102
RTVSPost2010PropOp53
 70
     1
102
RTVSPost2010Prop54
  1
strokes_ogs.tif
102
RTVSPost2010PropOp54
 70
     1
102
RTVSPost2010Prop55
280
     0
102
RTVSPost2010PropOp55
 70
     1
102
RTVSPost2010Prop56
140
1.0
102
RTVSPost2010PropOp56
 70
     1
102
RTVSPost2010Prop57
140
1.0
102
RTVSPost2010PropOp57
 70
     1
  0
XRECORD
  5
659
102
{ACAD_REACTORS
330
658
102
}
330
658
100
AcDbXrecord
280
     1
102
RTVSPropertyOp0
 70
     1
102
RTVSPropertyOp1
 70
     1
102
RTVSPropertyOp2
 70
     1
102
RTVSPropertyOp3
 70
     1
102
RTVSPropertyOp4
 70
     1
102
RTVSPropertyOp5
 70
     1
102
RTVSPropertyOp6
 70
     1
102
RTVSPropertyOp7
 70
     1
102
RTVSPropertyOp8
 70
     1
102
RTVSPropertyOp9
 70
     1
102
RTVSPropertyOp10
 70
     1
102
RTVSPropertyOp11
 70
     1
102
RTVSPropertyOp12
 70
     1
102
RTVSPropertyOp13
 70
     1
102
RTVSPropertyOp14
 70
     1
102
RTVSPropertyOp15
 70
     1
102
RTVSPropertyOp16
 70
     1
102
RTVSPropertyOp17
 70
     1
102
RTVSPropertyOp18
 70
     1
102
RTVSPropertyOp19
 70
     1
102
RTVSPropertyOp20
 70
     1
102
RTVSPropertyOp21
 70
     1
102
RTVSPropertyOp22
 70
     1
102
RTVSPropertyOp23
 70
     1
102
RTVSPropertyOp24
 70
     1
102
RTVSPropertyOp25
 70
     1
102
RTVSPropertyOp26
 70
     1
102
RTVSPropertyOp27
 70
     1
102
RTVSPropertyOp28
 70
     1
102
RTVSPropertyOp29
 70
     1
102
RTVSPropertyOp30
 70
     1
102
RTVSPropertyOp31
 70
     1
102
RTVSPropertyOp32
 70
     1
102
RTVSPropertyOp33
 70
     1
102
RTVSPropertyOp34
 70
     1
102
RTVSPropertyOp35
 70
     1
102
RTVSPropertyOp36
 70
     1
102
RTVSPropertyOp37
 70
     1
102
RTVSPropertyOp38
 70
     1
102
RTVSPropertyOp39
 70
     1
102
RTVSPropertyOp40
 70
     1
102
RTVSPropertyOp41
 70
     1
102
RTVSPropertyOp42
 70
     1
102
RTVSPropertyOp43
 70
     1
102
RTVSPropertyOp44
 70
     1
102
RTVSPropertyOp45
 70
     1
102
RTVSPropertyOp46
 70
     1
102
RTVSPropertyOp47
 70
     1
102
RTVSPropertyOp48
 70
     1
102
RTVSPropertyOp49
 70
     1
102
RTVSPropertyOp50
 70
     1
102
RTVSPropertyOp51
 70
     0
102
RTVSPropertyOp52
 70
     0
102
RTVSPropertyOp53
 70
     1
102
RTVSPropertyOp54
 70
     1
102
RTVSPropertyOp55
 70
     1
102
RTVSPropertyOp56
 70
     1
102
RTVSPropertyOp57
 70
     1
102
RTVSPost2010Prop28
280
     0
102
RTVSPost2010PropOp28
 70
     1
102
RTVSPost2010Prop29
280
     1
102
RTVSPost2010PropOp29
 70
     1
102
RTVSPost2010Prop30
280
     1
102
RTVSPost2010PropOp30
 70
     1
102
RTVSPost2010Prop31
280
     0
102
RTVSPost2010PropOp31
 70
     1
102
RTVSPost2010Prop32
280
     0
102
RTVSPost2010PropOp32
 70
     1
102
RTVSPost2010Prop33
280
     0
102
RTVSPost2010PropOp33
 70
     1
102
RTVSPost2010Prop34
280
     0
102
RTVSPost2010PropOp34
 70
     1
102
RTVSPost2010Prop35
280
     0
102
RTVSPost2010PropOp35
 70
     1
102
RTVSPost2010Prop36
280
     0
102
RTVSPost2010PropOp36
 70
     1
102
RTVSPost2010Prop37
 90
       50
102
RTVSPost2010PropOp37
 70
     1
102
RTVSPost2010Prop38
140
0.0
102
RTVSPost2010PropOp38
 70
     1
102
RTVSPost2010Prop39
140
1.0
102
RTVSPost2010PropOp39
 70
     1
102
RTVSPost2010Prop40
 90
        0
102
RTVSPost2010PropOp40
 70
     1
102
RTVSPost2010Prop41ColorIndex
 90
       18
102
RTVSPost2010Prop41ColorRGB
 90
        0
102
RTVSPost2010PropOp41
 70
     1
102
RTVSPost2010Prop42
 90
       50
102
RTVSPost2010PropOp42
 70
     1
102
RTVSPost2010Prop43
 90
        3
102
RTVSPost2010PropOp43
 70
     1
102
RTVSPost2010Prop44ColorIndex
 90
        5
102
RTVSPost2010Prop44ColorRGB
 90
      255
102
RTVSPost2010PropOp44
 70
     1
102
RTVSPost2010Prop45
280
     0
102
RTVSPost2010PropOp45
 70
     1
102
RTVSPost2010Prop46
 90
       50
102
RTVSPost2010PropOp46
 70
     1
102
RTVSPost2010Prop47
 90
       50
102
RTVSPost2010PropOp47
 70
     1
102
RTVSPost2010Prop48
 90
       50
102
RTVSPost2010PropOp48
 70
     1
102
RTVSPost2010Prop49
280
     0
102
RTVSPost2010PropOp49
 70
     1
102
RTVSPost2010Prop50
 90
       50
102
RTVSPost2010PropOp50
 70
     1
102
RTVSPost2010Prop51ColorIndex
 90
      256
102
RTVSPost2010Prop51ColorRGB
 90
-16777216
102
RTVSPost2010PropOp51
 70
     0
102
RTVSPost2010Prop52
140
1.0
102
RTVSPost2010PropOp52
 70
     0
102
RTVSPost2010Prop53
 90
        2
102
RTVSPost2010PropOp53
 70
     1
102
RTVSPost2010Prop54
  1
strokes_ogs.tif
102
RTVSPost2010PropOp54
 70
     1
102
RTVSPost2010Prop55
280
     0
102
RTVSPost2010PropOp55
 70
     1
102
RTVSPost2010Prop56
140
1.0
102
RTVSPost2010PropOp56
 70
     1
102
RTVSPost2010Prop57
140
1.0
102
RTVSPost2010PropOp57
 70
     1
  0
XRECORD
  5
65B
102
{ACAD_REACTORS
330
65A
102
}
330
65A
100
AcDbXrecord
280
     1
102
RTVSPropertyOp0
 70
     1
102
RTVSPropertyOp1
 70
     1
102
RTVSPropertyOp2
 70
     1
102
RTVSPropertyOp3
 70
     1
102
RTVSPropertyOp4
 70
     1
102
RTVSPropertyOp5
 70
     1
102
RTVSPropertyOp6
 70
     1
102
RTVSPropertyOp7
 70
     1
102
RTVSPropertyOp8
 70
     1
102
RTVSPropertyOp9
 70
     1
102
RTVSPropertyOp10
 70
     1
102
RTVSPropertyOp11
 70
     1
102
RTVSPropertyOp12
 70
     1
102
RTVSPropertyOp13
 70
     1
102
RTVSPropertyOp14
 70
     1
102
RTVSPropertyOp15
 70
     1
102
RTVSPropertyOp16
 70
     1
102
RTVSPropertyOp17
 70
     1
102
RTVSPropertyOp18
 70
     1
102
RTVSPropertyOp19
 70
     1
102
RTVSPropertyOp20
 70
     1
102
RTVSPropertyOp21
 70
     1
102
RTVSPropertyOp22
 70
     1
102
RTVSPropertyOp23
 70
     1
102
RTVSPropertyOp24
 70
     1
102
RTVSPropertyOp25
 70
     1
102
RTVSPropertyOp26
 70
     1
102
RTVSPropertyOp27
 70
     1
102
RTVSPropertyOp28
 70
     1
102
RTVSPropertyOp29
 70
     1
102
RTVSPropertyOp30
 70
     1
102
RTVSPropertyOp31
 70
     1
102
RTVSPropertyOp32
 70
     1
102
RTVSPropertyOp33
 70
     1
102
RTVSPropertyOp34
 70
     1
102
RTVSPropertyOp35
 70
     1
102
RTVSPropertyOp36
 70
     1
102
RTVSPropertyOp37
 70
     1
102
RTVSPropertyOp38
 70
     1
102
RTVSPropertyOp39
 70
     1
102
RTVSPropertyOp40
 70
     1
102
RTVSPropertyOp41
 70
     1
102
RTVSPropertyOp42
 70
     1
102
RTVSPropertyOp43
 70
     1
102
RTVSPropertyOp44
 70
     1
102
RTVSPropertyOp45
 70
     1
102
RTVSPropertyOp46
 70
     1
102
RTVSPropertyOp47
 70
     1
102
RTVSPropertyOp48
 70
     1
102
RTVSPropertyOp49
 70
     1
102
RTVSPropertyOp50
 70
     1
102
RTVSPropertyOp51
 70
     0
102
RTVSPropertyOp52
 70
     0
102
RTVSPropertyOp53
 70
     1
102
RTVSPropertyOp54
 70
     1
102
RTVSPropertyOp55
 70
     1
102
RTVSPropertyOp56
 70
     1
102
RTVSPropertyOp57
 70
     1
102
RTVSPost2010Prop28
280
     0
102
RTVSPost2010PropOp28
 70
     1
102
RTVSPost2010Prop29
280
     1
102
RTVSPost2010PropOp29
 70
     1
102
RTVSPost2010Prop30
280
     1
102
RTVSPost2010PropOp30
 70
     1
102
RTVSPost2010Prop31
280
     0
102
RTVSPost2010PropOp31
 70
     1
102
RTVSPost2010Prop32
280
     0
102
RTVSPost2010PropOp32
 70
     1
102
RTVSPost2010Prop33
280
     0
102
RTVSPost2010PropOp33
 70
     1
102
RTVSPost2010Prop34
280
     0
102
RTVSPost2010PropOp34
 70
     1
102
RTVSPost2010Prop35
280
     0
102
RTVSPost2010PropOp35
 70
     1
102
RTVSPost2010Prop36
280
     0
102
RTVSPost2010PropOp36
 70
     1
102
RTVSPost2010Prop37
 90
       50
102
RTVSPost2010PropOp37
 70
     1
102
RTVSPost2010Prop38
140
0.0
102
RTVSPost2010PropOp38
 70
     1
102
RTVSPost2010Prop39
140
1.0
102
RTVSPost2010PropOp39
 70
     1
102
RTVSPost2010Prop40
 90
        0
102
RTVSPost2010PropOp40
 70
     1
102
RTVSPost2010Prop41ColorIndex
 90
       18
102
RTVSPost2010Prop41ColorRGB
 90
        0
102
RTVSPost2010PropOp41
 70
     1
102
RTVSPost2010Prop42
 90
       50
102
RTVSPost2010PropOp42
 70
     1
102
RTVSPost2010Prop43
 90
        3
102
RTVSPost2010PropOp43
 70
     1
102
RTVSPost2010Prop44ColorIndex
 90
        5
102
RTVSPost2010Prop44ColorRGB
 90
      255
102
RTVSPost2010PropOp44
 70
     1
102
RTVSPost2010Prop45
280
     0
102
RTVSPost2010PropOp45
 70
     1
102
RTVSPost2010Prop46
 90
       50
102
RTVSPost2010PropOp46
 70
     1
102
RTVSPost2010Prop47
 90
       50
102
RTVSPost2010PropOp47
 70
     1
102
RTVSPost2010Prop48
 90
       50
102
RTVSPost2010PropOp48
 70
     1
102
RTVSPost2010Prop49
280
     0
102
RTVSPost2010PropOp49
 70
     1
102
RTVSPost2010Prop50
 90
       50
102
RTVSPost2010PropOp50
 70
     1
102
RTVSPost2010Prop51ColorIndex
 90
      256
102
RTVSPost2010Prop51ColorRGB
 90
-16777216
102
RTVSPost2010PropOp51
 70
     0
102
RTVSPost2010Prop52
140
1.0
102
RTVSPost2010PropOp52
 70
     0
102
RTVSPost2010Prop53
 90
        2
102
RTVSPost2010PropOp53
 70
     1
102
RTVSPost2010Prop54
  1
strokes_ogs.tif
102
RTVSPost2010PropOp54
 70
     1
102
RTVSPost2010Prop55
280
     0
102
RTVSPost2010PropOp55
 70
     1
102
RTVSPost2010Prop56
140
1.0
102
RTVSPost2010PropOp56
 70
     1
102
RTVSPost2010Prop57
140
1.0
102
RTVSPost2010PropOp57
 70
     1
  0
XRECORD
  5
65D
102
{ACAD_REACTORS
330
65C
102
}
330
65C
100
AcDbXrecord
280
     1
102
RTVSPropertyOp0
 70
     1
102
RTVSPropertyOp1
 70
     1
102
RTVSPropertyOp2
 70
     1
102
RTVSPropertyOp3
 70
     1
102
RTVSPropertyOp4
 70
     1
102
RTVSPropertyOp5
 70
     1
102
RTVSPropertyOp6
 70
     1
102
RTVSPropertyOp7
 70
     1
102
RTVSPropertyOp8
 70
     1
102
RTVSPropertyOp9
 70
     1
102
RTVSPropertyOp10
 70
     1
102
RTVSPropertyOp11
 70
     1
102
RTVSPropertyOp12
 70
     1
102
RTVSPropertyOp13
 70
     1
102
RTVSPropertyOp14
 70
     1
102
RTVSPropertyOp15
 70
     1
102
RTVSPropertyOp16
 70
     1
102
RTVSPropertyOp17
 70
     1
102
RTVSPropertyOp18
 70
     1
102
RTVSPropertyOp19
 70
     1
102
RTVSPropertyOp20
 70
     1
102
RTVSPropertyOp21
 70
     1
102
RTVSPropertyOp22
 70
     1
102
RTVSPropertyOp23
 70
     1
102
RTVSPropertyOp24
 70
     1
102
RTVSPropertyOp25
 70
     1
102
RTVSPropertyOp26
 70
     1
102
RTVSPropertyOp27
 70
     1
102
RTVSPropertyOp28
 70
     1
102
RTVSPropertyOp29
 70
     1
102
RTVSPropertyOp30
 70
     1
102
RTVSPropertyOp31
 70
     1
102
RTVSPropertyOp32
 70
     1
102
RTVSPropertyOp33
 70
     1
102
RTVSPropertyOp34
 70
     1
102
RTVSPropertyOp35
 70
     1
102
RTVSPropertyOp36
 70
     1
102
RTVSPropertyOp37
 70
     1
102
RTVSPropertyOp38
 70
     1
102
RTVSPropertyOp39
 70
     1
102
RTVSPropertyOp40
 70
     1
102
RTVSPropertyOp41
 70
     1
102
RTVSPropertyOp42
 70
     1
102
RTVSPropertyOp43
 70
     1
102
RTVSPropertyOp44
 70
     1
102
RTVSPropertyOp45
 70
     1
102
RTVSPropertyOp46
 70
     1
102
RTVSPropertyOp47
 70
     1
102
RTVSPropertyOp48
 70
     1
102
RTVSPropertyOp49
 70
     1
102
RTVSPropertyOp50
 70
     1
102
RTVSPropertyOp51
 70
     0
102
RTVSPropertyOp52
 70
     0
102
RTVSPropertyOp53
 70
     1
102
RTVSPropertyOp54
 70
     1
102
RTVSPropertyOp55
 70
     1
102
RTVSPropertyOp56
 70
     1
102
RTVSPropertyOp57
 70
     1
102
RTVSPost2010Prop28
280
     0
102
RTVSPost2010PropOp28
 70
     1
102
RTVSPost2010Prop29
280
     1
102
RTVSPost2010PropOp29
 70
     1
102
RTVSPost2010Prop30
280
     1
102
RTVSPost2010PropOp30
 70
     1
102
RTVSPost2010Prop31
280
     0
102
RTVSPost2010PropOp31
 70
     1
102
RTVSPost2010Prop32
280
     0
102
RTVSPost2010PropOp32
 70
     1
102
RTVSPost2010Prop33
280
     0
102
RTVSPost2010PropOp33
 70
     1
102
RTVSPost2010Prop34
280
     0
102
RTVSPost2010PropOp34
 70
     1
102
RTVSPost2010Prop35
280
     0
102
RTVSPost2010PropOp35
 70
     1
102
RTVSPost2010Prop36
280
     0
102
RTVSPost2010PropOp36
 70
     1
102
RTVSPost2010Prop37
 90
       50
102
RTVSPost2010PropOp37
 70
     1
102
RTVSPost2010Prop38
140
0.0
102
RTVSPost2010PropOp38
 70
     1
102
RTVSPost2010Prop39
140
1.0
102
RTVSPost2010PropOp39
 70
     1
102
RTVSPost2010Prop40
 90
        0
102
RTVSPost2010PropOp40
 70
     1
102
RTVSPost2010Prop41ColorIndex
 90
       18
102
RTVSPost2010Prop41ColorRGB
 90
        0
102
RTVSPost2010PropOp41
 70
     1
102
RTVSPost2010Prop42
 90
       50
102
RTVSPost2010PropOp42
 70
     1
102
RTVSPost2010Prop43
 90
        3
102
RTVSPost2010PropOp43
 70
     1
102
RTVSPost2010Prop44ColorIndex
 90
        5
102
RTVSPost2010Prop44ColorRGB
 90
      255
102
RTVSPost2010PropOp44
 70
     1
102
RTVSPost2010Prop45
280
     0
102
RTVSPost2010PropOp45
 70
     1
102
RTVSPost2010Prop46
 90
       50
102
RTVSPost2010PropOp46
 70
     1
102
RTVSPost2010Prop47
 90
       50
102
RTVSPost2010PropOp47
 70
     1
102
RTVSPost2010Prop48
 90
       50
102
RTVSPost2010PropOp48
 70
     1
102
RTVSPost2010Prop49
280
     0
102
RTVSPost2010PropOp49
 70
     1
102
RTVSPost2010Prop50
 90
       50
102
RTVSPost2010PropOp50
 70
     1
102
RTVSPost2010Prop51ColorIndex
 90
      256
102
RTVSPost2010Prop51ColorRGB
 90
-16777216
102
RTVSPost2010PropOp51
 70
     0
102
RTVSPost2010Prop52
140
1.0
102
RTVSPost2010PropOp52
 70
     0
102
RTVSPost2010Prop53
 90
        2
102
RTVSPost2010PropOp53
 70
     1
102
RTVSPost2010Prop54
  1
strokes_ogs.tif
102
RTVSPost2010PropOp54
 70
     1
102
RTVSPost2010Prop55
280
     0
102
RTVSPost2010PropOp55
 70
     1
102
RTVSPost2010Prop56
140
1.0
102
RTVSPost2010PropOp56
 70
     1
102
RTVSPost2010Prop57
140
1.0
102
RTVSPost2010PropOp57
 70
     1
  0
XRECORD
  5
65F
102
{ACAD_REACTORS
330
65E
102
}
330
65E
100
AcDbXrecord
280
     1
102
RTVSPropertyOp0
 70
     1
102
RTVSPropertyOp1
 70
     1
102
RTVSPropertyOp2
 70
     1
102
RTVSPropertyOp3
 70
     1
102
RTVSPropertyOp4
 70
     1
102
RTVSPropertyOp5
 70
     1
102
RTVSPropertyOp6
 70
     1
102
RTVSPropertyOp7
 70
     1
102
RTVSPropertyOp8
 70
     1
102
RTVSPropertyOp9
 70
     1
102
RTVSPropertyOp10
 70
     1
102
RTVSPropertyOp11
 70
     1
102
RTVSPropertyOp12
 70
     1
102
RTVSPropertyOp13
 70
     1
102
RTVSPropertyOp14
 70
     1
102
RTVSPropertyOp15
 70
     1
102
RTVSPropertyOp16
 70
     1
102
RTVSPropertyOp17
 70
     1
102
RTVSPropertyOp18
 70
     1
102
RTVSPropertyOp19
 70
     1
102
RTVSPropertyOp20
 70
     1
102
RTVSPropertyOp21
 70
     1
102
RTVSPropertyOp22
 70
     1
102
RTVSPropertyOp23
 70
     1
102
RTVSPropertyOp24
 70
     1
102
RTVSPropertyOp25
 70
     1
102
RTVSPropertyOp26
 70
     1
102
RTVSPropertyOp27
 70
     1
102
RTVSPropertyOp28
 70
     1
102
RTVSPropertyOp29
 70
     1
102
RTVSPropertyOp30
 70
     1
102
RTVSPropertyOp31
 70
     1
102
RTVSPropertyOp32
 70
     1
102
RTVSPropertyOp33
 70
     1
102
RTVSPropertyOp34
 70
     1
102
RTVSPropertyOp35
 70
     1
102
RTVSPropertyOp36
 70
     1
102
RTVSPropertyOp37
 70
     1
102
RTVSPropertyOp38
 70
     1
102
RTVSPropertyOp39
 70
     1
102
RTVSPropertyOp40
 70
     1
102
RTVSPropertyOp41
 70
     1
102
RTVSPropertyOp42
 70
     1
102
RTVSPropertyOp43
 70
     1
102
RTVSPropertyOp44
 70
     1
102
RTVSPropertyOp45
 70
     1
102
RTVSPropertyOp46
 70
     1
102
RTVSPropertyOp47
 70
     1
102
RTVSPropertyOp48
 70
     1
102
RTVSPropertyOp49
 70
     1
102
RTVSPropertyOp50
 70
     1
102
RTVSPropertyOp51
 70
     0
102
RTVSPropertyOp52
 70
     0
102
RTVSPropertyOp53
 70
     1
102
RTVSPropertyOp54
 70
     1
102
RTVSPropertyOp55
 70
     1
102
RTVSPropertyOp56
 70
     1
102
RTVSPropertyOp57
 70
     1
102
RTVSPost2010Prop28
280
     0
102
RTVSPost2010PropOp28
 70
     1
102
RTVSPost2010Prop29
280
     1
102
RTVSPost2010PropOp29
 70
     1
102
RTVSPost2010Prop30
280
     1
102
RTVSPost2010PropOp30
 70
     1
102
RTVSPost2010Prop31
280
     0
102
RTVSPost2010PropOp31
 70
     1
102
RTVSPost2010Prop32
280
     0
102
RTVSPost2010PropOp32
 70
     1
102
RTVSPost2010Prop33
280
     0
102
RTVSPost2010PropOp33
 70
     1
102
RTVSPost2010Prop34
280
     0
102
RTVSPost2010PropOp34
 70
     1
102
RTVSPost2010Prop35
280
     0
102
RTVSPost2010PropOp35
 70
     1
102
RTVSPost2010Prop36
280
     0
102
RTVSPost2010PropOp36
 70
     1
102
RTVSPost2010Prop37
 90
       50
102
RTVSPost2010PropOp37
 70
     1
102
RTVSPost2010Prop38
140
0.0
102
RTVSPost2010PropOp38
 70
     1
102
RTVSPost2010Prop39
140
1.0
102
RTVSPost2010PropOp39
 70
     1
102
RTVSPost2010Prop40
 90
        0
102
RTVSPost2010PropOp40
 70
     1
102
RTVSPost2010Prop41ColorIndex
 90
       18
102
RTVSPost2010Prop41ColorRGB
 90
        0
102
RTVSPost2010PropOp41
 70
     1
102
RTVSPost2010Prop42
 90
       50
102
RTVSPost2010PropOp42
 70
     1
102
RTVSPost2010Prop43
 90
        3
102
RTVSPost2010PropOp43
 70
     1
102
RTVSPost2010Prop44ColorIndex
 90
        5
102
RTVSPost2010Prop44ColorRGB
 90
      255
102
RTVSPost2010PropOp44
 70
     1
102
RTVSPost2010Prop45
280
     0
102
RTVSPost2010PropOp45
 70
     1
102
RTVSPost2010Prop46
 90
       50
102
RTVSPost2010PropOp46
 70
     1
102
RTVSPost2010Prop47
 90
       50
102
RTVSPost2010PropOp47
 70
     1
102
RTVSPost2010Prop48
 90
       50
102
RTVSPost2010PropOp48
 70
     1
102
RTVSPost2010Prop49
280
     0
102
RTVSPost2010PropOp49
 70
     1
102
RTVSPost2010Prop50
 90
       50
102
RTVSPost2010PropOp50
 70
     1
102
RTVSPost2010Prop51ColorIndex
 90
      256
102
RTVSPost2010Prop51ColorRGB
 90
-16777216
102
RTVSPost2010PropOp51
 70
     0
102
RTVSPost2010Prop52
140
1.0
102
RTVSPost2010PropOp52
 70
     0
102
RTVSPost2010Prop53
 90
        2
102
RTVSPost2010PropOp53
 70
     1
102
RTVSPost2010Prop54
  1
strokes_ogs.tif
102
RTVSPost2010PropOp54
 70
     1
102
RTVSPost2010Prop55
280
     0
102
RTVSPost2010PropOp55
 70
     1
102
RTVSPost2010Prop56
140
1.0
102
RTVSPost2010PropOp56
 70
     1
102
RTVSPost2010Prop57
140
1.0
102
RTVSPost2010PropOp57
 70
     1
  0
XRECORD
  5
661
102
{ACAD_REACTORS
330
660
102
}
330
660
100
AcDbXrecord
280
     1
102
RTVSPropertyOp0
 70
     1
102
RTVSPropertyOp1
 70
     1
102
RTVSPropertyOp2
 70
     1
102
RTVSPropertyOp3
 70
     1
102
RTVSPropertyOp4
 70
     1
102
RTVSPropertyOp5
 70
     1
102
RTVSPropertyOp6
 70
     1
102
RTVSPropertyOp7
 70
     1
102
RTVSPropertyOp8
 70
     1
102
RTVSPropertyOp9
 70
     1
102
RTVSPropertyOp10
 70
     1
102
RTVSPropertyOp11
 70
     1
102
RTVSPropertyOp12
 70
     1
102
RTVSPropertyOp13
 70
     1
102
RTVSPropertyOp14
 70
     1
102
RTVSPropertyOp15
 70
     1
102
RTVSPropertyOp16
 70
     1
102
RTVSPropertyOp17
 70
     1
102
RTVSPropertyOp18
 70
     1
102
RTVSPropertyOp19
 70
     1
102
RTVSPropertyOp20
 70
     1
102
RTVSPropertyOp21
 70
     1
102
RTVSPropertyOp22
 70
     1
102
RTVSPropertyOp23
 70
     1
102
RTVSPropertyOp24
 70
     1
102
RTVSPropertyOp25
 70
     1
102
RTVSPropertyOp26
 70
     1
102
RTVSPropertyOp27
 70
     1
102
RTVSPropertyOp28
 70
     1
102
RTVSPropertyOp29
 70
     1
102
RTVSPropertyOp30
 70
     1
102
RTVSPropertyOp31
 70
     1
102
RTVSPropertyOp32
 70
     1
102
RTVSPropertyOp33
 70
     1
102
RTVSPropertyOp34
 70
     1
102
RTVSPropertyOp35
 70
     1
102
RTVSPropertyOp36
 70
     1
102
RTVSPropertyOp37
 70
     1
102
RTVSPropertyOp38
 70
     1
102
RTVSPropertyOp39
 70
     1
102
RTVSPropertyOp40
 70
     1
102
RTVSPropertyOp41
 70
     1
102
RTVSPropertyOp42
 70
     1
102
RTVSPropertyOp43
 70
     1
102
RTVSPropertyOp44
 70
     1
102
RTVSPropertyOp45
 70
     1
102
RTVSPropertyOp46
 70
     1
102
RTVSPropertyOp47
 70
     1
102
RTVSPropertyOp48
 70
     1
102
RTVSPropertyOp49
 70
     1
102
RTVSPropertyOp50
 70
     1
102
RTVSPropertyOp51
 70
     0
102
RTVSPropertyOp52
 70
     0
102
RTVSPropertyOp53
 70
     1
102
RTVSPropertyOp54
 70
     1
102
RTVSPropertyOp55
 70
     1
102
RTVSPropertyOp56
 70
     1
102
RTVSPropertyOp57
 70
     1
102
RTVSPost2010Prop28
280
     0
102
RTVSPost2010PropOp28
 70
     1
102
RTVSPost2010Prop29
280
     1
102
RTVSPost2010PropOp29
 70
     1
102
RTVSPost2010Prop30
280
     1
102
RTVSPost2010PropOp30
 70
     1
102
RTVSPost2010Prop31
280
     0
102
RTVSPost2010PropOp31
 70
     1
102
RTVSPost2010Prop32
280
     0
102
RTVSPost2010PropOp32
 70
     1
102
RTVSPost2010Prop33
280
     0
102
RTVSPost2010PropOp33
 70
     1
102
RTVSPost2010Prop34
280
     0
102
RTVSPost2010PropOp34
 70
     1
102
RTVSPost2010Prop35
280
     0
102
RTVSPost2010PropOp35
 70
     1
102
RTVSPost2010Prop36
280
     0
102
RTVSPost2010PropOp36
 70
     1
102
RTVSPost2010Prop37
 90
       50
102
RTVSPost2010PropOp37
 70
     1
102
RTVSPost2010Prop38
140
0.0
102
RTVSPost2010PropOp38
 70
     1
102
RTVSPost2010Prop39
140
1.0
102
RTVSPost2010PropOp39
 70
     1
102
RTVSPost2010Prop40
 90
        0
102
RTVSPost2010PropOp40
 70
     1
102
RTVSPost2010Prop41ColorIndex
 90
       18
102
RTVSPost2010Prop41ColorRGB
 90
        0
102
RTVSPost2010PropOp41
 70
     1
102
RTVSPost2010Prop42
 90
       50
102
RTVSPost2010PropOp42
 70
     1
102
RTVSPost2010Prop43
 90
        3
102
RTVSPost2010PropOp43
 70
     1
102
RTVSPost2010Prop44ColorIndex
 90
        5
102
RTVSPost2010Prop44ColorRGB
 90
      255
102
RTVSPost2010PropOp44
 70
     1
102
RTVSPost2010Prop45
280
     0
102
RTVSPost2010PropOp45
 70
     1
102
RTVSPost2010Prop46
 90
       50
102
RTVSPost2010PropOp46
 70
     1
102
RTVSPost2010Prop47
 90
       50
102
RTVSPost2010PropOp47
 70
     1
102
RTVSPost2010Prop48
 90
       50
102
RTVSPost2010PropOp48
 70
     1
102
RTVSPost2010Prop49
280
     0
102
RTVSPost2010PropOp49
 70
     1
102
RTVSPost2010Prop50
 90
       50
102
RTVSPost2010PropOp50
 70
     1
102
RTVSPost2010Prop51ColorIndex
 90
      256
102
RTVSPost2010Prop51ColorRGB
 90
-16777216
102
RTVSPost2010PropOp51
 70
     0
102
RTVSPost2010Prop52
140
1.0
102
RTVSPost2010PropOp52
 70
     0
102
RTVSPost2010Prop53
 90
        2
102
RTVSPost2010PropOp53
 70
     1
102
RTVSPost2010Prop54
  1
strokes_ogs.tif
102
RTVSPost2010PropOp54
 70
     1
102
RTVSPost2010Prop55
280
     0
102
RTVSPost2010PropOp55
 70
     1
102
RTVSPost2010Prop56
140
1.0
102
RTVSPost2010PropOp56
 70
     1
102
RTVSPost2010Prop57
140
1.0
102
RTVSPost2010PropOp57
 70
     1
  0
XRECORD
  5
663
102
{ACAD_REACTORS
330
662
102
}
330
662
100
AcDbXrecord
280
     1
102
RTVSPropertyOp0
 70
     1
102
RTVSPropertyOp1
 70
     1
102
RTVSPropertyOp2
 70
     1
102
RTVSPropertyOp3
 70
     1
102
RTVSPropertyOp4
 70
     1
102
RTVSPropertyOp5
 70
     1
102
RTVSPropertyOp6
 70
     1
102
RTVSPropertyOp7
 70
     1
102
RTVSPropertyOp8
 70
     1
102
RTVSPropertyOp9
 70
     1
102
RTVSPropertyOp10
 70
     1
102
RTVSPropertyOp11
 70
     1
102
RTVSPropertyOp12
 70
     1
102
RTVSPropertyOp13
 70
     1
102
RTVSPropertyOp14
 70
     1
102
RTVSPropertyOp15
 70
     1
102
RTVSPropertyOp16
 70
     1
102
RTVSPropertyOp17
 70
     1
102
RTVSPropertyOp18
 70
     1
102
RTVSPropertyOp19
 70
     1
102
RTVSPropertyOp20
 70
     1
102
RTVSPropertyOp21
 70
     1
102
RTVSPropertyOp22
 70
     1
102
RTVSPropertyOp23
 70
     1
102
RTVSPropertyOp24
 70
     1
102
RTVSPropertyOp25
 70
     1
102
RTVSPropertyOp26
 70
     1
102
RTVSPropertyOp27
 70
     1
102
RTVSPropertyOp28
 70
     1
102
RTVSPropertyOp29
 70
     1
102
RTVSPropertyOp30
 70
     1
102
RTVSPropertyOp31
 70
     1
102
RTVSPropertyOp32
 70
     1
102
RTVSPropertyOp33
 70
     1
102
RTVSPropertyOp34
 70
     1
102
RTVSPropertyOp35
 70
     1
102
RTVSPropertyOp36
 70
     1
102
RTVSPropertyOp37
 70
     1
102
RTVSPropertyOp38
 70
     1
102
RTVSPropertyOp39
 70
     1
102
RTVSPropertyOp40
 70
     1
102
RTVSPropertyOp41
 70
     1
102
RTVSPropertyOp42
 70
     1
102
RTVSPropertyOp43
 70
     1
102
RTVSPropertyOp44
 70
     1
102
RTVSPropertyOp45
 70
     1
102
RTVSPropertyOp46
 70
     1
102
RTVSPropertyOp47
 70
     1
102
RTVSPropertyOp48
 70
     1
102
RTVSPropertyOp49
 70
     1
102
RTVSPropertyOp50
 70
     1
102
RTVSPropertyOp51
 70
     0
102
RTVSPropertyOp52
 70
     0
102
RTVSPropertyOp53
 70
     1
102
RTVSPropertyOp54
 70
     1
102
RTVSPropertyOp55
 70
     1
102
RTVSPropertyOp56
 70
     1
102
RTVSPropertyOp57
 70
     1
102
RTVSPost2010Prop28
280
     0
102
RTVSPost2010PropOp28
 70
     1
102
RTVSPost2010Prop29
280
     1
102
RTVSPost2010PropOp29
 70
     1
102
RTVSPost2010Prop30
280
     1
102
RTVSPost2010PropOp30
 70
     1
102
RTVSPost2010Prop31
280
     0
102
RTVSPost2010PropOp31
 70
     1
102
RTVSPost2010Prop32
280
     0
102
RTVSPost2010PropOp32
 70
     1
102
RTVSPost2010Prop33
280
     0
102
RTVSPost2010PropOp33
 70
     1
102
RTVSPost2010Prop34
280
     0
102
RTVSPost2010PropOp34
 70
     1
102
RTVSPost2010Prop35
280
     0
102
RTVSPost2010PropOp35
 70
     1
102
RTVSPost2010Prop36
280
     0
102
RTVSPost2010PropOp36
 70
     1
102
RTVSPost2010Prop37
 90
       50
102
RTVSPost2010PropOp37
 70
     1
102
RTVSPost2010Prop38
140
0.0
102
RTVSPost2010PropOp38
 70
     1
102
RTVSPost2010Prop39
140
1.0
102
RTVSPost2010PropOp39
 70
     1
102
RTVSPost2010Prop40
 90
        0
102
RTVSPost2010PropOp40
 70
     1
102
RTVSPost2010Prop41ColorIndex
 90
       18
102
RTVSPost2010Prop41ColorRGB
 90
        0
102
RTVSPost2010PropOp41
 70
     1
102
RTVSPost2010Prop42
 90
       50
102
RTVSPost2010PropOp42
 70
     1
102
RTVSPost2010Prop43
 90
        3
102
RTVSPost2010PropOp43
 70
     1
102
RTVSPost2010Prop44ColorIndex
 90
        5
102
RTVSPost2010Prop44ColorRGB
 90
      255
102
RTVSPost2010PropOp44
 70
     1
102
RTVSPost2010Prop45
280
     0
102
RTVSPost2010PropOp45
 70
     1
102
RTVSPost2010Prop46
 90
       50
102
RTVSPost2010PropOp46
 70
     1
102
RTVSPost2010Prop47
 90
       50
102
RTVSPost2010PropOp47
 70
     1
102
RTVSPost2010Prop48
 90
       50
102
RTVSPost2010PropOp48
 70
     1
102
RTVSPost2010Prop49
280
     0
102
RTVSPost2010PropOp49
 70
     1
102
RTVSPost2010Prop50
 90
       50
102
RTVSPost2010PropOp50
 70
     1
102
RTVSPost2010Prop51ColorIndex
 90
      256
102
RTVSPost2010Prop51ColorRGB
 90
-16777216
102
RTVSPost2010PropOp51
 70
     0
102
RTVSPost2010Prop52
140
1.0
102
RTVSPost2010PropOp52
 70
     0
102
RTVSPost2010Prop53
 90
        2
102
RTVSPost2010PropOp53
 70
     1
102
RTVSPost2010Prop54
  1
strokes_ogs.tif
102
RTVSPost2010PropOp54
 70
     1
102
RTVSPost2010Prop55
280
     0
102
RTVSPost2010PropOp55
 70
     1
102
RTVSPost2010Prop56
140
1.0
102
RTVSPost2010PropOp56
 70
     1
102
RTVSPost2010Prop57
140
1.0
102
RTVSPost2010PropOp57
 70
     1
  0
XRECORD
  5
665
102
{ACAD_REACTORS
330
664
102
}
330
664
100
AcDbXrecord
280
     1
102
RTVSPropertyOp0
 70
     1
102
RTVSPropertyOp1
 70
     1
102
RTVSPropertyOp2
 70
     1
102
RTVSPropertyOp3
 70
     1
102
RTVSPropertyOp4
 70
     1
102
RTVSPropertyOp5
 70
     1
102
RTVSPropertyOp6
 70
     1
102
RTVSPropertyOp7
 70
     1
102
RTVSPropertyOp8
 70
     1
102
RTVSPropertyOp9
 70
     1
102
RTVSPropertyOp10
 70
     1
102
RTVSPropertyOp11
 70
     1
102
RTVSPropertyOp12
 70
     1
102
RTVSPropertyOp13
 70
     1
102
RTVSPropertyOp14
 70
     1
102
RTVSPropertyOp15
 70
     1
102
RTVSPropertyOp16
 70
     1
102
RTVSPropertyOp17
 70
     1
102
RTVSPropertyOp18
 70
     1
102
RTVSPropertyOp19
 70
     1
102
RTVSPropertyOp20
 70
     1
102
RTVSPropertyOp21
 70
     1
102
RTVSPropertyOp22
 70
     1
102
RTVSPropertyOp23
 70
     1
102
RTVSPropertyOp24
 70
     1
102
RTVSPropertyOp25
 70
     1
102
RTVSPropertyOp26
 70
     1
102
RTVSPropertyOp27
 70
     1
102
RTVSPropertyOp28
 70
     1
102
RTVSPropertyOp29
 70
     1
102
RTVSPropertyOp30
 70
     1
102
RTVSPropertyOp31
 70
     1
102
RTVSPropertyOp32
 70
     1
102
RTVSPropertyOp33
 70
     1
102
RTVSPropertyOp34
 70
     1
102
RTVSPropertyOp35
 70
     1
102
RTVSPropertyOp36
 70
     1
102
RTVSPropertyOp37
 70
     1
102
RTVSPropertyOp38
 70
     1
102
RTVSPropertyOp39
 70
     1
102
RTVSPropertyOp40
 70
     1
102
RTVSPropertyOp41
 70
     1
102
RTVSPropertyOp42
 70
     1
102
RTVSPropertyOp43
 70
     1
102
RTVSPropertyOp44
 70
     1
102
RTVSPropertyOp45
 70
     1
102
RTVSPropertyOp46
 70
     1
102
RTVSPropertyOp47
 70
     1
102
RTVSPropertyOp48
 70
     1
102
RTVSPropertyOp49
 70
     1
102
RTVSPropertyOp50
 70
     1
102
RTVSPropertyOp51
 70
     0
102
RTVSPropertyOp52
 70
     0
102
RTVSPropertyOp53
 70
     1
102
RTVSPropertyOp54
 70
     1
102
RTVSPropertyOp55
 70
     1
102
RTVSPropertyOp56
 70
     1
102
RTVSPropertyOp57
 70
     1
102
RTVSPost2010Prop28
280
     0
102
RTVSPost2010PropOp28
 70
     1
102
RTVSPost2010Prop29
280
     1
102
RTVSPost2010PropOp29
 70
     1
102
RTVSPost2010Prop30
280
     1
102
RTVSPost2010PropOp30
 70
     1
102
RTVSPost2010Prop31
280
     0
102
RTVSPost2010PropOp31
 70
     1
102
RTVSPost2010Prop32
280
     0
102
RTVSPost2010PropOp32
 70
     1
102
RTVSPost2010Prop33
280
     0
102
RTVSPost2010PropOp33
 70
     1
102
RTVSPost2010Prop34
280
     0
102
RTVSPost2010PropOp34
 70
     1
102
RTVSPost2010Prop35
280
     0
102
RTVSPost2010PropOp35
 70
     1
102
RTVSPost2010Prop36
280
     0
102
RTVSPost2010PropOp36
 70
     1
102
RTVSPost2010Prop37
 90
       50
102
RTVSPost2010PropOp37
 70
     1
102
RTVSPost2010Prop38
140
0.0
102
RTVSPost2010PropOp38
 70
     1
102
RTVSPost2010Prop39
140
1.0
102
RTVSPost2010PropOp39
 70
     1
102
RTVSPost2010Prop40
 90
        0
102
RTVSPost2010PropOp40
 70
     1
102
RTVSPost2010Prop41ColorIndex
 90
       18
102
RTVSPost2010Prop41ColorRGB
 90
        0
102
RTVSPost2010PropOp41
 70
     1
102
RTVSPost2010Prop42
 90
       50
102
RTVSPost2010PropOp42
 70
     1
102
RTVSPost2010Prop43
 90
        3
102
RTVSPost2010PropOp43
 70
     1
102
RTVSPost2010Prop44ColorIndex
 90
        5
102
RTVSPost2010Prop44ColorRGB
 90
      255
102
RTVSPost2010PropOp44
 70
     1
102
RTVSPost2010Prop45
280
     0
102
RTVSPost2010PropOp45
 70
     1
102
RTVSPost2010Prop46
 90
       50
102
RTVSPost2010PropOp46
 70
     1
102
RTVSPost2010Prop47
 90
       50
102
RTVSPost2010PropOp47
 70
     1
102
RTVSPost2010Prop48
 90
       50
102
RTVSPost2010PropOp48
 70
     1
102
RTVSPost2010Prop49
280
     0
102
RTVSPost2010PropOp49
 70
     1
102
RTVSPost2010Prop50
 90
       50
102
RTVSPost2010PropOp50
 70
     1
102
RTVSPost2010Prop51ColorIndex
 90
      256
102
RTVSPost2010Prop51ColorRGB
 90
-16777216
102
RTVSPost2010PropOp51
 70
     0
102
RTVSPost2010Prop52
140
1.0
102
RTVSPost2010PropOp52
 70
     0
102
RTVSPost2010Prop53
 90
        2
102
RTVSPost2010PropOp53
 70
     1
102
RTVSPost2010Prop54
  1
strokes_ogs.tif
102
RTVSPost2010PropOp54
 70
     1
102
RTVSPost2010Prop55
280
     0
102
RTVSPost2010PropOp55
 70
     1
102
RTVSPost2010Prop56
140
1.0
102
RTVSPost2010PropOp56
 70
     1
102
RTVSPost2010Prop57
140
1.0
102
RTVSPost2010PropOp57
 70
     1
  0
XRECORD
  5
667
102
{ACAD_REACTORS
330
666
102
}
330
666
100
AcDbXrecord
280
     1
102
RTVSPropertyOp0
 70
     1
102
RTVSPropertyOp1
 70
     1
102
RTVSPropertyOp2
 70
     1
102
RTVSPropertyOp3
 70
     1
102
RTVSPropertyOp4
 70
     1
102
RTVSPropertyOp5
 70
     1
102
RTVSPropertyOp6
 70
     1
102
RTVSPropertyOp7
 70
     1
102
RTVSPropertyOp8
 70
     1
102
RTVSPropertyOp9
 70
     1
102
RTVSPropertyOp10
 70
     1
102
RTVSPropertyOp11
 70
     1
102
RTVSPropertyOp12
 70
     1
102
RTVSPropertyOp13
 70
     1
102
RTVSPropertyOp14
 70
     1
102
RTVSPropertyOp15
 70
     1
102
RTVSPropertyOp16
 70
     1
102
RTVSPropertyOp17
 70
     1
102
RTVSPropertyOp18
 70
     1
102
RTVSPropertyOp19
 70
     1
102
RTVSPropertyOp20
 70
     1
102
RTVSPropertyOp21
 70
     1
102
RTVSPropertyOp22
 70
     1
102
RTVSPropertyOp23
 70
     1
102
RTVSPropertyOp24
 70
     1
102
RTVSPropertyOp25
 70
     1
102
RTVSPropertyOp26
 70
     1
102
RTVSPropertyOp27
 70
     1
102
RTVSPropertyOp28
 70
     1
102
RTVSPropertyOp29
 70
     1
102
RTVSPropertyOp30
 70
     1
102
RTVSPropertyOp31
 70
     1
102
RTVSPropertyOp32
 70
     1
102
RTVSPropertyOp33
 70
     1
102
RTVSPropertyOp34
 70
     1
102
RTVSPropertyOp35
 70
     1
102
RTVSPropertyOp36
 70
     1
102
RTVSPropertyOp37
 70
     1
102
RTVSPropertyOp38
 70
     1
102
RTVSPropertyOp39
 70
     1
102
RTVSPropertyOp40
 70
     1
102
RTVSPropertyOp41
 70
     1
102
RTVSPropertyOp42
 70
     1
102
RTVSPropertyOp43
 70
     1
102
RTVSPropertyOp44
 70
     1
102
RTVSPropertyOp45
 70
     1
102
RTVSPropertyOp46
 70
     1
102
RTVSPropertyOp47
 70
     1
102
RTVSPropertyOp48
 70
     1
102
RTVSPropertyOp49
 70
     1
102
RTVSPropertyOp50
 70
     1
102
RTVSPropertyOp51
 70
     0
102
RTVSPropertyOp52
 70
     0
102
RTVSPropertyOp53
 70
     1
102
RTVSPropertyOp54
 70
     1
102
RTVSPropertyOp55
 70
     1
102
RTVSPropertyOp56
 70
     1
102
RTVSPropertyOp57
 70
     1
102
RTVSPost2010Prop28
280
     0
102
RTVSPost2010PropOp28
 70
     1
102
RTVSPost2010Prop29
280
     1
102
RTVSPost2010PropOp29
 70
     1
102
RTVSPost2010Prop30
280
     1
102
RTVSPost2010PropOp30
 70
     1
102
RTVSPost2010Prop31
280
     0
102
RTVSPost2010PropOp31
 70
     1
102
RTVSPost2010Prop32
280
     0
102
RTVSPost2010PropOp32
 70
     1
102
RTVSPost2010Prop33
280
     0
102
RTVSPost2010PropOp33
 70
     1
102
RTVSPost2010Prop34
280
     0
102
RTVSPost2010PropOp34
 70
     1
102
RTVSPost2010Prop35
280
     0
102
RTVSPost2010PropOp35
 70
     1
102
RTVSPost2010Prop36
280
     0
102
RTVSPost2010PropOp36
 70
     1
102
RTVSPost2010Prop37
 90
       50
102
RTVSPost2010PropOp37
 70
     1
102
RTVSPost2010Prop38
140
0.0
102
RTVSPost2010PropOp38
 70
     1
102
RTVSPost2010Prop39
140
1.0
102
RTVSPost2010PropOp39
 70
     1
102
RTVSPost2010Prop40
 90
        0
102
RTVSPost2010PropOp40
 70
     1
102
RTVSPost2010Prop41ColorIndex
 90
       18
102
RTVSPost2010Prop41ColorRGB
 90
        0
102
RTVSPost2010PropOp41
 70
     1
102
RTVSPost2010Prop42
 90
       50
102
RTVSPost2010PropOp42
 70
     1
102
RTVSPost2010Prop43
 90
        3
102
RTVSPost2010PropOp43
 70
     1
102
RTVSPost2010Prop44ColorIndex
 90
        5
102
RTVSPost2010Prop44ColorRGB
 90
      255
102
RTVSPost2010PropOp44
 70
     1
102
RTVSPost2010Prop45
280
     0
102
RTVSPost2010PropOp45
 70
     1
102
RTVSPost2010Prop46
 90
       50
102
RTVSPost2010PropOp46
 70
     1
102
RTVSPost2010Prop47
 90
       50
102
RTVSPost2010PropOp47
 70
     1
102
RTVSPost2010Prop48
 90
       50
102
RTVSPost2010PropOp48
 70
     1
102
RTVSPost2010Prop49
280
     0
102
RTVSPost2010PropOp49
 70
     1
102
RTVSPost2010Prop50
 90
       50
102
RTVSPost2010PropOp50
 70
     1
102
RTVSPost2010Prop51ColorIndex
 90
      256
102
RTVSPost2010Prop51ColorRGB
 90
-16777216
102
RTVSPost2010PropOp51
 70
     0
102
RTVSPost2010Prop52
140
1.0
102
RTVSPost2010PropOp52
 70
     0
102
RTVSPost2010Prop53
 90
        2
102
RTVSPost2010PropOp53
 70
     1
102
RTVSPost2010Prop54
  1
strokes_ogs.tif
102
RTVSPost2010PropOp54
 70
     1
102
RTVSPost2010Prop55
280
     0
102
RTVSPost2010PropOp55
 70
     1
102
RTVSPost2010Prop56
140
1.0
102
RTVSPost2010PropOp56
 70
     1
102
RTVSPost2010Prop57
140
1.0
102
RTVSPost2010PropOp57
 70
     1
  0
XRECORD
  5
669
102
{ACAD_REACTORS
330
668
102
}
330
668
100
AcDbXrecord
280
     1
102
RTVSPropertyOp0
 70
     1
102
RTVSPropertyOp1
 70
     1
102
RTVSPropertyOp2
 70
     1
102
RTVSPropertyOp3
 70
     1
102
RTVSPropertyOp4
 70
     1
102
RTVSPropertyOp5
 70
     1
102
RTVSPropertyOp6
 70
     1
102
RTVSPropertyOp7
 70
     1
102
RTVSPropertyOp8
 70
     1
102
RTVSPropertyOp9
 70
     1
102
RTVSPropertyOp10
 70
     1
102
RTVSPropertyOp11
 70
     1
102
RTVSPropertyOp12
 70
     1
102
RTVSPropertyOp13
 70
     1
102
RTVSPropertyOp14
 70
     1
102
RTVSPropertyOp15
 70
     1
102
RTVSPropertyOp16
 70
     1
102
RTVSPropertyOp17
 70
     1
102
RTVSPropertyOp18
 70
     1
102
RTVSPropertyOp19
 70
     1
102
RTVSPropertyOp20
 70
     1
102
RTVSPropertyOp21
 70
     1
102
RTVSPropertyOp22
 70
     1
102
RTVSPropertyOp23
 70
     1
102
RTVSPropertyOp24
 70
     1
102
RTVSPropertyOp25
 70
     1
102
RTVSPropertyOp26
 70
     1
102
RTVSPropertyOp27
 70
     1
102
RTVSPropertyOp28
 70
     1
102
RTVSPropertyOp29
 70
     1
102
RTVSPropertyOp30
 70
     1
102
RTVSPropertyOp31
 70
     1
102
RTVSPropertyOp32
 70
     1
102
RTVSPropertyOp33
 70
     1
102
RTVSPropertyOp34
 70
     1
102
RTVSPropertyOp35
 70
     1
102
RTVSPropertyOp36
 70
     1
102
RTVSPropertyOp37
 70
     1
102
RTVSPropertyOp38
 70
     1
102
RTVSPropertyOp39
 70
     1
102
RTVSPropertyOp40
 70
     1
102
RTVSPropertyOp41
 70
     1
102
RTVSPropertyOp42
 70
     1
102
RTVSPropertyOp43
 70
     1
102
RTVSPropertyOp44
 70
     1
102
RTVSPropertyOp45
 70
     1
102
RTVSPropertyOp46
 70
     1
102
RTVSPropertyOp47
 70
     1
102
RTVSPropertyOp48
 70
     1
102
RTVSPropertyOp49
 70
     1
102
RTVSPropertyOp50
 70
     1
102
RTVSPropertyOp51
 70
     0
102
RTVSPropertyOp52
 70
     0
102
RTVSPropertyOp53
 70
     1
102
RTVSPropertyOp54
 70
     1
102
RTVSPropertyOp55
 70
     1
102
RTVSPropertyOp56
 70
     1
102
RTVSPropertyOp57
 70
     1
102
RTVSPost2010Prop28
280
     0
102
RTVSPost2010PropOp28
 70
     1
102
RTVSPost2010Prop29
280
     1
102
RTVSPost2010PropOp29
 70
     1
102
RTVSPost2010Prop30
280
     1
102
RTVSPost2010PropOp30
 70
     1
102
RTVSPost2010Prop31
280
     0
102
RTVSPost2010PropOp31
 70
     1
102
RTVSPost2010Prop32
280
     0
102
RTVSPost2010PropOp32
 70
     1
102
RTVSPost2010Prop33
280
     0
102
RTVSPost2010PropOp33
 70
     1
102
RTVSPost2010Prop34
280
     0
102
RTVSPost2010PropOp34
 70
     1
102
RTVSPost2010Prop35
280
     0
102
RTVSPost2010PropOp35
 70
     1
102
RTVSPost2010Prop36
280
     0
102
RTVSPost2010PropOp36
 70
     1
102
RTVSPost2010Prop37
 90
       50
102
RTVSPost2010PropOp37
 70
     1
102
RTVSPost2010Prop38
140
0.0
102
RTVSPost2010PropOp38
 70
     1
102
RTVSPost2010Prop39
140
1.0
102
RTVSPost2010PropOp39
 70
     1
102
RTVSPost2010Prop40
 90
        0
102
RTVSPost2010PropOp40
 70
     1
102
RTVSPost2010Prop41ColorIndex
 90
       18
102
RTVSPost2010Prop41ColorRGB
 90
        0
102
RTVSPost2010PropOp41
 70
     1
102
RTVSPost2010Prop42
 90
       50
102
RTVSPost2010PropOp42
 70
     1
102
RTVSPost2010Prop43
 90
        3
102
RTVSPost2010PropOp43
 70
     1
102
RTVSPost2010Prop44ColorIndex
 90
        5
102
RTVSPost2010Prop44ColorRGB
 90
      255
102
RTVSPost2010PropOp44
 70
     1
102
RTVSPost2010Prop45
280
     0
102
RTVSPost2010PropOp45
 70
     1
102
RTVSPost2010Prop46
 90
       50
102
RTVSPost2010PropOp46
 70
     1
102
RTVSPost2010Prop47
 90
       50
102
RTVSPost2010PropOp47
 70
     1
102
RTVSPost2010Prop48
 90
       50
102
RTVSPost2010PropOp48
 70
     1
102
RTVSPost2010Prop49
280
     0
102
RTVSPost2010PropOp49
 70
     1
102
RTVSPost2010Prop50
 90
       50
102
RTVSPost2010PropOp50
 70
     1
102
RTVSPost2010Prop51ColorIndex
 90
      256
102
RTVSPost2010Prop51ColorRGB
 90
-16777216
102
RTVSPost2010PropOp51
 70
     0
102
RTVSPost2010Prop52
140
1.0
102
RTVSPost2010PropOp52
 70
     0
102
RTVSPost2010Prop53
 90
        2
102
RTVSPost2010PropOp53
 70
     1
102
RTVSPost2010Prop54
  1
strokes_ogs.tif
102
RTVSPost2010PropOp54
 70
     1
102
RTVSPost2010Prop55
280
     0
102
RTVSPost2010PropOp55
 70
     1
102
RTVSPost2010Prop56
140
1.0
102
RTVSPost2010PropOp56
 70
     1
102
RTVSPost2010Prop57
140
1.0
102
RTVSPost2010PropOp57
 70
     1
  0
XRECORD
  5
66B
102
{ACAD_REACTORS
330
66A
102
}
330
66A
100
AcDbXrecord
280
     1
102
RTVSPropertyOp0
 70
     1
102
RTVSPropertyOp1
 70
     1
102
RTVSPropertyOp2
 70
     1
102
RTVSPropertyOp3
 70
     1
102
RTVSPropertyOp4
 70
     1
102
RTVSPropertyOp5
 70
     1
102
RTVSPropertyOp6
 70
     1
102
RTVSPropertyOp7
 70
     1
102
RTVSPropertyOp8
 70
     1
102
RTVSPropertyOp9
 70
     1
102
RTVSPropertyOp10
 70
     1
102
RTVSPropertyOp11
 70
     1
102
RTVSPropertyOp12
 70
     1
102
RTVSPropertyOp13
 70
     1
102
RTVSPropertyOp14
 70
     1
102
RTVSPropertyOp15
 70
     1
102
RTVSPropertyOp16
 70
     1
102
RTVSPropertyOp17
 70
     1
102
RTVSPropertyOp18
 70
     1
102
RTVSPropertyOp19
 70
     1
102
RTVSPropertyOp20
 70
     1
102
RTVSPropertyOp21
 70
     1
102
RTVSPropertyOp22
 70
     1
102
RTVSPropertyOp23
 70
     1
102
RTVSPropertyOp24
 70
     1
102
RTVSPropertyOp25
 70
     1
102
RTVSPropertyOp26
 70
     1
102
RTVSPropertyOp27
 70
     1
102
RTVSPropertyOp28
 70
     1
102
RTVSPropertyOp29
 70
     1
102
RTVSPropertyOp30
 70
     1
102
RTVSPropertyOp31
 70
     1
102
RTVSPropertyOp32
 70
     1
102
RTVSPropertyOp33
 70
     1
102
RTVSPropertyOp34
 70
     1
102
RTVSPropertyOp35
 70
     1
102
RTVSPropertyOp36
 70
     1
102
RTVSPropertyOp37
 70
     1
102
RTVSPropertyOp38
 70
     1
102
RTVSPropertyOp39
 70
     1
102
RTVSPropertyOp40
 70
     1
102
RTVSPropertyOp41
 70
     1
102
RTVSPropertyOp42
 70
     1
102
RTVSPropertyOp43
 70
     1
102
RTVSPropertyOp44
 70
     1
102
RTVSPropertyOp45
 70
     1
102
RTVSPropertyOp46
 70
     1
102
RTVSPropertyOp47
 70
     1
102
RTVSPropertyOp48
 70
     1
102
RTVSPropertyOp49
 70
     1
102
RTVSPropertyOp50
 70
     1
102
RTVSPropertyOp51
 70
     0
102
RTVSPropertyOp52
 70
     0
102
RTVSPropertyOp53
 70
     1
102
RTVSPropertyOp54
 70
     1
102
RTVSPropertyOp55
 70
     1
102
RTVSPropertyOp56
 70
     1
102
RTVSPropertyOp57
 70
     1
102
RTVSPost2010Prop28
280
     0
102
RTVSPost2010PropOp28
 70
     1
102
RTVSPost2010Prop29
280
     1
102
RTVSPost2010PropOp29
 70
     1
102
RTVSPost2010Prop30
280
     1
102
RTVSPost2010PropOp30
 70
     1
102
RTVSPost2010Prop31
280
     0
102
RTVSPost2010PropOp31
 70
     1
102
RTVSPost2010Prop32
280
     0
102
RTVSPost2010PropOp32
 70
     1
102
RTVSPost2010Prop33
280
     0
102
RTVSPost2010PropOp33
 70
     1
102
RTVSPost2010Prop34
280
     0
102
RTVSPost2010PropOp34
 70
     1
102
RTVSPost2010Prop35
280
     0
102
RTVSPost2010PropOp35
 70
     1
102
RTVSPost2010Prop36
280
     0
102
RTVSPost2010PropOp36
 70
     1
102
RTVSPost2010Prop37
 90
       50
102
RTVSPost2010PropOp37
 70
     1
102
RTVSPost2010Prop38
140
0.0
102
RTVSPost2010PropOp38
 70
     1
102
RTVSPost2010Prop39
140
1.0
102
RTVSPost2010PropOp39
 70
     1
102
RTVSPost2010Prop40
 90
        0
102
RTVSPost2010PropOp40
 70
     1
102
RTVSPost2010Prop41ColorIndex
 90
       18
102
RTVSPost2010Prop41ColorRGB
 90
        0
102
RTVSPost2010PropOp41
 70
     1
102
RTVSPost2010Prop42
 90
       50
102
RTVSPost2010PropOp42
 70
     1
102
RTVSPost2010Prop43
 90
        3
102
RTVSPost2010PropOp43
 70
     1
102
RTVSPost2010Prop44ColorIndex
 90
        5
102
RTVSPost2010Prop44ColorRGB
 90
      255
102
RTVSPost2010PropOp44
 70
     1
102
RTVSPost2010Prop45
280
     0
102
RTVSPost2010PropOp45
 70
     1
102
RTVSPost2010Prop46
 90
       50
102
RTVSPost2010PropOp46
 70
     1
102
RTVSPost2010Prop47
 90
       50
102
RTVSPost2010PropOp47
 70
     1
102
RTVSPost2010Prop48
 90
       50
102
RTVSPost2010PropOp48
 70
     1
102
RTVSPost2010Prop49
280
     0
102
RTVSPost2010PropOp49
 70
     1
102
RTVSPost2010Prop50
 90
       50
102
RTVSPost2010PropOp50
 70
     1
102
RTVSPost2010Prop51ColorIndex
 90
      256
102
RTVSPost2010Prop51ColorRGB
 90
-16777216
102
RTVSPost2010PropOp51
 70
     0
102
RTVSPost2010Prop52
140
1.0
102
RTVSPost2010PropOp52
 70
     0
102
RTVSPost2010Prop53
 90
        2
102
RTVSPost2010PropOp53
 70
     1
102
RTVSPost2010Prop54
  1
strokes_ogs.tif
102
RTVSPost2010PropOp54
 70
     1
102
RTVSPost2010Prop55
280
     0
102
RTVSPost2010PropOp55
 70
     1
102
RTVSPost2010Prop56
140
1.0
102
RTVSPost2010PropOp56
 70
     1
102
RTVSPost2010Prop57
140
1.0
102
RTVSPost2010PropOp57
 70
     1
  0
XRECORD
  5
66D
102
{ACAD_REACTORS
330
66C
102
}
330
66C
100
AcDbXrecord
280
     1
102
RTVSPropertyOp0
 70
     1
102
RTVSPropertyOp1
 70
     1
102
RTVSPropertyOp2
 70
     1
102
RTVSPropertyOp3
 70
     1
102
RTVSPropertyOp4
 70
     1
102
RTVSPropertyOp5
 70
     1
102
RTVSPropertyOp6
 70
     1
102
RTVSPropertyOp7
 70
     1
102
RTVSPropertyOp8
 70
     1
102
RTVSPropertyOp9
 70
     1
102
RTVSPropertyOp10
 70
     1
102
RTVSPropertyOp11
 70
     1
102
RTVSPropertyOp12
 70
     1
102
RTVSPropertyOp13
 70
     1
102
RTVSPropertyOp14
 70
     1
102
RTVSPropertyOp15
 70
     1
102
RTVSPropertyOp16
 70
     1
102
RTVSPropertyOp17
 70
     1
102
RTVSPropertyOp18
 70
     1
102
RTVSPropertyOp19
 70
     1
102
RTVSPropertyOp20
 70
     1
102
RTVSPropertyOp21
 70
     1
102
RTVSPropertyOp22
 70
     1
102
RTVSPropertyOp23
 70
     1
102
RTVSPropertyOp24
 70
     1
102
RTVSPropertyOp25
 70
     1
102
RTVSPropertyOp26
 70
     1
102
RTVSPropertyOp27
 70
     1
102
RTVSPropertyOp28
 70
     1
102
RTVSPropertyOp29
 70
     1
102
RTVSPropertyOp30
 70
     1
102
RTVSPropertyOp31
 70
     1
102
RTVSPropertyOp32
 70
     1
102
RTVSPropertyOp33
 70
     1
102
RTVSPropertyOp34
 70
     1
102
RTVSPropertyOp35
 70
     1
102
RTVSPropertyOp36
 70
     1
102
RTVSPropertyOp37
 70
     1
102
RTVSPropertyOp38
 70
     1
102
RTVSPropertyOp39
 70
     1
102
RTVSPropertyOp40
 70
     1
102
RTVSPropertyOp41
 70
     1
102
RTVSPropertyOp42
 70
     1
102
RTVSPropertyOp43
 70
     1
102
RTVSPropertyOp44
 70
     1
102
RTVSPropertyOp45
 70
     1
102
RTVSPropertyOp46
 70
     1
102
RTVSPropertyOp47
 70
     1
102
RTVSPropertyOp48
 70
     1
102
RTVSPropertyOp49
 70
     1
102
RTVSPropertyOp50
 70
     1
102
RTVSPropertyOp51
 70
     0
102
RTVSPropertyOp52
 70
     0
102
RTVSPropertyOp53
 70
     1
102
RTVSPropertyOp54
 70
     1
102
RTVSPropertyOp55
 70
     1
102
RTVSPropertyOp56
 70
     1
102
RTVSPropertyOp57
 70
     1
102
RTVSPost2010Prop28
280
     0
102
RTVSPost2010PropOp28
 70
     1
102
RTVSPost2010Prop29
280
     1
102
RTVSPost2010PropOp29
 70
     1
102
RTVSPost2010Prop30
280
     1
102
RTVSPost2010PropOp30
 70
     1
102
RTVSPost2010Prop31
280
     0
102
RTVSPost2010PropOp31
 70
     1
102
RTVSPost2010Prop32
280
     0
102
RTVSPost2010PropOp32
 70
     1
102
RTVSPost2010Prop33
280
     0
102
RTVSPost2010PropOp33
 70
     1
102
RTVSPost2010Prop34
280
     0
102
RTVSPost2010PropOp34
 70
     1
102
RTVSPost2010Prop35
280
     0
102
RTVSPost2010PropOp35
 70
     1
102
RTVSPost2010Prop36
280
     0
102
RTVSPost2010PropOp36
 70
     1
102
RTVSPost2010Prop37
 90
       50
102
RTVSPost2010PropOp37
 70
     1
102
RTVSPost2010Prop38
140
0.0
102
RTVSPost2010PropOp38
 70
     1
102
RTVSPost2010Prop39
140
1.0
102
RTVSPost2010PropOp39
 70
     1
102
RTVSPost2010Prop40
 90
        0
102
RTVSPost2010PropOp40
 70
     1
102
RTVSPost2010Prop41ColorIndex
 90
       18
102
RTVSPost2010Prop41ColorRGB
 90
        0
102
RTVSPost2010PropOp41
 70
     1
102
RTVSPost2010Prop42
 90
       50
102
RTVSPost2010PropOp42
 70
     1
102
RTVSPost2010Prop43
 90
        3
102
RTVSPost2010PropOp43
 70
     1
102
RTVSPost2010Prop44ColorIndex
 90
        5
102
RTVSPost2010Prop44ColorRGB
 90
      255
102
RTVSPost2010PropOp44
 70
     1
102
RTVSPost2010Prop45
280
     0
102
RTVSPost2010PropOp45
 70
     1
102
RTVSPost2010Prop46
 90
       50
102
RTVSPost2010PropOp46
 70
     1
102
RTVSPost2010Prop47
 90
       50
102
RTVSPost2010PropOp47
 70
     1
102
RTVSPost2010Prop48
 90
       50
102
RTVSPost2010PropOp48
 70
     1
102
RTVSPost2010Prop49
280
     0
102
RTVSPost2010PropOp49
 70
     1
102
RTVSPost2010Prop50
 90
       50
102
RTVSPost2010PropOp50
 70
     1
102
RTVSPost2010Prop51ColorIndex
 90
      256
102
RTVSPost2010Prop51ColorRGB
 90
-16777216
102
RTVSPost2010PropOp51
 70
     0
102
RTVSPost2010Prop52
140
1.0
102
RTVSPost2010PropOp52
 70
     0
102
RTVSPost2010Prop53
 90
        2
102
RTVSPost2010PropOp53
 70
     1
102
RTVSPost2010Prop54
  1
strokes_ogs.tif
102
RTVSPost2010PropOp54
 70
     1
102
RTVSPost2010Prop55
280
     0
102
RTVSPost2010PropOp55
 70
     1
102
RTVSPost2010Prop56
140
1.0
102
RTVSPost2010PropOp56
 70
     1
102
RTVSPost2010Prop57
140
1.0
102
RTVSPost2010PropOp57
 70
     1
  0
XRECORD
  5
66F
102
{ACAD_REACTORS
330
66E
102
}
330
66E
100
AcDbXrecord
280
     1
102
RTVSPropertyOp0
 70
     1
102
RTVSPropertyOp1
 70
     1
102
RTVSPropertyOp2
 70
     1
102
RTVSPropertyOp3
 70
     1
102
RTVSPropertyOp4
 70
     1
102
RTVSPropertyOp5
 70
     1
102
RTVSPropertyOp6
 70
     1
102
RTVSPropertyOp7
 70
     1
102
RTVSPropertyOp8
 70
     1
102
RTVSPropertyOp9
 70
     1
102
RTVSPropertyOp10
 70
     1
102
RTVSPropertyOp11
 70
     1
102
RTVSPropertyOp12
 70
     1
102
RTVSPropertyOp13
 70
     1
102
RTVSPropertyOp14
 70
     1
102
RTVSPropertyOp15
 70
     1
102
RTVSPropertyOp16
 70
     1
102
RTVSPropertyOp17
 70
     1
102
RTVSPropertyOp18
 70
     1
102
RTVSPropertyOp19
 70
     1
102
RTVSPropertyOp20
 70
     1
102
RTVSPropertyOp21
 70
     1
102
RTVSPropertyOp22
 70
     1
102
RTVSPropertyOp23
 70
     1
102
RTVSPropertyOp24
 70
     1
102
RTVSPropertyOp25
 70
     1
102
RTVSPropertyOp26
 70
     1
102
RTVSPropertyOp27
 70
     1
102
RTVSPropertyOp28
 70
     1
102
RTVSPropertyOp29
 70
     1
102
RTVSPropertyOp30
 70
     1
102
RTVSPropertyOp31
 70
     1
102
RTVSPropertyOp32
 70
     1
102
RTVSPropertyOp33
 70
     1
102
RTVSPropertyOp34
 70
     1
102
RTVSPropertyOp35
 70
     1
102
RTVSPropertyOp36
 70
     1
102
RTVSPropertyOp37
 70
     1
102
RTVSPropertyOp38
 70
     1
102
RTVSPropertyOp39
 70
     1
102
RTVSPropertyOp40
 70
     1
102
RTVSPropertyOp41
 70
     1
102
RTVSPropertyOp42
 70
     1
102
RTVSPropertyOp43
 70
     1
102
RTVSPropertyOp44
 70
     1
102
RTVSPropertyOp45
 70
     1
102
RTVSPropertyOp46
 70
     1
102
RTVSPropertyOp47
 70
     1
102
RTVSPropertyOp48
 70
     1
102
RTVSPropertyOp49
 70
     1
102
RTVSPropertyOp50
 70
     1
102
RTVSPropertyOp51
 70
     0
102
RTVSPropertyOp52
 70
     0
102
RTVSPropertyOp53
 70
     1
102
RTVSPropertyOp54
 70
     1
102
RTVSPropertyOp55
 70
     1
102
RTVSPropertyOp56
 70
     1
102
RTVSPropertyOp57
 70
     1
102
RTVSPost2010Prop28
280
     0
102
RTVSPost2010PropOp28
 70
     1
102
RTVSPost2010Prop29
280
     1
102
RTVSPost2010PropOp29
 70
     1
102
RTVSPost2010Prop30
280
     1
102
RTVSPost2010PropOp30
 70
     1
102
RTVSPost2010Prop31
280
     0
102
RTVSPost2010PropOp31
 70
     1
102
RTVSPost2010Prop32
280
     0
102
RTVSPost2010PropOp32
 70
     1
102
RTVSPost2010Prop33
280
     0
102
RTVSPost2010PropOp33
 70
     1
102
RTVSPost2010Prop34
280
     0
102
RTVSPost2010PropOp34
 70
     1
102
RTVSPost2010Prop35
280
     0
102
RTVSPost2010PropOp35
 70
     1
102
RTVSPost2010Prop36
280
     0
102
RTVSPost2010PropOp36
 70
     1
102
RTVSPost2010Prop37
 90
       50
102
RTVSPost2010PropOp37
 70
     1
102
RTVSPost2010Prop38
140
0.0
102
RTVSPost2010PropOp38
 70
     1
102
RTVSPost2010Prop39
140
1.0
102
RTVSPost2010PropOp39
 70
     1
102
RTVSPost2010Prop40
 90
        0
102
RTVSPost2010PropOp40
 70
     1
102
RTVSPost2010Prop41ColorIndex
 90
       18
102
RTVSPost2010Prop41ColorRGB
 90
        0
102
RTVSPost2010PropOp41
 70
     1
102
RTVSPost2010Prop42
 90
       50
102
RTVSPost2010PropOp42
 70
     1
102
RTVSPost2010Prop43
 90
        3
102
RTVSPost2010PropOp43
 70
     1
102
RTVSPost2010Prop44ColorIndex
 90
        5
102
RTVSPost2010Prop44ColorRGB
 90
      255
102
RTVSPost2010PropOp44
 70
     1
102
RTVSPost2010Prop45
280
     0
102
RTVSPost2010PropOp45
 70
     1
102
RTVSPost2010Prop46
 90
       50
102
RTVSPost2010PropOp46
 70
     1
102
RTVSPost2010Prop47
 90
       50
102
RTVSPost2010PropOp47
 70
     1
102
RTVSPost2010Prop48
 90
       50
102
RTVSPost2010PropOp48
 70
     1
102
RTVSPost2010Prop49
280
     0
102
RTVSPost2010PropOp49
 70
     1
102
RTVSPost2010Prop50
 90
       50
102
RTVSPost2010PropOp50
 70
     1
102
RTVSPost2010Prop51ColorIndex
 90
      256
102
RTVSPost2010Prop51ColorRGB
 90
-16777216
102
RTVSPost2010PropOp51
 70
     0
102
RTVSPost2010Prop52
140
1.0
102
RTVSPost2010PropOp52
 70
     0
102
RTVSPost2010Prop53
 90
        2
102
RTVSPost2010PropOp53
 70
     1
102
RTVSPost2010Prop54
  1
strokes_ogs.tif
102
RTVSPost2010PropOp54
 70
     1
102
RTVSPost2010Prop55
280
     0
102
RTVSPost2010PropOp55
 70
     1
102
RTVSPost2010Prop56
140
1.0
102
RTVSPost2010PropOp56
 70
     1
102
RTVSPost2010Prop57
140
1.0
102
RTVSPost2010PropOp57
 70
     1
  0
XRECORD
  5
671
102
{ACAD_REACTORS
330
670
102
}
330
670
100
AcDbXrecord
280
     1
102
RTVSPropertyOp0
 70
     1
102
RTVSPropertyOp1
 70
     1
102
RTVSPropertyOp2
 70
     1
102
RTVSPropertyOp3
 70
     1
102
RTVSPropertyOp4
 70
     1
102
RTVSPropertyOp5
 70
     1
102
RTVSPropertyOp6
 70
     1
102
RTVSPropertyOp7
 70
     1
102
RTVSPropertyOp8
 70
     1
102
RTVSPropertyOp9
 70
     1
102
RTVSPropertyOp10
 70
     1
102
RTVSPropertyOp11
 70
     1
102
RTVSPropertyOp12
 70
     1
102
RTVSPropertyOp13
 70
     1
102
RTVSPropertyOp14
 70
     1
102
RTVSPropertyOp15
 70
     1
102
RTVSPropertyOp16
 70
     1
102
RTVSPropertyOp17
 70
     1
102
RTVSPropertyOp18
 70
     1
102
RTVSPropertyOp19
 70
     1
102
RTVSPropertyOp20
 70
     1
102
RTVSPropertyOp21
 70
     1
102
RTVSPropertyOp22
 70
     1
102
RTVSPropertyOp23
 70
     1
102
RTVSPropertyOp24
 70
     1
102
RTVSPropertyOp25
 70
     1
102
RTVSPropertyOp26
 70
     1
102
RTVSPropertyOp27
 70
     1
102
RTVSPropertyOp28
 70
     1
102
RTVSPropertyOp29
 70
     1
102
RTVSPropertyOp30
 70
     1
102
RTVSPropertyOp31
 70
     1
102
RTVSPropertyOp32
 70
     1
102
RTVSPropertyOp33
 70
     1
102
RTVSPropertyOp34
 70
     1
102
RTVSPropertyOp35
 70
     1
102
RTVSPropertyOp36
 70
     1
102
RTVSPropertyOp37
 70
     1
102
RTVSPropertyOp38
 70
     1
102
RTVSPropertyOp39
 70
     1
102
RTVSPropertyOp40
 70
     1
102
RTVSPropertyOp41
 70
     1
102
RTVSPropertyOp42
 70
     1
102
RTVSPropertyOp43
 70
     1
102
RTVSPropertyOp44
 70
     1
102
RTVSPropertyOp45
 70
     1
102
RTVSPropertyOp46
 70
     1
102
RTVSPropertyOp47
 70
     1
102
RTVSPropertyOp48
 70
     1
102
RTVSPropertyOp49
 70
     1
102
RTVSPropertyOp50
 70
     1
102
RTVSPropertyOp51
 70
     0
102
RTVSPropertyOp52
 70
     0
102
RTVSPropertyOp53
 70
     1
102
RTVSPropertyOp54
 70
     1
102
RTVSPropertyOp55
 70
     1
102
RTVSPropertyOp56
 70
     1
102
RTVSPropertyOp57
 70
     1
102
RTVSPost2010Prop28
280
     0
102
RTVSPost2010PropOp28
 70
     1
102
RTVSPost2010Prop29
280
     1
102
RTVSPost2010PropOp29
 70
     1
102
RTVSPost2010Prop30
280
     1
102
RTVSPost2010PropOp30
 70
     1
102
RTVSPost2010Prop31
280
     0
102
RTVSPost2010PropOp31
 70
     1
102
RTVSPost2010Prop32
280
     0
102
RTVSPost2010PropOp32
 70
     1
102
RTVSPost2010Prop33
280
     0
102
RTVSPost2010PropOp33
 70
     1
102
RTVSPost2010Prop34
280
     0
102
RTVSPost2010PropOp34
 70
     1
102
RTVSPost2010Prop35
280
     0
102
RTVSPost2010PropOp35
 70
     1
102
RTVSPost2010Prop36
280
     0
102
RTVSPost2010PropOp36
 70
     1
102
RTVSPost2010Prop37
 90
       50
102
RTVSPost2010PropOp37
 70
     1
102
RTVSPost2010Prop38
140
0.0
102
RTVSPost2010PropOp38
 70
     1
102
RTVSPost2010Prop39
140
1.0
102
RTVSPost2010PropOp39
 70
     1
102
RTVSPost2010Prop40
 90
        0
102
RTVSPost2010PropOp40
 70
     1
102
RTVSPost2010Prop41ColorIndex
 90
       18
102
RTVSPost2010Prop41ColorRGB
 90
        0
102
RTVSPost2010PropOp41
 70
     1
102
RTVSPost2010Prop42
 90
       50
102
RTVSPost2010PropOp42
 70
     1
102
RTVSPost2010Prop43
 90
        3
102
RTVSPost2010PropOp43
 70
     1
102
RTVSPost2010Prop44ColorIndex
 90
        5
102
RTVSPost2010Prop44ColorRGB
 90
      255
102
RTVSPost2010PropOp44
 70
     1
102
RTVSPost2010Prop45
280
     0
102
RTVSPost2010PropOp45
 70
     1
102
RTVSPost2010Prop46
 90
       50
102
RTVSPost2010PropOp46
 70
     1
102
RTVSPost2010Prop47
 90
       50
102
RTVSPost2010PropOp47
 70
     1
102
RTVSPost2010Prop48
 90
       50
102
RTVSPost2010PropOp48
 70
     1
102
RTVSPost2010Prop49
280
     0
102
RTVSPost2010PropOp49
 70
     1
102
RTVSPost2010Prop50
 90
       50
102
RTVSPost2010PropOp50
 70
     1
102
RTVSPost2010Prop51ColorIndex
 90
      256
102
RTVSPost2010Prop51ColorRGB
 90
-16777216
102
RTVSPost2010PropOp51
 70
     0
102
RTVSPost2010Prop52
140
1.0
102
RTVSPost2010PropOp52
 70
     0
102
RTVSPost2010Prop53
 90
        2
102
RTVSPost2010PropOp53
 70
     1
102
RTVSPost2010Prop54
  1
strokes_ogs.tif
102
RTVSPost2010PropOp54
 70
     1
102
RTVSPost2010Prop55
280
     0
102
RTVSPost2010PropOp55
 70
     1
102
RTVSPost2010Prop56
140
1.0
102
RTVSPost2010PropOp56
 70
     1
102
RTVSPost2010Prop57
140
1.0
102
RTVSPost2010PropOp57
 70
     1
  0
XRECORD
  5
673
102
{ACAD_REACTORS
330
672
102
}
330
672
100
AcDbXrecord
280
     1
102
RTVSPropertyOp0
 70
     1
102
RTVSPropertyOp1
 70
     1
102
RTVSPropertyOp2
 70
     1
102
RTVSPropertyOp3
 70
     1
102
RTVSPropertyOp4
 70
     1
102
RTVSPropertyOp5
 70
     1
102
RTVSPropertyOp6
 70
     1
102
RTVSPropertyOp7
 70
     1
102
RTVSPropertyOp8
 70
     1
102
RTVSPropertyOp9
 70
     1
102
RTVSPropertyOp10
 70
     1
102
RTVSPropertyOp11
 70
     1
102
RTVSPropertyOp12
 70
     1
102
RTVSPropertyOp13
 70
     1
102
RTVSPropertyOp14
 70
     1
102
RTVSPropertyOp15
 70
     1
102
RTVSPropertyOp16
 70
     1
102
RTVSPropertyOp17
 70
     1
102
RTVSPropertyOp18
 70
     1
102
RTVSPropertyOp19
 70
     1
102
RTVSPropertyOp20
 70
     1
102
RTVSPropertyOp21
 70
     1
102
RTVSPropertyOp22
 70
     1
102
RTVSPropertyOp23
 70
     1
102
RTVSPropertyOp24
 70
     1
102
RTVSPropertyOp25
 70
     1
102
RTVSPropertyOp26
 70
     1
102
RTVSPropertyOp27
 70
     1
102
RTVSPropertyOp28
 70
     1
102
RTVSPropertyOp29
 70
     1
102
RTVSPropertyOp30
 70
     1
102
RTVSPropertyOp31
 70
     1
102
RTVSPropertyOp32
 70
     1
102
RTVSPropertyOp33
 70
     1
102
RTVSPropertyOp34
 70
     1
102
RTVSPropertyOp35
 70
     1
102
RTVSPropertyOp36
 70
     1
102
RTVSPropertyOp37
 70
     1
102
RTVSPropertyOp38
 70
     1
102
RTVSPropertyOp39
 70
     1
102
RTVSPropertyOp40
 70
     1
102
RTVSPropertyOp41
 70
     1
102
RTVSPropertyOp42
 70
     1
102
RTVSPropertyOp43
 70
     1
102
RTVSPropertyOp44
 70
     1
102
RTVSPropertyOp45
 70
     1
102
RTVSPropertyOp46
 70
     1
102
RTVSPropertyOp47
 70
     1
102
RTVSPropertyOp48
 70
     1
102
RTVSPropertyOp49
 70
     1
102
RTVSPropertyOp50
 70
     1
102
RTVSPropertyOp51
 70
     0
102
RTVSPropertyOp52
 70
     0
102
RTVSPropertyOp53
 70
     1
102
RTVSPropertyOp54
 70
     1
102
RTVSPropertyOp55
 70
     1
102
RTVSPropertyOp56
 70
     1
102
RTVSPropertyOp57
 70
     1
102
RTVSPost2010Prop28
280
     0
102
RTVSPost2010PropOp28
 70
     1
102
RTVSPost2010Prop29
280
     1
102
RTVSPost2010PropOp29
 70
     1
102
RTVSPost2010Prop30
280
     1
102
RTVSPost2010PropOp30
 70
     1
102
RTVSPost2010Prop31
280
     0
102
RTVSPost2010PropOp31
 70
     1
102
RTVSPost2010Prop32
280
     0
102
RTVSPost2010PropOp32
 70
     1
102
RTVSPost2010Prop33
280
     0
102
RTVSPost2010PropOp33
 70
     1
102
RTVSPost2010Prop34
280
     0
102
RTVSPost2010PropOp34
 70
     1
102
RTVSPost2010Prop35
280
     0
102
RTVSPost2010PropOp35
 70
     1
102
RTVSPost2010Prop36
280
     0
102
RTVSPost2010PropOp36
 70
     1
102
RTVSPost2010Prop37
 90
       50
102
RTVSPost2010PropOp37
 70
     1
102
RTVSPost2010Prop38
140
0.0
102
RTVSPost2010PropOp38
 70
     1
102
RTVSPost2010Prop39
140
1.0
102
RTVSPost2010PropOp39
 70
     1
102
RTVSPost2010Prop40
 90
        0
102
RTVSPost2010PropOp40
 70
     1
102
RTVSPost2010Prop41ColorIndex
 90
       18
102
RTVSPost2010Prop41ColorRGB
 90
        0
102
RTVSPost2010PropOp41
 70
     1
102
RTVSPost2010Prop42
 90
       50
102
RTVSPost2010PropOp42
 70
     1
102
RTVSPost2010Prop43
 90
        3
102
RTVSPost2010PropOp43
 70
     1
102
RTVSPost2010Prop44ColorIndex
 90
        5
102
RTVSPost2010Prop44ColorRGB
 90
      255
102
RTVSPost2010PropOp44
 70
     1
102
RTVSPost2010Prop45
280
     0
102
RTVSPost2010PropOp45
 70
     1
102
RTVSPost2010Prop46
 90
       50
102
RTVSPost2010PropOp46
 70
     1
102
RTVSPost2010Prop47
 90
       50
102
RTVSPost2010PropOp47
 70
     1
102
RTVSPost2010Prop48
 90
       50
102
RTVSPost2010PropOp48
 70
     1
102
RTVSPost2010Prop49
280
     0
102
RTVSPost2010PropOp49
 70
     1
102
RTVSPost2010Prop50
 90
       50
102
RTVSPost2010PropOp50
 70
     1
102
RTVSPost2010Prop51ColorIndex
 90
      256
102
RTVSPost2010Prop51ColorRGB
 90
-16777216
102
RTVSPost2010PropOp51
 70
     0
102
RTVSPost2010Prop52
140
1.0
102
RTVSPost2010PropOp52
 70
     0
102
RTVSPost2010Prop53
 90
        2
102
RTVSPost2010PropOp53
 70
     1
102
RTVSPost2010Prop54
  1
strokes_ogs.tif
102
RTVSPost2010PropOp54
 70
     1
102
RTVSPost2010Prop55
280
     0
102
RTVSPost2010PropOp55
 70
     1
102
RTVSPost2010Prop56
140
1.0
102
RTVSPost2010PropOp56
 70
     1
102
RTVSPost2010Prop57
140
1.0
102
RTVSPost2010PropOp57
 70
     1
  0
XRECORD
  5
675
102
{ACAD_REACTORS
330
674
102
}
330
674
100
AcDbXrecord
280
     1
102
RTVSPropertyOp0
 70
     1
102
RTVSPropertyOp1
 70
     1
102
RTVSPropertyOp2
 70
     1
102
RTVSPropertyOp3
 70
     1
102
RTVSPropertyOp4
 70
     1
102
RTVSPropertyOp5
 70
     1
102
RTVSPropertyOp6
 70
     1
102
RTVSPropertyOp7
 70
     1
102
RTVSPropertyOp8
 70
     1
102
RTVSPropertyOp9
 70
     1
102
RTVSPropertyOp10
 70
     1
102
RTVSPropertyOp11
 70
     1
102
RTVSPropertyOp12
 70
     1
102
RTVSPropertyOp13
 70
     1
102
RTVSPropertyOp14
 70
     1
102
RTVSPropertyOp15
 70
     1
102
RTVSPropertyOp16
 70
     1
102
RTVSPropertyOp17
 70
     1
102
RTVSPropertyOp18
 70
     1
102
RTVSPropertyOp19
 70
     1
102
RTVSPropertyOp20
 70
     1
102
RTVSPropertyOp21
 70
     1
102
RTVSPropertyOp22
 70
     1
102
RTVSPropertyOp23
 70
     1
102
RTVSPropertyOp24
 70
     1
102
RTVSPropertyOp25
 70
     1
102
RTVSPropertyOp26
 70
     1
102
RTVSPropertyOp27
 70
     1
102
RTVSPropertyOp28
 70
     1
102
RTVSPropertyOp29
 70
     1
102
RTVSPropertyOp30
 70
     1
102
RTVSPropertyOp31
 70
     1
102
RTVSPropertyOp32
 70
     1
102
RTVSPropertyOp33
 70
     1
102
RTVSPropertyOp34
 70
     1
102
RTVSPropertyOp35
 70
     1
102
RTVSPropertyOp36
 70
     1
102
RTVSPropertyOp37
 70
     1
102
RTVSPropertyOp38
 70
     1
102
RTVSPropertyOp39
 70
     1
102
RTVSPropertyOp40
 70
     1
102
RTVSPropertyOp41
 70
     1
102
RTVSPropertyOp42
 70
     1
102
RTVSPropertyOp43
 70
     1
102
RTVSPropertyOp44
 70
     1
102
RTVSPropertyOp45
 70
     1
102
RTVSPropertyOp46
 70
     1
102
RTVSPropertyOp47
 70
     1
102
RTVSPropertyOp48
 70
     1
102
RTVSPropertyOp49
 70
     1
102
RTVSPropertyOp50
 70
     1
102
RTVSPropertyOp51
 70
     0
102
RTVSPropertyOp52
 70
     0
102
RTVSPropertyOp53
 70
     1
102
RTVSPropertyOp54
 70
     1
102
RTVSPropertyOp55
 70
     1
102
RTVSPropertyOp56
 70
     1
102
RTVSPropertyOp57
 70
     1
102
RTVSPost2010Prop28
280
     0
102
RTVSPost2010PropOp28
 70
     1
102
RTVSPost2010Prop29
280
     1
102
RTVSPost2010PropOp29
 70
     1
102
RTVSPost2010Prop30
280
     1
102
RTVSPost2010PropOp30
 70
     1
102
RTVSPost2010Prop31
280
     0
102
RTVSPost2010PropOp31
 70
     1
102
RTVSPost2010Prop32
280
     0
102
RTVSPost2010PropOp32
 70
     1
102
RTVSPost2010Prop33
280
     0
102
RTVSPost2010PropOp33
 70
     1
102
RTVSPost2010Prop34
280
     0
102
RTVSPost2010PropOp34
 70
     1
102
RTVSPost2010Prop35
280
     0
102
RTVSPost2010PropOp35
 70
     1
102
RTVSPost2010Prop36
280
     0
102
RTVSPost2010PropOp36
 70
     1
102
RTVSPost2010Prop37
 90
       50
102
RTVSPost2010PropOp37
 70
     1
102
RTVSPost2010Prop38
140
0.0
102
RTVSPost2010PropOp38
 70
     1
102
RTVSPost2010Prop39
140
1.0
102
RTVSPost2010PropOp39
 70
     1
102
RTVSPost2010Prop40
 90
        0
102
RTVSPost2010PropOp40
 70
     1
102
RTVSPost2010Prop41ColorIndex
 90
       18
102
RTVSPost2010Prop41ColorRGB
 90
        0
102
RTVSPost2010PropOp41
 70
     1
102
RTVSPost2010Prop42
 90
       50
102
RTVSPost2010PropOp42
 70
     1
102
RTVSPost2010Prop43
 90
        3
102
RTVSPost2010PropOp43
 70
     1
102
RTVSPost2010Prop44ColorIndex
 90
        5
102
RTVSPost2010Prop44ColorRGB
 90
      255
102
RTVSPost2010PropOp44
 70
     1
102
RTVSPost2010Prop45
280
     0
102
RTVSPost2010PropOp45
 70
     1
102
RTVSPost2010Prop46
 90
       50
102
RTVSPost2010PropOp46
 70
     1
102
RTVSPost2010Prop47
 90
       50
102
RTVSPost2010PropOp47
 70
     1
102
RTVSPost2010Prop48
 90
       50
102
RTVSPost2010PropOp48
 70
     1
102
RTVSPost2010Prop49
280
     0
102
RTVSPost2010PropOp49
 70
     1
102
RTVSPost2010Prop50
 90
       50
102
RTVSPost2010PropOp50
 70
     1
102
RTVSPost2010Prop51ColorIndex
 90
      256
102
RTVSPost2010Prop51ColorRGB
 90
-16777216
102
RTVSPost2010PropOp51
 70
     0
102
RTVSPost2010Prop52
140
1.0
102
RTVSPost2010PropOp52
 70
     0
102
RTVSPost2010Prop53
 90
        2
102
RTVSPost2010PropOp53
 70
     1
102
RTVSPost2010Prop54
  1
strokes_ogs.tif
102
RTVSPost2010PropOp54
 70
     1
102
RTVSPost2010Prop55
280
     0
102
RTVSPost2010PropOp55
 70
     1
102
RTVSPost2010Prop56
140
1.0
102
RTVSPost2010PropOp56
 70
     1
102
RTVSPost2010Prop57
140
1.0
102
RTVSPost2010PropOp57
 70
     1
  0
XRECORD
  5
677
102
{ACAD_REACTORS
330
676
102
}
330
676
100
AcDbXrecord
280
     1
102
RTVSPropertyOp0
 70
     1
102
RTVSPropertyOp1
 70
     1
102
RTVSPropertyOp2
 70
     1
102
RTVSPropertyOp3
 70
     1
102
RTVSPropertyOp4
 70
     1
102
RTVSPropertyOp5
 70
     1
102
RTVSPropertyOp6
 70
     1
102
RTVSPropertyOp7
 70
     1
102
RTVSPropertyOp8
 70
     1
102
RTVSPropertyOp9
 70
     1
102
RTVSPropertyOp10
 70
     1
102
RTVSPropertyOp11
 70
     1
102
RTVSPropertyOp12
 70
     1
102
RTVSPropertyOp13
 70
     1
102
RTVSPropertyOp14
 70
     1
102
RTVSPropertyOp15
 70
     1
102
RTVSPropertyOp16
 70
     1
102
RTVSPropertyOp17
 70
     1
102
RTVSPropertyOp18
 70
     1
102
RTVSPropertyOp19
 70
     1
102
RTVSPropertyOp20
 70
     1
102
RTVSPropertyOp21
 70
     1
102
RTVSPropertyOp22
 70
     1
102
RTVSPropertyOp23
 70
     1
102
RTVSPropertyOp24
 70
     1
102
RTVSPropertyOp25
 70
     1
102
RTVSPropertyOp26
 70
     1
102
RTVSPropertyOp27
 70
     1
102
RTVSPropertyOp28
 70
     1
102
RTVSPropertyOp29
 70
     1
102
RTVSPropertyOp30
 70
     1
102
RTVSPropertyOp31
 70
     1
102
RTVSPropertyOp32
 70
     1
102
RTVSPropertyOp33
 70
     1
102
RTVSPropertyOp34
 70
     1
102
RTVSPropertyOp35
 70
     1
102
RTVSPropertyOp36
 70
     1
102
RTVSPropertyOp37
 70
     1
102
RTVSPropertyOp38
 70
     1
102
RTVSPropertyOp39
 70
     1
102
RTVSPropertyOp40
 70
     1
102
RTVSPropertyOp41
 70
     1
102
RTVSPropertyOp42
 70
     1
102
RTVSPropertyOp43
 70
     1
102
RTVSPropertyOp44
 70
     1
102
RTVSPropertyOp45
 70
     1
102
RTVSPropertyOp46
 70
     1
102
RTVSPropertyOp47
 70
     1
102
RTVSPropertyOp48
 70
     1
102
RTVSPropertyOp49
 70
     1
102
RTVSPropertyOp50
 70
     1
102
RTVSPropertyOp51
 70
     0
102
RTVSPropertyOp52
 70
     0
102
RTVSPropertyOp53
 70
     1
102
RTVSPropertyOp54
 70
     1
102
RTVSPropertyOp55
 70
     1
102
RTVSPropertyOp56
 70
     1
102
RTVSPropertyOp57
 70
     1
102
RTVSPost2010Prop28
280
     0
102
RTVSPost2010PropOp28
 70
     1
102
RTVSPost2010Prop29
280
     1
102
RTVSPost2010PropOp29
 70
     1
102
RTVSPost2010Prop30
280
     1
102
RTVSPost2010PropOp30
 70
     1
102
RTVSPost2010Prop31
280
     0
102
RTVSPost2010PropOp31
 70
     1
102
RTVSPost2010Prop32
280
     0
102
RTVSPost2010PropOp32
 70
     1
102
RTVSPost2010Prop33
280
     0
102
RTVSPost2010PropOp33
 70
     1
102
RTVSPost2010Prop34
280
     0
102
RTVSPost2010PropOp34
 70
     1
102
RTVSPost2010Prop35
280
     0
102
RTVSPost2010PropOp35
 70
     1
102
RTVSPost2010Prop36
280
     0
102
RTVSPost2010PropOp36
 70
     1
102
RTVSPost2010Prop37
 90
       50
102
RTVSPost2010PropOp37
 70
     1
102
RTVSPost2010Prop38
140
0.0
102
RTVSPost2010PropOp38
 70
     1
102
RTVSPost2010Prop39
140
1.0
102
RTVSPost2010PropOp39
 70
     1
102
RTVSPost2010Prop40
 90
        0
102
RTVSPost2010PropOp40
 70
     1
102
RTVSPost2010Prop41ColorIndex
 90
       18
102
RTVSPost2010Prop41ColorRGB
 90
        0
102
RTVSPost2010PropOp41
 70
     1
102
RTVSPost2010Prop42
 90
       50
102
RTVSPost2010PropOp42
 70
     1
102
RTVSPost2010Prop43
 90
        3
102
RTVSPost2010PropOp43
 70
     1
102
RTVSPost2010Prop44ColorIndex
 90
        5
102
RTVSPost2010Prop44ColorRGB
 90
      255
102
RTVSPost2010PropOp44
 70
     1
102
RTVSPost2010Prop45
280
     0
102
RTVSPost2010PropOp45
 70
     1
102
RTVSPost2010Prop46
 90
       50
102
RTVSPost2010PropOp46
 70
     1
102
RTVSPost2010Prop47
 90
       50
102
RTVSPost2010PropOp47
 70
     1
102
RTVSPost2010Prop48
 90
       50
102
RTVSPost2010PropOp48
 70
     1
102
RTVSPost2010Prop49
280
     0
102
RTVSPost2010PropOp49
 70
     1
102
RTVSPost2010Prop50
 90
       50
102
RTVSPost2010PropOp50
 70
     1
102
RTVSPost2010Prop51ColorIndex
 90
      256
102
RTVSPost2010Prop51ColorRGB
 90
-16777216
102
RTVSPost2010PropOp51
 70
     0
102
RTVSPost2010Prop52
140
1.0
102
RTVSPost2010PropOp52
 70
     0
102
RTVSPost2010Prop53
 90
        2
102
RTVSPost2010PropOp53
 70
     1
102
RTVSPost2010Prop54
  1
strokes_ogs.tif
102
RTVSPost2010PropOp54
 70
     1
102
RTVSPost2010Prop55
280
     0
102
RTVSPost2010PropOp55
 70
     1
102
RTVSPost2010Prop56
140
1.0
102
RTVSPost2010PropOp56
 70
     1
102
RTVSPost2010Prop57
140
1.0
102
RTVSPost2010PropOp57
 70
     1
  0
XRECORD
  5
687
102
{ACAD_REACTORS
330
686
102
}
330
686
100
AcDbXrecord
280
     1
102
RTVSPropertyOp0
 70
     1
102
RTVSPropertyOp1
 70
     1
102
RTVSPropertyOp2
 70
     1
102
RTVSPropertyOp3
 70
     1
102
RTVSPropertyOp4
 70
     1
102
RTVSPropertyOp5
 70
     1
102
RTVSPropertyOp6
 70
     1
102
RTVSPropertyOp7
 70
     1
102
RTVSPropertyOp8
 70
     1
102
RTVSPropertyOp9
 70
     1
102
RTVSPropertyOp10
 70
     1
102
RTVSPropertyOp11
 70
     1
102
RTVSPropertyOp12
 70
     1
102
RTVSPropertyOp13
 70
     1
102
RTVSPropertyOp14
 70
     1
102
RTVSPropertyOp15
 70
     1
102
RTVSPropertyOp16
 70
     1
102
RTVSPropertyOp17
 70
     1
102
RTVSPropertyOp18
 70
     1
102
RTVSPropertyOp19
 70
     1
102
RTVSPropertyOp20
 70
     1
102
RTVSPropertyOp21
 70
     1
102
RTVSPropertyOp22
 70
     1
102
RTVSPropertyOp23
 70
     1
102
RTVSPropertyOp24
 70
     1
102
RTVSPropertyOp25
 70
     1
102
RTVSPropertyOp26
 70
     1
102
RTVSPropertyOp27
 70
     1
102
RTVSPropertyOp28
 70
     1
102
RTVSPropertyOp29
 70
     1
102
RTVSPropertyOp30
 70
     1
102
RTVSPropertyOp31
 70
     1
102
RTVSPropertyOp32
 70
     1
102
RTVSPropertyOp33
 70
     1
102
RTVSPropertyOp34
 70
     1
102
RTVSPropertyOp35
 70
     1
102
RTVSPropertyOp36
 70
     1
102
RTVSPropertyOp37
 70
     1
102
RTVSPropertyOp38
 70
     1
102
RTVSPropertyOp39
 70
     1
102
RTVSPropertyOp40
 70
     1
102
RTVSPropertyOp41
 70
     1
102
RTVSPropertyOp42
 70
     1
102
RTVSPropertyOp43
 70
     1
102
RTVSPropertyOp44
 70
     1
102
RTVSPropertyOp45
 70
     1
102
RTVSPropertyOp46
 70
     1
102
RTVSPropertyOp47
 70
     1
102
RTVSPropertyOp48
 70
     1
102
RTVSPropertyOp49
 70
     1
102
RTVSPropertyOp50
 70
     1
102
RTVSPropertyOp51
 70
     0
102
RTVSPropertyOp52
 70
     0
102
RTVSPropertyOp53
 70
     1
102
RTVSPropertyOp54
 70
     1
102
RTVSPropertyOp55
 70
     1
102
RTVSPropertyOp56
 70
     1
102
RTVSPropertyOp57
 70
     1
102
RTVSPost2010Prop28
280
     0
102
RTVSPost2010PropOp28
 70
     1
102
RTVSPost2010Prop29
280
     1
102
RTVSPost2010PropOp29
 70
     1
102
RTVSPost2010Prop30
280
     1
102
RTVSPost2010PropOp30
 70
     1
102
RTVSPost2010Prop31
280
     0
102
RTVSPost2010PropOp31
 70
     1
102
RTVSPost2010Prop32
280
     0
102
RTVSPost2010PropOp32
 70
     1
102
RTVSPost2010Prop33
280
     0
102
RTVSPost2010PropOp33
 70
     1
102
RTVSPost2010Prop34
280
     0
102
RTVSPost2010PropOp34
 70
     1
102
RTVSPost2010Prop35
280
     0
102
RTVSPost2010PropOp35
 70
     1
102
RTVSPost2010Prop36
280
     0
102
RTVSPost2010PropOp36
 70
     1
102
RTVSPost2010Prop37
 90
       50
102
RTVSPost2010PropOp37
 70
     1
102
RTVSPost2010Prop38
140
0.0
102
RTVSPost2010PropOp38
 70
     1
102
RTVSPost2010Prop39
140
1.0
102
RTVSPost2010PropOp39
 70
     1
102
RTVSPost2010Prop40
 90
        0
102
RTVSPost2010PropOp40
 70
     1
102
RTVSPost2010Prop41ColorIndex
 90
       18
102
RTVSPost2010Prop41ColorRGB
 90
        0
102
RTVSPost2010PropOp41
 70
     1
102
RTVSPost2010Prop42
 90
       50
102
RTVSPost2010PropOp42
 70
     1
102
RTVSPost2010Prop43
 90
        3
102
RTVSPost2010PropOp43
 70
     1
102
RTVSPost2010Prop44ColorIndex
 90
        5
102
RTVSPost2010Prop44ColorRGB
 90
      255
102
RTVSPost2010PropOp44
 70
     1
102
RTVSPost2010Prop45
280
     0
102
RTVSPost2010PropOp45
 70
     1
102
RTVSPost2010Prop46
 90
       50
102
RTVSPost2010PropOp46
 70
     1
102
RTVSPost2010Prop47
 90
       50
102
RTVSPost2010PropOp47
 70
     1
102
RTVSPost2010Prop48
 90
       50
102
RTVSPost2010PropOp48
 70
     1
102
RTVSPost2010Prop49
280
     0
102
RTVSPost2010PropOp49
 70
     1
102
RTVSPost2010Prop50
 90
       50
102
RTVSPost2010PropOp50
 70
     1
102
RTVSPost2010Prop51ColorIndex
 90
      256
102
RTVSPost2010Prop51ColorRGB
 90
-16777216
102
RTVSPost2010PropOp51
 70
     0
102
RTVSPost2010Prop52
140
1.0
102
RTVSPost2010PropOp52
 70
     0
102
RTVSPost2010Prop53
 90
        2
102
RTVSPost2010PropOp53
 70
     1
102
RTVSPost2010Prop54
  1
strokes_ogs.tif
102
RTVSPost2010PropOp54
 70
     1
102
RTVSPost2010Prop55
280
     0
102
RTVSPost2010PropOp55
 70
     1
102
RTVSPost2010Prop56
140
1.0
102
RTVSPost2010PropOp56
 70
     1
102
RTVSPost2010Prop57
140
1.0
102
RTVSPost2010PropOp57
 70
     1
  0
XRECORD
  5
679
102
{ACAD_REACTORS
330
678
102
}
330
678
100
AcDbXrecord
280
     1
102
RTVSPropertyOp0
 70
     1
102
RTVSPropertyOp1
 70
     1
102
RTVSPropertyOp2
 70
     1
102
RTVSPropertyOp3
 70
     1
102
RTVSPropertyOp4
 70
     1
102
RTVSPropertyOp5
 70
     1
102
RTVSPropertyOp6
 70
     1
102
RTVSPropertyOp7
 70
     1
102
RTVSPropertyOp8
 70
     1
102
RTVSPropertyOp9
 70
     1
102
RTVSPropertyOp10
 70
     1
102
RTVSPropertyOp11
 70
     1
102
RTVSPropertyOp12
 70
     1
102
RTVSPropertyOp13
 70
     1
102
RTVSPropertyOp14
 70
     1
102
RTVSPropertyOp15
 70
     1
102
RTVSPropertyOp16
 70
     1
102
RTVSPropertyOp17
 70
     1
102
RTVSPropertyOp18
 70
     1
102
RTVSPropertyOp19
 70
     1
102
RTVSPropertyOp20
 70
     1
102
RTVSPropertyOp21
 70
     1
102
RTVSPropertyOp22
 70
     1
102
RTVSPropertyOp23
 70
     1
102
RTVSPropertyOp24
 70
     1
102
RTVSPropertyOp25
 70
     1
102
RTVSPropertyOp26
 70
     1
102
RTVSPropertyOp27
 70
     1
102
RTVSPropertyOp28
 70
     1
102
RTVSPropertyOp29
 70
     1
102
RTVSPropertyOp30
 70
     1
102
RTVSPropertyOp31
 70
     1
102
RTVSPropertyOp32
 70
     1
102
RTVSPropertyOp33
 70
     1
102
RTVSPropertyOp34
 70
     1
102
RTVSPropertyOp35
 70
     1
102
RTVSPropertyOp36
 70
     1
102
RTVSPropertyOp37
 70
     1
102
RTVSPropertyOp38
 70
     1
102
RTVSPropertyOp39
 70
     1
102
RTVSPropertyOp40
 70
     1
102
RTVSPropertyOp41
 70
     1
102
RTVSPropertyOp42
 70
     1
102
RTVSPropertyOp43
 70
     1
102
RTVSPropertyOp44
 70
     1
102
RTVSPropertyOp45
 70
     1
102
RTVSPropertyOp46
 70
     1
102
RTVSPropertyOp47
 70
     1
102
RTVSPropertyOp48
 70
     1
102
RTVSPropertyOp49
 70
     1
102
RTVSPropertyOp50
 70
     1
102
RTVSPropertyOp51
 70
     0
102
RTVSPropertyOp52
 70
     0
102
RTVSPropertyOp53
 70
     1
102
RTVSPropertyOp54
 70
     1
102
RTVSPropertyOp55
 70
     1
102
RTVSPropertyOp56
 70
     1
102
RTVSPropertyOp57
 70
     1
102
RTVSPost2010Prop28
280
     0
102
RTVSPost2010PropOp28
 70
     1
102
RTVSPost2010Prop29
280
     1
102
RTVSPost2010PropOp29
 70
     1
102
RTVSPost2010Prop30
280
     1
102
RTVSPost2010PropOp30
 70
     1
102
RTVSPost2010Prop31
280
     0
102
RTVSPost2010PropOp31
 70
     1
102
RTVSPost2010Prop32
280
     0
102
RTVSPost2010PropOp32
 70
     1
102
RTVSPost2010Prop33
280
     0
102
RTVSPost2010PropOp33
 70
     1
102
RTVSPost2010Prop34
280
     0
102
RTVSPost2010PropOp34
 70
     1
102
RTVSPost2010Prop35
280
     0
102
RTVSPost2010PropOp35
 70
     1
102
RTVSPost2010Prop36
280
     0
102
RTVSPost2010PropOp36
 70
     1
102
RTVSPost2010Prop37
 90
       50
102
RTVSPost2010PropOp37
 70
     1
102
RTVSPost2010Prop38
140
0.0
102
RTVSPost2010PropOp38
 70
     1
102
RTVSPost2010Prop39
140
1.0
102
RTVSPost2010PropOp39
 70
     1
102
RTVSPost2010Prop40
 90
        0
102
RTVSPost2010PropOp40
 70
     1
102
RTVSPost2010Prop41ColorIndex
 90
       18
102
RTVSPost2010Prop41ColorRGB
 90
        0
102
RTVSPost2010PropOp41
 70
     1
102
RTVSPost2010Prop42
 90
       50
102
RTVSPost2010PropOp42
 70
     1
102
RTVSPost2010Prop43
 90
        3
102
RTVSPost2010PropOp43
 70
     1
102
RTVSPost2010Prop44ColorIndex
 90
        5
102
RTVSPost2010Prop44ColorRGB
 90
      255
102
RTVSPost2010PropOp44
 70
     1
102
RTVSPost2010Prop45
280
     0
102
RTVSPost2010PropOp45
 70
     1
102
RTVSPost2010Prop46
 90
       50
102
RTVSPost2010PropOp46
 70
     1
102
RTVSPost2010Prop47
 90
       50
102
RTVSPost2010PropOp47
 70
     1
102
RTVSPost2010Prop48
 90
       50
102
RTVSPost2010PropOp48
 70
     1
102
RTVSPost2010Prop49
280
     0
102
RTVSPost2010PropOp49
 70
     1
102
RTVSPost2010Prop50
 90
       50
102
RTVSPost2010PropOp50
 70
     1
102
RTVSPost2010Prop51ColorIndex
 90
      256
102
RTVSPost2010Prop51ColorRGB
 90
-16777216
102
RTVSPost2010PropOp51
 70
     0
102
RTVSPost2010Prop52
140
1.0
102
RTVSPost2010PropOp52
 70
     0
102
RTVSPost2010Prop53
 90
        2
102
RTVSPost2010PropOp53
 70
     1
102
RTVSPost2010Prop54
  1
strokes_ogs.tif
102
RTVSPost2010PropOp54
 70
     1
102
RTVSPost2010Prop55
280
     0
102
RTVSPost2010PropOp55
 70
     1
102
RTVSPost2010Prop56
140
1.0
102
RTVSPost2010PropOp56
 70
     1
102
RTVSPost2010Prop57
140
1.0
102
RTVSPost2010PropOp57
 70
     1
  0
XRECORD
  5
685
102
{ACAD_REACTORS
330
684
102
}
330
684
100
AcDbXrecord
280
     1
102
RTVSPropertyOp0
 70
     1
102
RTVSPropertyOp1
 70
     1
102
RTVSPropertyOp2
 70
     1
102
RTVSPropertyOp3
 70
     1
102
RTVSPropertyOp4
 70
     1
102
RTVSPropertyOp5
 70
     1
102
RTVSPropertyOp6
 70
     1
102
RTVSPropertyOp7
 70
     1
102
RTVSPropertyOp8
 70
     1
102
RTVSPropertyOp9
 70
     1
102
RTVSPropertyOp10
 70
     1
102
RTVSPropertyOp11
 70
     1
102
RTVSPropertyOp12
 70
     1
102
RTVSPropertyOp13
 70
     1
102
RTVSPropertyOp14
 70
     1
102
RTVSPropertyOp15
 70
     1
102
RTVSPropertyOp16
 70
     1
102
RTVSPropertyOp17
 70
     1
102
RTVSPropertyOp18
 70
     1
102
RTVSPropertyOp19
 70
     1
102
RTVSPropertyOp20
 70
     1
102
RTVSPropertyOp21
 70
     1
102
RTVSPropertyOp22
 70
     1
102
RTVSPropertyOp23
 70
     1
102
RTVSPropertyOp24
 70
     1
102
RTVSPropertyOp25
 70
     1
102
RTVSPropertyOp26
 70
     1
102
RTVSPropertyOp27
 70
     1
102
RTVSPropertyOp28
 70
     1
102
RTVSPropertyOp29
 70
     1
102
RTVSPropertyOp30
 70
     1
102
RTVSPropertyOp31
 70
     1
102
RTVSPropertyOp32
 70
     1
102
RTVSPropertyOp33
 70
     1
102
RTVSPropertyOp34
 70
     1
102
RTVSPropertyOp35
 70
     1
102
RTVSPropertyOp36
 70
     1
102
RTVSPropertyOp37
 70
     1
102
RTVSPropertyOp38
 70
     1
102
RTVSPropertyOp39
 70
     1
102
RTVSPropertyOp40
 70
     1
102
RTVSPropertyOp41
 70
     1
102
RTVSPropertyOp42
 70
     1
102
RTVSPropertyOp43
 70
     1
102
RTVSPropertyOp44
 70
     1
102
RTVSPropertyOp45
 70
     1
102
RTVSPropertyOp46
 70
     1
102
RTVSPropertyOp47
 70
     1
102
RTVSPropertyOp48
 70
     1
102
RTVSPropertyOp49
 70
     1
102
RTVSPropertyOp50
 70
     1
102
RTVSPropertyOp51
 70
     0
102
RTVSPropertyOp52
 70
     0
102
RTVSPropertyOp53
 70
     1
102
RTVSPropertyOp54
 70
     1
102
RTVSPropertyOp55
 70
     1
102
RTVSPropertyOp56
 70
     1
102
RTVSPropertyOp57
 70
     1
102
RTVSPost2010Prop28
280
     0
102
RTVSPost2010PropOp28
 70
     1
102
RTVSPost2010Prop29
280
     1
102
RTVSPost2010PropOp29
 70
     1
102
RTVSPost2010Prop30
280
     1
102
RTVSPost2010PropOp30
 70
     1
102
RTVSPost2010Prop31
280
     0
102
RTVSPost2010PropOp31
 70
     1
102
RTVSPost2010Prop32
280
     0
102
RTVSPost2010PropOp32
 70
     1
102
RTVSPost2010Prop33
280
     0
102
RTVSPost2010PropOp33
 70
     1
102
RTVSPost2010Prop34
280
     0
102
RTVSPost2010PropOp34
 70
     1
102
RTVSPost2010Prop35
280
     0
102
RTVSPost2010PropOp35
 70
     1
102
RTVSPost2010Prop36
280
     0
102
RTVSPost2010PropOp36
 70
     1
102
RTVSPost2010Prop37
 90
       50
102
RTVSPost2010PropOp37
 70
     1
102
RTVSPost2010Prop38
140
0.0
102
RTVSPost2010PropOp38
 70
     1
102
RTVSPost2010Prop39
140
1.0
102
RTVSPost2010PropOp39
 70
     1
102
RTVSPost2010Prop40
 90
        0
102
RTVSPost2010PropOp40
 70
     1
102
RTVSPost2010Prop41ColorIndex
 90
       18
102
RTVSPost2010Prop41ColorRGB
 90
        0
102
RTVSPost2010PropOp41
 70
     1
102
RTVSPost2010Prop42
 90
       50
102
RTVSPost2010PropOp42
 70
     1
102
RTVSPost2010Prop43
 90
        3
102
RTVSPost2010PropOp43
 70
     1
102
RTVSPost2010Prop44ColorIndex
 90
        5
102
RTVSPost2010Prop44ColorRGB
 90
      255
102
RTVSPost2010PropOp44
 70
     1
102
RTVSPost2010Prop45
280
     0
102
RTVSPost2010PropOp45
 70
     1
102
RTVSPost2010Prop46
 90
       50
102
RTVSPost2010PropOp46
 70
     1
102
RTVSPost2010Prop47
 90
       50
102
RTVSPost2010PropOp47
 70
     1
102
RTVSPost2010Prop48
 90
       50
102
RTVSPost2010PropOp48
 70
     1
102
RTVSPost2010Prop49
280
     0
102
RTVSPost2010PropOp49
 70
     1
102
RTVSPost2010Prop50
 90
       50
102
RTVSPost2010PropOp50
 70
     1
102
RTVSPost2010Prop51ColorIndex
 90
      256
102
RTVSPost2010Prop51ColorRGB
 90
-16777216
102
RTVSPost2010PropOp51
 70
     0
102
RTVSPost2010Prop52
140
1.0
102
RTVSPost2010PropOp52
 70
     0
102
RTVSPost2010Prop53
 90
        2
102
RTVSPost2010PropOp53
 70
     1
102
RTVSPost2010Prop54
  1
strokes_ogs.tif
102
RTVSPost2010PropOp54
 70
     1
102
RTVSPost2010Prop55
280
     0
102
RTVSPost2010PropOp55
 70
     1
102
RTVSPost2010Prop56
140
1.0
102
RTVSPost2010PropOp56
 70
     1
102
RTVSPost2010Prop57
140
1.0
102
RTVSPost2010PropOp57
 70
     1
  0
XRECORD
  5
67B
102
{ACAD_REACTORS
330
67A
102
}
330
67A
100
AcDbXrecord
280
     1
102
RTVSPropertyOp0
 70
     1
102
RTVSPropertyOp1
 70
     1
102
RTVSPropertyOp2
 70
     1
102
RTVSPropertyOp3
 70
     1
102
RTVSPropertyOp4
 70
     1
102
RTVSPropertyOp5
 70
     1
102
RTVSPropertyOp6
 70
     1
102
RTVSPropertyOp7
 70
     1
102
RTVSPropertyOp8
 70
     1
102
RTVSPropertyOp9
 70
     1
102
RTVSPropertyOp10
 70
     1
102
RTVSPropertyOp11
 70
     1
102
RTVSPropertyOp12
 70
     1
102
RTVSPropertyOp13
 70
     1
102
RTVSPropertyOp14
 70
     1
102
RTVSPropertyOp15
 70
     1
102
RTVSPropertyOp16
 70
     1
102
RTVSPropertyOp17
 70
     1
102
RTVSPropertyOp18
 70
     1
102
RTVSPropertyOp19
 70
     1
102
RTVSPropertyOp20
 70
     1
102
RTVSPropertyOp21
 70
     1
102
RTVSPropertyOp22
 70
     1
102
RTVSPropertyOp23
 70
     1
102
RTVSPropertyOp24
 70
     1
102
RTVSPropertyOp25
 70
     1
102
RTVSPropertyOp26
 70
     1
102
RTVSPropertyOp27
 70
     1
102
RTVSPropertyOp28
 70
     1
102
RTVSPropertyOp29
 70
     1
102
RTVSPropertyOp30
 70
     1
102
RTVSPropertyOp31
 70
     1
102
RTVSPropertyOp32
 70
     1
102
RTVSPropertyOp33
 70
     1
102
RTVSPropertyOp34
 70
     1
102
RTVSPropertyOp35
 70
     1
102
RTVSPropertyOp36
 70
     1
102
RTVSPropertyOp37
 70
     1
102
RTVSPropertyOp38
 70
     1
102
RTVSPropertyOp39
 70
     1
102
RTVSPropertyOp40
 70
     1
102
RTVSPropertyOp41
 70
     1
102
RTVSPropertyOp42
 70
     1
102
RTVSPropertyOp43
 70
     1
102
RTVSPropertyOp44
 70
     1
102
RTVSPropertyOp45
 70
     1
102
RTVSPropertyOp46
 70
     1
102
RTVSPropertyOp47
 70
     1
102
RTVSPropertyOp48
 70
     1
102
RTVSPropertyOp49
 70
     1
102
RTVSPropertyOp50
 70
     1
102
RTVSPropertyOp51
 70
     0
102
RTVSPropertyOp52
 70
     0
102
RTVSPropertyOp53
 70
     1
102
RTVSPropertyOp54
 70
     1
102
RTVSPropertyOp55
 70
     1
102
RTVSPropertyOp56
 70
     1
102
RTVSPropertyOp57
 70
     1
102
RTVSPost2010Prop28
280
     0
102
RTVSPost2010PropOp28
 70
     1
102
RTVSPost2010Prop29
280
     1
102
RTVSPost2010PropOp29
 70
     1
102
RTVSPost2010Prop30
280
     1
102
RTVSPost2010PropOp30
 70
     1
102
RTVSPost2010Prop31
280
     0
102
RTVSPost2010PropOp31
 70
     1
102
RTVSPost2010Prop32
280
     0
102
RTVSPost2010PropOp32
 70
     1
102
RTVSPost2010Prop33
280
     0
102
RTVSPost2010PropOp33
 70
     1
102
RTVSPost2010Prop34
280
     0
102
RTVSPost2010PropOp34
 70
     1
102
RTVSPost2010Prop35
280
     0
102
RTVSPost2010PropOp35
 70
     1
102
RTVSPost2010Prop36
280
     0
102
RTVSPost2010PropOp36
 70
     1
102
RTVSPost2010Prop37
 90
       50
102
RTVSPost2010PropOp37
 70
     1
102
RTVSPost2010Prop38
140
0.0
102
RTVSPost2010PropOp38
 70
     1
102
RTVSPost2010Prop39
140
1.0
102
RTVSPost2010PropOp39
 70
     1
102
RTVSPost2010Prop40
 90
        0
102
RTVSPost2010PropOp40
 70
     1
102
RTVSPost2010Prop41ColorIndex
 90
       18
102
RTVSPost2010Prop41ColorRGB
 90
        0
102
RTVSPost2010PropOp41
 70
     1
102
RTVSPost2010Prop42
 90
       50
102
RTVSPost2010PropOp42
 70
     1
102
RTVSPost2010Prop43
 90
        3
102
RTVSPost2010PropOp43
 70
     1
102
RTVSPost2010Prop44ColorIndex
 90
        5
102
RTVSPost2010Prop44ColorRGB
 90
      255
102
RTVSPost2010PropOp44
 70
     1
102
RTVSPost2010Prop45
280
     0
102
RTVSPost2010PropOp45
 70
     1
102
RTVSPost2010Prop46
 90
       50
102
RTVSPost2010PropOp46
 70
     1
102
RTVSPost2010Prop47
 90
       50
102
RTVSPost2010PropOp47
 70
     1
102
RTVSPost2010Prop48
 90
       50
102
RTVSPost2010PropOp48
 70
     1
102
RTVSPost2010Prop49
280
     0
102
RTVSPost2010PropOp49
 70
     1
102
RTVSPost2010Prop50
 90
       50
102
RTVSPost2010PropOp50
 70
     1
102
RTVSPost2010Prop51ColorIndex
 90
      256
102
RTVSPost2010Prop51ColorRGB
 90
-16777216
102
RTVSPost2010PropOp51
 70
     0
102
RTVSPost2010Prop52
140
1.0
102
RTVSPost2010PropOp52
 70
     0
102
RTVSPost2010Prop53
 90
        2
102
RTVSPost2010PropOp53
 70
     1
102
RTVSPost2010Prop54
  1
strokes_ogs.tif
102
RTVSPost2010PropOp54
 70
     1
102
RTVSPost2010Prop55
280
     0
102
RTVSPost2010PropOp55
 70
     1
102
RTVSPost2010Prop56
140
1.0
102
RTVSPost2010PropOp56
 70
     1
102
RTVSPost2010Prop57
140
1.0
102
RTVSPost2010PropOp57
 70
     1
  0
XRECORD
  5
67D
102
{ACAD_REACTORS
330
67C
102
}
330
67C
100
AcDbXrecord
280
     1
102
RTVSPropertyOp0
 70
     1
102
RTVSPropertyOp1
 70
     1
102
RTVSPropertyOp2
 70
     1
102
RTVSPropertyOp3
 70
     1
102
RTVSPropertyOp4
 70
     1
102
RTVSPropertyOp5
 70
     1
102
RTVSPropertyOp6
 70
     1
102
RTVSPropertyOp7
 70
     1
102
RTVSPropertyOp8
 70
     1
102
RTVSPropertyOp9
 70
     1
102
RTVSPropertyOp10
 70
     1
102
RTVSPropertyOp11
 70
     1
102
RTVSPropertyOp12
 70
     1
102
RTVSPropertyOp13
 70
     1
102
RTVSPropertyOp14
 70
     1
102
RTVSPropertyOp15
 70
     1
102
RTVSPropertyOp16
 70
     1
102
RTVSPropertyOp17
 70
     1
102
RTVSPropertyOp18
 70
     1
102
RTVSPropertyOp19
 70
     1
102
RTVSPropertyOp20
 70
     1
102
RTVSPropertyOp21
 70
     1
102
RTVSPropertyOp22
 70
     1
102
RTVSPropertyOp23
 70
     1
102
RTVSPropertyOp24
 70
     1
102
RTVSPropertyOp25
 70
     1
102
RTVSPropertyOp26
 70
     1
102
RTVSPropertyOp27
 70
     1
102
RTVSPropertyOp28
 70
     1
102
RTVSPropertyOp29
 70
     1
102
RTVSPropertyOp30
 70
     1
102
RTVSPropertyOp31
 70
     1
102
RTVSPropertyOp32
 70
     1
102
RTVSPropertyOp33
 70
     1
102
RTVSPropertyOp34
 70
     1
102
RTVSPropertyOp35
 70
     1
102
RTVSPropertyOp36
 70
     1
102
RTVSPropertyOp37
 70
     1
102
RTVSPropertyOp38
 70
     1
102
RTVSPropertyOp39
 70
     1
102
RTVSPropertyOp40
 70
     1
102
RTVSPropertyOp41
 70
     1
102
RTVSPropertyOp42
 70
     1
102
RTVSPropertyOp43
 70
     1
102
RTVSPropertyOp44
 70
     1
102
RTVSPropertyOp45
 70
     1
102
RTVSPropertyOp46
 70
     1
102
RTVSPropertyOp47
 70
     1
102
RTVSPropertyOp48
 70
     1
102
RTVSPropertyOp49
 70
     1
102
RTVSPropertyOp50
 70
     1
102
RTVSPropertyOp51
 70
     0
102
RTVSPropertyOp52
 70
     0
102
RTVSPropertyOp53
 70
     1
102
RTVSPropertyOp54
 70
     1
102
RTVSPropertyOp55
 70
     1
102
RTVSPropertyOp56
 70
     1
102
RTVSPropertyOp57
 70
     1
102
RTVSPost2010Prop28
280
     0
102
RTVSPost2010PropOp28
 70
     1
102
RTVSPost2010Prop29
280
     1
102
RTVSPost2010PropOp29
 70
     1
102
RTVSPost2010Prop30
280
     1
102
RTVSPost2010PropOp30
 70
     1
102
RTVSPost2010Prop31
280
     0
102
RTVSPost2010PropOp31
 70
     1
102
RTVSPost2010Prop32
280
     0
102
RTVSPost2010PropOp32
 70
     1
102
RTVSPost2010Prop33
280
     0
102
RTVSPost2010PropOp33
 70
     1
102
RTVSPost2010Prop34
280
     0
102
RTVSPost2010PropOp34
 70
     1
102
RTVSPost2010Prop35
280
     0
102
RTVSPost2010PropOp35
 70
     1
102
RTVSPost2010Prop36
280
     0
102
RTVSPost2010PropOp36
 70
     1
102
RTVSPost2010Prop37
 90
       50
102
RTVSPost2010PropOp37
 70
     1
102
RTVSPost2010Prop38
140
0.0
102
RTVSPost2010PropOp38
 70
     1
102
RTVSPost2010Prop39
140
1.0
102
RTVSPost2010PropOp39
 70
     1
102
RTVSPost2010Prop40
 90
        0
102
RTVSPost2010PropOp40
 70
     1
102
RTVSPost2010Prop41ColorIndex
 90
       18
102
RTVSPost2010Prop41ColorRGB
 90
        0
102
RTVSPost2010PropOp41
 70
     1
102
RTVSPost2010Prop42
 90
       50
102
RTVSPost2010PropOp42
 70
     1
102
RTVSPost2010Prop43
 90
        3
102
RTVSPost2010PropOp43
 70
     1
102
RTVSPost2010Prop44ColorIndex
 90
        5
102
RTVSPost2010Prop44ColorRGB
 90
      255
102
RTVSPost2010PropOp44
 70
     1
102
RTVSPost2010Prop45
280
     0
102
RTVSPost2010PropOp45
 70
     1
102
RTVSPost2010Prop46
 90
       50
102
RTVSPost2010PropOp46
 70
     1
102
RTVSPost2010Prop47
 90
       50
102
RTVSPost2010PropOp47
 70
     1
102
RTVSPost2010Prop48
 90
       50
102
RTVSPost2010PropOp48
 70
     1
102
RTVSPost2010Prop49
280
     0
102
RTVSPost2010PropOp49
 70
     1
102
RTVSPost2010Prop50
 90
       50
102
RTVSPost2010PropOp50
 70
     1
102
RTVSPost2010Prop51ColorIndex
 90
      256
102
RTVSPost2010Prop51ColorRGB
 90
-16777216
102
RTVSPost2010PropOp51
 70
     0
102
RTVSPost2010Prop52
140
1.0
102
RTVSPost2010PropOp52
 70
     0
102
RTVSPost2010Prop53
 90
        2
102
RTVSPost2010PropOp53
 70
     1
102
RTVSPost2010Prop54
  1
strokes_ogs.tif
102
RTVSPost2010PropOp54
 70
     1
102
RTVSPost2010Prop55
280
     0
102
RTVSPost2010PropOp55
 70
     1
102
RTVSPost2010Prop56
140
1.0
102
RTVSPost2010PropOp56
 70
     1
102
RTVSPost2010Prop57
140
1.0
102
RTVSPost2010PropOp57
 70
     1
  0
XRECORD
  5
67F
102
{ACAD_REACTORS
330
67E
102
}
330
67E
100
AcDbXrecord
280
     1
102
RTVSPropertyOp0
 70
     1
102
RTVSPropertyOp1
 70
     1
102
RTVSPropertyOp2
 70
     1
102
RTVSPropertyOp3
 70
     1
102
RTVSPropertyOp4
 70
     1
102
RTVSPropertyOp5
 70
     1
102
RTVSPropertyOp6
 70
     1
102
RTVSPropertyOp7
 70
     1
102
RTVSPropertyOp8
 70
     1
102
RTVSPropertyOp9
 70
     1
102
RTVSPropertyOp10
 70
     1
102
RTVSPropertyOp11
 70
     1
102
RTVSPropertyOp12
 70
     1
102
RTVSPropertyOp13
 70
     1
102
RTVSPropertyOp14
 70
     1
102
RTVSPropertyOp15
 70
     1
102
RTVSPropertyOp16
 70
     1
102
RTVSPropertyOp17
 70
     1
102
RTVSPropertyOp18
 70
     1
102
RTVSPropertyOp19
 70
     1
102
RTVSPropertyOp20
 70
     1
102
RTVSPropertyOp21
 70
     1
102
RTVSPropertyOp22
 70
     1
102
RTVSPropertyOp23
 70
     1
102
RTVSPropertyOp24
 70
     1
102
RTVSPropertyOp25
 70
     1
102
RTVSPropertyOp26
 70
     1
102
RTVSPropertyOp27
 70
     1
102
RTVSPropertyOp28
 70
     1
102
RTVSPropertyOp29
 70
     1
102
RTVSPropertyOp30
 70
     1
102
RTVSPropertyOp31
 70
     1
102
RTVSPropertyOp32
 70
     1
102
RTVSPropertyOp33
 70
     1
102
RTVSPropertyOp34
 70
     1
102
RTVSPropertyOp35
 70
     1
102
RTVSPropertyOp36
 70
     1
102
RTVSPropertyOp37
 70
     1
102
RTVSPropertyOp38
 70
     1
102
RTVSPropertyOp39
 70
     1
102
RTVSPropertyOp40
 70
     1
102
RTVSPropertyOp41
 70
     1
102
RTVSPropertyOp42
 70
     1
102
RTVSPropertyOp43
 70
     1
102
RTVSPropertyOp44
 70
     1
102
RTVSPropertyOp45
 70
     1
102
RTVSPropertyOp46
 70
     1
102
RTVSPropertyOp47
 70
     1
102
RTVSPropertyOp48
 70
     1
102
RTVSPropertyOp49
 70
     1
102
RTVSPropertyOp50
 70
     1
102
RTVSPropertyOp51
 70
     0
102
RTVSPropertyOp52
 70
     0
102
RTVSPropertyOp53
 70
     1
102
RTVSPropertyOp54
 70
     1
102
RTVSPropertyOp55
 70
     1
102
RTVSPropertyOp56
 70
     1
102
RTVSPropertyOp57
 70
     1
102
RTVSPost2010Prop28
280
     0
102
RTVSPost2010PropOp28
 70
     1
102
RTVSPost2010Prop29
280
     1
102
RTVSPost2010PropOp29
 70
     1
102
RTVSPost2010Prop30
280
     1
102
RTVSPost2010PropOp30
 70
     1
102
RTVSPost2010Prop31
280
     0
102
RTVSPost2010PropOp31
 70
     1
102
RTVSPost2010Prop32
280
     0
102
RTVSPost2010PropOp32
 70
     1
102
RTVSPost2010Prop33
280
     0
102
RTVSPost2010PropOp33
 70
     1
102
RTVSPost2010Prop34
280
     0
102
RTVSPost2010PropOp34
 70
     1
102
RTVSPost2010Prop35
280
     0
102
RTVSPost2010PropOp35
 70
     1
102
RTVSPost2010Prop36
280
     0
102
RTVSPost2010PropOp36
 70
     1
102
RTVSPost2010Prop37
 90
       50
102
RTVSPost2010PropOp37
 70
     1
102
RTVSPost2010Prop38
140
0.0
102
RTVSPost2010PropOp38
 70
     1
102
RTVSPost2010Prop39
140
1.0
102
RTVSPost2010PropOp39
 70
     1
102
RTVSPost2010Prop40
 90
        0
102
RTVSPost2010PropOp40
 70
     1
102
RTVSPost2010Prop41ColorIndex
 90
       18
102
RTVSPost2010Prop41ColorRGB
 90
        0
102
RTVSPost2010PropOp41
 70
     1
102
RTVSPost2010Prop42
 90
       50
102
RTVSPost2010PropOp42
 70
     1
102
RTVSPost2010Prop43
 90
        3
102
RTVSPost2010PropOp43
 70
     1
102
RTVSPost2010Prop44ColorIndex
 90
        5
102
RTVSPost2010Prop44ColorRGB
 90
      255
102
RTVSPost2010PropOp44
 70
     1
102
RTVSPost2010Prop45
280
     0
102
RTVSPost2010PropOp45
 70
     1
102
RTVSPost2010Prop46
 90
       50
102
RTVSPost2010PropOp46
 70
     1
102
RTVSPost2010Prop47
 90
       50
102
RTVSPost2010PropOp47
 70
     1
102
RTVSPost2010Prop48
 90
       50
102
RTVSPost2010PropOp48
 70
     1
102
RTVSPost2010Prop49
280
     0
102
RTVSPost2010PropOp49
 70
     1
102
RTVSPost2010Prop50
 90
       50
102
RTVSPost2010PropOp50
 70
     1
102
RTVSPost2010Prop51ColorIndex
 90
      256
102
RTVSPost2010Prop51ColorRGB
 90
-16777216
102
RTVSPost2010PropOp51
 70
     0
102
RTVSPost2010Prop52
140
1.0
102
RTVSPost2010PropOp52
 70
     0
102
RTVSPost2010Prop53
 90
        2
102
RTVSPost2010PropOp53
 70
     1
102
RTVSPost2010Prop54
  1
strokes_ogs.tif
102
RTVSPost2010PropOp54
 70
     1
102
RTVSPost2010Prop55
280
     0
102
RTVSPost2010PropOp55
 70
     1
102
RTVSPost2010Prop56
140
1.0
102
RTVSPost2010PropOp56
 70
     1
102
RTVSPost2010Prop57
140
1.0
102
RTVSPost2010PropOp57
 70
     1
  0
XRECORD
  5
681
102
{ACAD_REACTORS
330
680
102
}
330
680
100
AcDbXrecord
280
     1
102
RTVSPropertyOp0
 70
     1
102
RTVSPropertyOp1
 70
     1
102
RTVSPropertyOp2
 70
     1
102
RTVSPropertyOp3
 70
     1
102
RTVSPropertyOp4
 70
     1
102
RTVSPropertyOp5
 70
     1
102
RTVSPropertyOp6
 70
     1
102
RTVSPropertyOp7
 70
     1
102
RTVSPropertyOp8
 70
     1
102
RTVSPropertyOp9
 70
     1
102
RTVSPropertyOp10
 70
     1
102
RTVSPropertyOp11
 70
     1
102
RTVSPropertyOp12
 70
     1
102
RTVSPropertyOp13
 70
     1
102
RTVSPropertyOp14
 70
     1
102
RTVSPropertyOp15
 70
     1
102
RTVSPropertyOp16
 70
     1
102
RTVSPropertyOp17
 70
     1
102
RTVSPropertyOp18
 70
     1
102
RTVSPropertyOp19
 70
     1
102
RTVSPropertyOp20
 70
     1
102
RTVSPropertyOp21
 70
     1
102
RTVSPropertyOp22
 70
     1
102
RTVSPropertyOp23
 70
     1
102
RTVSPropertyOp24
 70
     1
102
RTVSPropertyOp25
 70
     1
102
RTVSPropertyOp26
 70
     1
102
RTVSPropertyOp27
 70
     1
102
RTVSPropertyOp28
 70
     1
102
RTVSPropertyOp29
 70
     1
102
RTVSPropertyOp30
 70
     1
102
RTVSPropertyOp31
 70
     1
102
RTVSPropertyOp32
 70
     1
102
RTVSPropertyOp33
 70
     1
102
RTVSPropertyOp34
 70
     1
102
RTVSPropertyOp35
 70
     1
102
RTVSPropertyOp36
 70
     1
102
RTVSPropertyOp37
 70
     1
102
RTVSPropertyOp38
 70
     1
102
RTVSPropertyOp39
 70
     1
102
RTVSPropertyOp40
 70
     1
102
RTVSPropertyOp41
 70
     1
102
RTVSPropertyOp42
 70
     1
102
RTVSPropertyOp43
 70
     1
102
RTVSPropertyOp44
 70
     1
102
RTVSPropertyOp45
 70
     1
102
RTVSPropertyOp46
 70
     1
102
RTVSPropertyOp47
 70
     1
102
RTVSPropertyOp48
 70
     1
102
RTVSPropertyOp49
 70
     1
102
RTVSPropertyOp50
 70
     1
102
RTVSPropertyOp51
 70
     0
102
RTVSPropertyOp52
 70
     0
102
RTVSPropertyOp53
 70
     1
102
RTVSPropertyOp54
 70
     1
102
RTVSPropertyOp55
 70
     1
102
RTVSPropertyOp56
 70
     1
102
RTVSPropertyOp57
 70
     1
102
RTVSPost2010Prop28
280
     0
102
RTVSPost2010PropOp28
 70
     1
102
RTVSPost2010Prop29
280
     1
102
RTVSPost2010PropOp29
 70
     1
102
RTVSPost2010Prop30
280
     1
102
RTVSPost2010PropOp30
 70
     1
102
RTVSPost2010Prop31
280
     0
102
RTVSPost2010PropOp31
 70
     1
102
RTVSPost2010Prop32
280
     0
102
RTVSPost2010PropOp32
 70
     1
102
RTVSPost2010Prop33
280
     0
102
RTVSPost2010PropOp33
 70
     1
102
RTVSPost2010Prop34
280
     0
102
RTVSPost2010PropOp34
 70
     1
102
RTVSPost2010Prop35
280
     0
102
RTVSPost2010PropOp35
 70
     1
102
RTVSPost2010Prop36
280
     0
102
RTVSPost2010PropOp36
 70
     1
102
RTVSPost2010Prop37
 90
       50
102
RTVSPost2010PropOp37
 70
     1
102
RTVSPost2010Prop38
140
0.0
102
RTVSPost2010PropOp38
 70
     1
102
RTVSPost2010Prop39
140
1.0
102
RTVSPost2010PropOp39
 70
     1
102
RTVSPost2010Prop40
 90
        0
102
RTVSPost2010PropOp40
 70
     1
102
RTVSPost2010Prop41ColorIndex
 90
       18
102
RTVSPost2010Prop41ColorRGB
 90
        0
102
RTVSPost2010PropOp41
 70
     1
102
RTVSPost2010Prop42
 90
       50
102
RTVSPost2010PropOp42
 70
     1
102
RTVSPost2010Prop43
 90
        3
102
RTVSPost2010PropOp43
 70
     1
102
RTVSPost2010Prop44ColorIndex
 90
        5
102
RTVSPost2010Prop44ColorRGB
 90
      255
102
RTVSPost2010PropOp44
 70
     1
102
RTVSPost2010Prop45
280
     0
102
RTVSPost2010PropOp45
 70
     1
102
RTVSPost2010Prop46
 90
       50
102
RTVSPost2010PropOp46
 70
     1
102
RTVSPost2010Prop47
 90
       50
102
RTVSPost2010PropOp47
 70
     1
102
RTVSPost2010Prop48
 90
       50
102
RTVSPost2010PropOp48
 70
     1
102
RTVSPost2010Prop49
280
     0
102
RTVSPost2010PropOp49
 70
     1
102
RTVSPost2010Prop50
 90
       50
102
RTVSPost2010PropOp50
 70
     1
102
RTVSPost2010Prop51ColorIndex
 90
      256
102
RTVSPost2010Prop51ColorRGB
 90
-16777216
102
RTVSPost2010PropOp51
 70
     0
102
RTVSPost2010Prop52
140
1.0
102
RTVSPost2010PropOp52
 70
     0
102
RTVSPost2010Prop53
 90
        2
102
RTVSPost2010PropOp53
 70
     1
102
RTVSPost2010Prop54
  1
strokes_ogs.tif
102
RTVSPost2010PropOp54
 70
     1
102
RTVSPost2010Prop55
280
     0
102
RTVSPost2010PropOp55
 70
     1
102
RTVSPost2010Prop56
140
1.0
102
RTVSPost2010PropOp56
 70
     1
102
RTVSPost2010Prop57
140
1.0
102
RTVSPost2010PropOp57
 70
     1
  0
XRECORD
  5
683
102
{ACAD_REACTORS
330
682
102
}
330
682
100
AcDbXrecord
280
     1
102
RTVSPropertyOp0
 70
     1
102
RTVSPropertyOp1
 70
     1
102
RTVSPropertyOp2
 70
     1
102
RTVSPropertyOp3
 70
     1
102
RTVSPropertyOp4
 70
     1
102
RTVSPropertyOp5
 70
     1
102
RTVSPropertyOp6
 70
     1
102
RTVSPropertyOp7
 70
     1
102
RTVSPropertyOp8
 70
     1
102
RTVSPropertyOp9
 70
     1
102
RTVSPropertyOp10
 70
     1
102
RTVSPropertyOp11
 70
     1
102
RTVSPropertyOp12
 70
     1
102
RTVSPropertyOp13
 70
     1
102
RTVSPropertyOp14
 70
     1
102
RTVSPropertyOp15
 70
     1
102
RTVSPropertyOp16
 70
     1
102
RTVSPropertyOp17
 70
     1
102
RTVSPropertyOp18
 70
     1
102
RTVSPropertyOp19
 70
     1
102
RTVSPropertyOp20
 70
     1
102
RTVSPropertyOp21
 70
     1
102
RTVSPropertyOp22
 70
     1
102
RTVSPropertyOp23
 70
     1
102
RTVSPropertyOp24
 70
     1
102
RTVSPropertyOp25
 70
     1
102
RTVSPropertyOp26
 70
     1
102
RTVSPropertyOp27
 70
     1
102
RTVSPropertyOp28
 70
     1
102
RTVSPropertyOp29
 70
     1
102
RTVSPropertyOp30
 70
     1
102
RTVSPropertyOp31
 70
     1
102
RTVSPropertyOp32
 70
     1
102
RTVSPropertyOp33
 70
     1
102
RTVSPropertyOp34
 70
     1
102
RTVSPropertyOp35
 70
     1
102
RTVSPropertyOp36
 70
     1
102
RTVSPropertyOp37
 70
     1
102
RTVSPropertyOp38
 70
     1
102
RTVSPropertyOp39
 70
     1
102
RTVSPropertyOp40
 70
     1
102
RTVSPropertyOp41
 70
     1
102
RTVSPropertyOp42
 70
     1
102
RTVSPropertyOp43
 70
     1
102
RTVSPropertyOp44
 70
     1
102
RTVSPropertyOp45
 70
     1
102
RTVSPropertyOp46
 70
     1
102
RTVSPropertyOp47
 70
     1
102
RTVSPropertyOp48
 70
     1
102
RTVSPropertyOp49
 70
     1
102
RTVSPropertyOp50
 70
     1
102
RTVSPropertyOp51
 70
     0
102
RTVSPropertyOp52
 70
     0
102
RTVSPropertyOp53
 70
     1
102
RTVSPropertyOp54
 70
     1
102
RTVSPropertyOp55
 70
     1
102
RTVSPropertyOp56
 70
     1
102
RTVSPropertyOp57
 70
     1
102
RTVSPost2010Prop28
280
     0
102
RTVSPost2010PropOp28
 70
     1
102
RTVSPost2010Prop29
280
     1
102
RTVSPost2010PropOp29
 70
     1
102
RTVSPost2010Prop30
280
     1
102
RTVSPost2010PropOp30
 70
     1
102
RTVSPost2010Prop31
280
     0
102
RTVSPost2010PropOp31
 70
     1
102
RTVSPost2010Prop32
280
     0
102
RTVSPost2010PropOp32
 70
     1
102
RTVSPost2010Prop33
280
     0
102
RTVSPost2010PropOp33
 70
     1
102
RTVSPost2010Prop34
280
     0
102
RTVSPost2010PropOp34
 70
     1
102
RTVSPost2010Prop35
280
     0
102
RTVSPost2010PropOp35
 70
     1
102
RTVSPost2010Prop36
280
     0
102
RTVSPost2010PropOp36
 70
     1
102
RTVSPost2010Prop37
 90
       50
102
RTVSPost2010PropOp37
 70
     1
102
RTVSPost2010Prop38
140
0.0
102
RTVSPost2010PropOp38
 70
     1
102
RTVSPost2010Prop39
140
1.0
102
RTVSPost2010PropOp39
 70
     1
102
RTVSPost2010Prop40
 90
        0
102
RTVSPost2010PropOp40
 70
     1
102
RTVSPost2010Prop41ColorIndex
 90
       18
102
RTVSPost2010Prop41ColorRGB
 90
        0
102
RTVSPost2010PropOp41
 70
     1
102
RTVSPost2010Prop42
 90
       50
102
RTVSPost2010PropOp42
 70
     1
102
RTVSPost2010Prop43
 90
        3
102
RTVSPost2010PropOp43
 70
     1
102
RTVSPost2010Prop44ColorIndex
 90
        5
102
RTVSPost2010Prop44ColorRGB
 90
      255
102
RTVSPost2010PropOp44
 70
     1
102
RTVSPost2010Prop45
280
     0
102
RTVSPost2010PropOp45
 70
     1
102
RTVSPost2010Prop46
 90
       50
102
RTVSPost2010PropOp46
 70
     1
102
RTVSPost2010Prop47
 90
       50
102
RTVSPost2010PropOp47
 70
     1
102
RTVSPost2010Prop48
 90
       50
102
RTVSPost2010PropOp48
 70
     1
102
RTVSPost2010Prop49
280
     0
102
RTVSPost2010PropOp49
 70
     1
102
RTVSPost2010Prop50
 90
       50
102
RTVSPost2010PropOp50
 70
     1
102
RTVSPost2010Prop51ColorIndex
 90
      256
102
RTVSPost2010Prop51ColorRGB
 90
-16777216
102
RTVSPost2010PropOp51
 70
     0
102
RTVSPost2010Prop52
140
1.0
102
RTVSPost2010PropOp52
 70
     0
102
RTVSPost2010Prop53
 90
        2
102
RTVSPost2010PropOp53
 70
     1
102
RTVSPost2010Prop54
  1
strokes_ogs.tif
102
RTVSPost2010PropOp54
 70
     1
102
RTVSPost2010Prop55
280
     0
102
RTVSPost2010PropOp55
 70
     1
102
RTVSPost2010Prop56
140
1.0
102
RTVSPost2010PropOp56
 70
     1
102
RTVSPost2010Prop57
140
1.0
102
RTVSPost2010PropOp57
 70
     1
  0
ENDSEC
  0
EOF
