  0
SECTION
  2
HEADER
  9
$ACADVER
  1
AC1014
  9
$ACADMAINTVER
 70
     9
  9
$DWGCODEPAGE
  3
ANSI_1252
  9
$INSBASE
 10
0.0
 20
0.0
 30
0.0
  9
$EXTMIN
 10
2.699165300876108
 20
2.186260201342925
 30
0.0
  9
$EXTMAX
 10
44.3391653008761
 20
31.19626020134293
 30
0.0
  9
$LIMMIN
 10
0.0
 20
0.0
  9
$LIMMAX
 10
46.81102362204724
 20
33.11023622047244
  9
$ORTHOMODE
 70
     0
  9
$REGENMODE
 70
     1
  9
$FILLMODE
 70
     1
  9
$QTEXTMODE
 70
     0
  9
$MIRRTEXT
 70
     1
  9
$DRAGMODE
 70
     2
  9
$LTSCALE
 40
1.0
  9
$OSMODE
 70
    37
  9
$ATTMODE
 70
     1
  9
$TEXTSIZE
 40
0.1377952755905512
  9
$TRACEWID
 40
0.05
  9
$TEXTSTYLE
  7
STANDARD
  9
$CLAYER
  8
0
  9
$CELTYPE
  6
BYLAYER
  9
$CECOLOR
 62
   256
  9
$CELTSCALE
 40
1.0
  9
$DELOBJ
 70
     1
  9
$DISPSILH
 70
     0
  9
$DIMSCALE
 40
1.0
  9
$DIMASZ
 40
0.3715820312499999
  9
$DIMEXO
 40
0.0
  9
$DIMDLI
 40
0.38
  9
$DIMRND
 40
0.0
  9
$DIMDLE
 40
0.0
  9
$DIMEXE
 40
0.078740157480315
  9
$DIMTP
 40
0.0
  9
$DIMTM
 40
0.0
  9
$DIMTXT
 40
0.5
  9
$DIMCEN
 40
0.09
  9
$DIMTSZ
 40
0.0
  9
$DIMTOL
 70
     0
  9
$DIMLIM
 70
     0
  9
$DIMTIH
 70
     1
  9
$DIMTOH
 70
     1
  9
$DIMSE1
 70
     0
  9
$DIMSE2
 70
     0
  9
$DIMTAD
 70
     1
  9
$DIMZIN
 70
     0
  9
$DIMBLK
  1

  9
$DIMASO
 70
     1
  9
$DIMSHO
 70
     1
  9
$DIMPOST
  1

  9
$DIMAPOST
  1

  9
$DIMALT
 70
     0
  9
$DIMALTD
 70
     2
  9
$DIMALTF
 40
25.4
  9
$DIMLFAC
 40
1.0
  9
$DIMTOFL
 70
     0
  9
$DIMTVP
 40
0.0
  9
$DIMTIX
 70
     0
  9
$DIMSOXD
 70
     0
  9
$DIMSAH
 70
     0
  9
$DIMBLK1
  1

  9
$DIMBLK2
  1

  9
$DIMSTYLE
  2
STANDARD
  9
$DIMCLRD
 70
     0
  9
$DIMCLRE
 70
     0
  9
$DIMCLRT
 70
     0
  9
$DIMTFAC
 40
1.0
  9
$DIMGAP
 40
0.06
  9
$DIMJUST
 70
     0
  9
$DIMSD1
 70
     0
  9
$DIMSD2
 70
     0
  9
$DIMTOLJ
 70
     1
  9
$DIMTZIN
 70
     0
  9
$DIMALTZ
 70
     0
  9
$DIMALTTZ
 70
     0
  9
$DIMFIT
 70
     3
  9
$DIMUPT
 70
     0
  9
$DIMUNIT
 70
     2
  9
$DIMDEC
 70
     2
  9
$DIMTDEC
 70
     2
  9
$DIMALTU
 70
     2
  9
$DIMALTTD
 70
     2
  9
$DIMTXSTY
  7
STANDARD
  9
$DIMAUNIT
 70
     0
  9
$LUNITS
 70
     2
  9
$LUPREC
 70
     2
  9
$SKETCHINC
 40
0.1
  9
$FILLETRAD
 40
0.5
  9
$AUNITS
 70
     0
  9
$AUPREC
 70
     2
  9
$MENU
  1
.
  9
$ELEVATION
 40
0.0
  9
$PELEVATION
 40
0.0
  9
$THICKNESS
 40
0.0
  9
$LIMCHECK
 70
     0
  9
$CHAMFERA
 40
0.0
  9
$CHAMFERB
 40
0.0
  9
$CHAMFERC
 40
0.0
  9
$CHAMFERD
 40
0.0
  9
$SKPOLY
 70
     0
  9
$TDCREATE
 40
2458009.813427627
  9
$TDUPDATE
 40
2458010.489865822
  9
$TDINDWG
 40
0.0043065278
  9
$TDUSRTIMER
 40
0.0043065278
  9
$USRTIMER
 70
     1
  9
$ANGBASE
 50
0.0
  9
$ANGDIR
 70
     0
  9
$PDMODE
 70
     0
  9
$PDSIZE
 40
-1.0
  9
$PLINEWID
 40
0.0
  9
$COORDS
 70
     1
  9
$SPLFRAME
 70
     0
  9
$SPLINETYPE
 70
     6
  9
$SPLINESEGS
 70
     8
  9
$ATTDIA
 70
     0
  9
$ATTREQ
 70
     1
  9
$HANDLING
 70
     1
  9
$HANDSEED
  5
557
  9
$SURFTAB1
 70
     6
  9
$SURFTAB2
 70
     6
  9
$SURFTYPE
 70
     6
  9
$SURFU
 70
     6
  9
$SURFV
 70
     6
  9
$UCSNAME
  2

  9
$UCSORG
 10
0.0
 20
0.0
 30
0.0
  9
$UCSXDIR
 10
1.0
 20
0.0
 30
0.0
  9
$UCSYDIR
 10
0.0
 20
1.0
 30
0.0
  9
$PUCSNAME
  2

  9
$PUCSORG
 10
0.0
 20
0.0
 30
0.0
  9
$PUCSXDIR
 10
1.0
 20
0.0
 30
0.0
  9
$PUCSYDIR
 10
0.0
 20
1.0
 30
0.0
  9
$USERI1
 70
     0
  9
$USERI2
 70
     0
  9
$USERI3
 70
     0
  9
$USERI4
 70
     0
  9
$USERI5
 70
     0
  9
$USERR1
 40
0.0
  9
$USERR2
 40
0.0
  9
$USERR3
 40
0.0
  9
$USERR4
 40
0.0
  9
$USERR5
 40
0.0
  9
$WORLDVIEW
 70
     1
  9
$SHADEDGE
 70
     3
  9
$SHADEDIF
 70
    70
  9
$TILEMODE
 70
     1
  9
$MAXACTVP
 70
    48
  9
$PINSBASE
 10
0.0
 20
0.0
 30
0.0
  9
$PLIMCHECK
 70
     0
  9
$PEXTMIN
 10
1.000000000000000E+20
 20
1.000000000000000E+20
 30
1.000000000000000E+20
  9
$PEXTMAX
 10
-1.000000000000000E+20
 20
-1.000000000000000E+20
 30
-1.000000000000000E+20
  9
$PLIMMIN
 10
0.0
 20
0.0
  9
$PLIMMAX
 10
12.0
 20
9.0
  9
$UNITMODE
 70
     0
  9
$VISRETAIN
 70
     1
  9
$PLINEGEN
 70
     0
  9
$PSLTSCALE
 70
     1
  9
$TREEDEPTH
 70
  3020
  9
$PICKSTYLE
 70
     1
  9
$CMLSTYLE
  2
STANDARD
  9
$CMLJUST
 70
     0
  9
$CMLSCALE
 40
1.0
  9
$PROXYGRAPHICS
 70
     1
  9
$MEASUREMENT
 70
     0
  0
ENDSEC
  0
SECTION
  2
CLASSES
  0
CLASS
  1
ACDBDICTIONARYWDFLT
  2
AcDbDictionaryWithDefault
  3
ObjectDBX Classes
 90
        0
280
     0
281
     0
  0
CLASS
  1
VISUALSTYLE
  2
AcDbVisualStyle
  3
ObjectDBX Classes
 90
     4095
280
     0
281
     0
  0
CLASS
  1
MATERIAL
  2
AcDbMaterial
  3
ObjectDBX Classes
 90
     1153
280
     0
281
     0
  0
CLASS
  1
SCALE
  2
AcDbScale
  3
ObjectDBX Classes
 90
     1153
280
     0
281
     0
  0
CLASS
  1
TABLESTYLE
  2
AcDbTableStyle
  3
ObjectDBX Classes
 90
     4095
280
     0
281
     0
  0
CLASS
  1
MLEADERSTYLE
  2
AcDbMLeaderStyle
  3
ACDB_MLEADERSTYLE_CLASS
 90
     4095
280
     0
281
     0
  0
CLASS
  1
SUN
  2
AcDbSun
  3
SCENEOE
 90
     1153
280
     0
281
     0
  0
CLASS
  1
ACDBPLACEHOLDER
  2
AcDbPlaceHolder
  3
ObjectDBX Classes
 90
        0
280
     0
281
     0
  0
CLASS
  1
LAYOUT
  2
AcDbLayout
  3
ObjectDBX Classes
 90
        0
280
     0
281
     0
  0
CLASS
  1
ACDBSECTIONVIEWSTYLE
  2
AcDbSectionViewStyle
  3
ObjectDBX Classes
 90
     1025
280
     0
281
     0
  0
CLASS
  1
ACDBDETAILVIEWSTYLE
  2
AcDbDetailViewStyle
  3
ObjectDBX Classes
 90
     1025
280
     0
281
     0
  0
CLASS
  1
SORTENTSTABLE
  2
AcDbSortentsTable
  3
ObjectDBX Classes
 90
        0
280
     0
281
     0
  0
CLASS
  1
DICTIONARYVAR
  2
AcDbDictionaryVar
  3
ObjectDBX Classes
 90
        0
280
     0
281
     0
  0
CLASS
  1
CELLSTYLEMAP
  2
AcDbCellStyleMap
  3
ObjectDBX Classes
 90
     1152
280
     0
281
     0
  0
CLASS
  1
LWPOLYLINE
  2
AcDbPolyline
  3
ObjectDBX Classes
 90
        0
280
     0
281
     1
  0
CLASS
  1
HATCH
  2
AcDbHatch
  3
ObjectDBX Classes
 90
        0
280
     0
281
     1
  0
CLASS
  1
XRECORD
  2
AcDbXrecord
  3
ObjectDBX Classes
 90
        0
280
     0
281
     0
  0
ENDSEC
  0
SECTION
  2
TABLES
  0
TABLE
  2
VPORT
  5
8
102
{ACAD_XDICTIONARY
360
54F
102
}
330
0
100
AcDbSymbolTable
 70
     1
  0
VPORT
  5
29
330
8
100
AcDbSymbolTableRecord
100
AcDbViewportTableRecord
  2
*ACTIVE
 70
     0
 10
0.0
 20
0.0
 11
1.0
 21
1.0
 12
27.79493075906493
 22
15.82475611038763
 13
0.0
 23
0.0
 14
0.5
 24
0.5
 15
0.5
 25
0.5
 16
0.0
 26
0.0
 36
1.0
 17
0.0
 27
0.0
 37
0.0
 40
45.12712414482831
 41
2.692745376955903
 42
50.0
 43
0.0
 44
0.0
 50
0.0
 51
0.0
 71
     0
 72
  2000
 73
     1
 74
     3
 75
     0
 76
     0
 77
     0
 78
     0
1001
ACAD_NAV_VCDISPLAY
1070
     3
  0
ENDTAB
  0
TABLE
  2
LTYPE
  5
5
330
0
100
AcDbSymbolTable
 70
     6
  0
LTYPE
  5
14
330
5
100
AcDbSymbolTableRecord
100
AcDbLinetypeTableRecord
  2
BYBLOCK
 70
     0
  3

 72
    65
 73
     0
 40
0.0
  0
LTYPE
  5
15
330
5
100
AcDbSymbolTableRecord
100
AcDbLinetypeTableRecord
  2
BYLAYER
 70
     0
  3

 72
    65
 73
     0
 40
0.0
  0
LTYPE
  5
16
330
5
100
AcDbSymbolTableRecord
100
AcDbLinetypeTableRecord
  2
CONTINUOUS
 70
     0
  3
Solid line
 72
    65
 73
     0
 40
0.0
  0
LTYPE
  5
6E
330
5
100
AcDbSymbolTableRecord
100
AcDbLinetypeTableRecord
  2
HIDDEN
 70
     0
  3
Hidden __ __ __ __ __ __ __ __ __ __ __ __ __ __
 72
    65
 73
     2
 40
0.075
 49
0.05
 74
     0
 49
-0.025
 74
     0
  0
LTYPE
  5
6F
330
5
100
AcDbSymbolTableRecord
100
AcDbLinetypeTableRecord
  2
PHANTOM
 70
     0
  3
Phantom ______  __  __  ______  __  __  ______
 72
    65
 73
     6
 40
0.4999999999999999
 49
0.25
 74
     0
 49
-0.05
 74
     0
 49
0.05
 74
     0
 49
-0.05
 74
     0
 49
0.05
 74
     0
 49
-0.05
 74
     0
  0
LTYPE
  5
70
330
5
100
AcDbSymbolTableRecord
100
AcDbLinetypeTableRecord
  2
CENTER
 70
     0
  3
Center ____ _ ____ _ ____ _ ____ _ ____ _ ____
 72
    65
 73
     4
 40
0.4
 49
0.25
 74
     0
 49
-0.05
 74
     0
 49
0.05
 74
     0
 49
-0.05
 74
     0
  0
LTYPE
  5
71
330
5
100
AcDbSymbolTableRecord
100
AcDbLinetypeTableRecord
  2
CENTERX2
 70
     0
  3
Center (2x) ________  __  ________  __  _____
 72
    65
 73
     4
 40
0.7999999999999999
 49
0.5
 74
     0
 49
-0.1
 74
     0
 49
0.1
 74
     0
 49
-0.1
 74
     0
  0
LTYPE
  5
72
330
5
100
AcDbSymbolTableRecord
100
AcDbLinetypeTableRecord
  2
DOT2
 70
     0
  3
Dot (.5x) ........................................
 72
    65
 73
     2
 40
0.025
 49
0.0
 74
     0
 49
-0.025
 74
     0
  0
ENDTAB
  0
TABLE
  2
LAYER
  5
2
102
{ACAD_XDICTIONARY
360
345
102
}
330
0
100
AcDbSymbolTable
 70
    19
  0
LAYER
  5
10
102
{ACAD_XDICTIONARY
360
36B
102
}
330
2
100
AcDbSymbolTableRecord
100
AcDbLayerTableRecord
  2
0
 70
     0
 62
     7
  6
CONTINUOUS
  0
LAYER
  5
73
102
{ACAD_XDICTIONARY
360
36D
102
}
330
2
100
AcDbSymbolTableRecord
100
AcDbLayerTableRecord
  2
SLD-0
 70
     0
 62
     7
  6
CONTINUOUS
  0
LAYER
  5
74
102
{ACAD_XDICTIONARY
360
36F
102
}
330
2
100
AcDbSymbolTableRecord
100
AcDbLayerTableRecord
  2
10
 70
     0
 62
     7
  6
CONTINUOUS
  0
LAYER
  5
75
102
{ACAD_XDICTIONARY
360
371
102
}
330
2
100
AcDbSymbolTableRecord
100
AcDbLayerTableRecord
  2
5
 70
     0
 62
     7
  6
CONTINUOUS
  0
LAYER
  5
76
102
{ACAD_XDICTIONARY
360
373
102
}
330
2
100
AcDbSymbolTableRecord
100
AcDbLayerTableRecord
  2
9
 70
     0
 62
     7
  6
CONTINUOUS
  0
LAYER
  5
77
102
{ACAD_XDICTIONARY
360
375
102
}
330
2
100
AcDbSymbolTableRecord
100
AcDbLayerTableRecord
  2
_____
 70
     0
 62
     7
  6
CONTINUOUS
1001
ACADSTRINGINFO
1000
MIFCodePage
1070
     5
  0
LAYER
  5
78
102
{ACAD_XDICTIONARY
360
377
102
}
330
2
100
AcDbSymbolTableRecord
100
AcDbLayerTableRecord
  2
___
 70
     0
 62
     4
  6
CONTINUOUS
1001
ACADSTRINGINFO
1000
MIFCodePage
1070
     5
  0
LAYER
  5
79
102
{ACAD_XDICTIONARY
360
379
102
}
330
2
100
AcDbSymbolTableRecord
100
AcDbLayerTableRecord
  2
____
 70
     0
 62
     1
  6
CENTERX2
1001
ACADSTRINGINFO
1000
MIFCodePage
1070
     5
  0
LAYER
  5
7A
102
{ACAD_XDICTIONARY
360
37B
102
}
330
2
100
AcDbSymbolTableRecord
100
AcDbLayerTableRecord
  2
___0
 70
     0
 62
     6
  6
HIDDEN
1001
ACADSTRINGINFO
1000
MIFCodePage
1070
     5
  0
LAYER
  5
7B
102
{ACAD_XDICTIONARY
360
37D
102
}
330
2
100
AcDbSymbolTableRecord
100
AcDbLayerTableRecord
  2
____0
 70
     0
 62
     2
  6
CONTINUOUS
1001
ACADSTRINGINFO
1000
MIFCodePage
1070
     5
  0
LAYER
  5
7C
102
{ACAD_XDICTIONARY
360
37F
102
}
330
2
100
AcDbSymbolTableRecord
100
AcDbLayerTableRecord
  2
___1
 70
     0
 62
     3
  6
CONTINUOUS
1001
ACADSTRINGINFO
1000
MIFCodePage
1070
     5
  0
LAYER
  5
7D
102
{ACAD_XDICTIONARY
360
381
102
}
330
2
100
AcDbSymbolTableRecord
100
AcDbLayerTableRecord
  2
___2
 70
     0
 62
     1
  6
CONTINUOUS
1001
ACADSTRINGINFO
1000
MIFCodePage
1070
     5
  0
LAYER
  5
7E
102
{ACAD_XDICTIONARY
360
383
102
}
330
2
100
AcDbSymbolTableRecord
100
AcDbLayerTableRecord
  2
_____0
 70
     0
 62
    31
  6
CONTINUOUS
1001
ACADSTRINGINFO
1000
MIFCodePage
1070
     5
  0
LAYER
  5
7F
102
{ACAD_XDICTIONARY
360
385
102
}
330
2
100
AcDbSymbolTableRecord
100
AcDbLayerTableRecord
  2
_____1
 70
     0
 62
     6
  6
PHANTOM
1001
ACADSTRINGINFO
1000
MIFCodePage
1070
     5
  0
LAYER
  5
80
102
{ACAD_XDICTIONARY
360
387
102
}
330
2
100
AcDbSymbolTableRecord
100
AcDbLayerTableRecord
  2
____1
 70
     0
 62
     7
  6
CONTINUOUS
1001
ACADSTRINGINFO
1000
MIFCodePage
1070
     5
  0
LAYER
  5
81
102
{ACAD_XDICTIONARY
360
389
102
}
330
2
100
AcDbSymbolTableRecord
100
AcDbLayerTableRecord
  2
____2
 70
     0
 62
     7
  6
CONTINUOUS
1001
ACADSTRINGINFO
1000
MIFCodePage
1070
     5
  0
LAYER
  5
82
102
{ACAD_XDICTIONARY
360
38B
102
}
330
2
100
AcDbSymbolTableRecord
100
AcDbLayerTableRecord
  2
____3
 70
     0
 62
     7
  6
CENTER
1001
ACADSTRINGINFO
1000
MIFCodePage
1070
     5
  0
LAYER
  5
83
102
{ACAD_XDICTIONARY
360
38D
102
}
330
2
100
AcDbSymbolTableRecord
100
AcDbLayerTableRecord
  2
__
 70
     0
 62
     7
  6
CONTINUOUS
1001
ACADSTRINGINFO
1000
MIFCodePage
1070
     5
  0
LAYER
  5
84
102
{ACAD_XDICTIONARY
360
38F
102
}
330
2
100
AcDbSymbolTableRecord
100
AcDbLayerTableRecord
  2
TB
 70
     0
 62
   254
  6
CONTINUOUS
  0
ENDTAB
  0
TABLE
  2
STYLE
  5
3
330
0
100
AcDbSymbolTable
 70
     5
  0
STYLE
  5
11
330
3
100
AcDbSymbolTableRecord
100
AcDbTextStyleTableRecord
  2
STANDARD
 70
     0
 40
0.0
 41
1.0
 50
0.0
 71
     0
 42
0.1377952755905512
  3
txt
  4

  0
STYLE
  5
110
330
3
100
AcDbSymbolTableRecord
100
AcDbTextStyleTableRecord
  2
SLDTEXTSTYLE0
 70
     0
 40
0.0
 41
0.7
 50
0.0
 71
     0
 42
0.1377952755905512
  3
TXT
  4

  0
STYLE
  5
116
330
3
100
AcDbSymbolTableRecord
100
AcDbTextStyleTableRecord
  2
SLDTEXTSTYLE1
 70
     0
 40
0.0
 41
0.7368421052631579
 50
0.0
 71
     0
 42
0.1377952755905512
  3
TXT
  4

  0
STYLE
  5
11A
330
3
100
AcDbSymbolTableRecord
100
AcDbTextStyleTableRecord
  2
SLDTEXTSTYLE2
 70
     0
 40
0.0
 41
0.6353383458646616
 50
0.0
 71
     0
 42
0.1377952755905512
  3
TXT
  4

  0
STYLE
  5
139
330
3
100
AcDbSymbolTableRecord
100
AcDbTextStyleTableRecord
  2
SLDTEXTSTYLE3
 70
     0
 40
0.0
 41
0.6333333333333334
 50
0.0
 71
     0
 42
0.1377952755905512
  3
TXT
  4

  0
ENDTAB
  0
TABLE
  2
VIEW
  5
6
330
0
100
AcDbSymbolTable
 70
     0
  0
ENDTAB
  0
TABLE
  2
UCS
  5
7
330
0
100
AcDbSymbolTable
 70
     0
  0
ENDTAB
  0
TABLE
  2
APPID
  5
9
330
0
100
AcDbSymbolTable
 70
     4
  0
APPID
  5
12
330
9
100
AcDbSymbolTableRecord
100
AcDbRegAppTableRecord
  2
ACAD
 70
     0
  0
APPID
  5
344
330
9
100
AcDbSymbolTableRecord
100
AcDbRegAppTableRecord
  2
ACAD_NAV_VCDISPLAY
 70
     0
  0
APPID
  5
42C
330
9
100
AcDbSymbolTableRecord
100
AcDbRegAppTableRecord
  2
ACADSTRINGINFO
 70
     0
  0
APPID
  5
470
330
9
100
AcDbSymbolTableRecord
100
AcDbRegAppTableRecord
  2
ACAD_MLEADERVER
 70
     0
  0
ENDTAB
  0
TABLE
  2
DIMSTYLE
  5
A
330
0
100
AcDbSymbolTable
 70
     5
  0
DIMSTYLE
105
27
330
A
100
AcDbSymbolTableRecord
100
AcDbDimStyleTableRecord
  2
STANDARD
 70
     0
  3

  4

  5

  6

  7

 40
1.0
 41
0.18
 42
0.0625
 43
0.38
 44
0.18
 45
0.0
 46
0.0
 47
0.0
 48
0.0
140
0.18
141
0.09
142
0.0
143
25.4
144
1.0
145
0.0
146
1.0
147
0.09
 71
     0
 72
     0
 73
     1
 74
     1
 75
     0
 76
     0
 77
     0
 78
     0
170
     0
171
     2
172
     0
173
     0
174
     0
175
     0
176
     0
177
     0
178
     0
270
     2
271
     4
272
     4
273
     2
274
     2
340
11
275
     0
280
     0
281
     0
282
     0
283
     1
284
     0
285
     0
286
     0
287
     3
288
     0
  0
DIMSTYLE
105
18A
102
{ACAD_REACTORS
330
189
330
19B
102
}
330
A
100
AcDbSymbolTableRecord
100
AcDbDimStyleTableRecord
  2
SLDDIMSTYLE0
 70
     0
  3

  4

  5

  6

  7

 40
1.0
 41
0.3715820312499999
 42
0.0625
 43
0.38
 44
0.0
 45
0.000000001
 46
0.0
 47
0.0
 48
0.0
140
0.3715820312499999
141
0.09
142
0.0
143
25.40983606557377
144
1.0
145
0.0
146
1.0
147
0.0928955078125
 71
     0
 72
     0
 73
     0
 74
     0
 75
     0
 76
     0
 77
     2
 78
    12
170
     1
171
     2
172
     0
173
     1
174
     0
175
     0
176
     0
177
     0
178
     0
270
     2
271
     2
272
     2
273
     2
274
     2
340
110
275
     0
280
     0
281
     0
282
     0
283
     1
284
    12
285
     0
286
     0
287
     3
288
     0
  0
DIMSTYLE
105
1D1
102
{ACAD_REACTORS
330
1D0
102
}
330
A
100
AcDbSymbolTableRecord
100
AcDbDimStyleTableRecord
  2
SLDDIMSTYLE1
 70
     0
  3

  4

  5

  6

  7

 40
1.0
 41
0.3715820312499999
 42
0.0625
 43
0.38
 44
0.0
 45
0.000000001
 46
0.0
 47
0.0
 48
0.0
140
0.3715820312499999
141
0.09
142
0.0
143
26.36363636363636
144
1.0
145
0.0
146
1.0
147
0.0928955078125
 71
     0
 72
     0
 73
     0
 74
     0
 75
     0
 76
     0
 77
     2
 78
     8
170
     1
171
     2
172
     1
173
     1
174
     0
175
     0
176
     0
177
     0
178
     0
270
     2
271
     2
272
     2
273
     2
274
     2
340
110
275
     0
280
     0
281
     0
282
     0
283
     1
284
    12
285
     0
286
     0
288
     0
  0
DIMSTYLE
105
270
102
{ACAD_REACTORS
330
26F
330
281
102
}
330
A
100
AcDbSymbolTableRecord
100
AcDbDimStyleTableRecord
  2
SLDDIMSTYLE2
 70
     0
  3

  4

  5

  6

  7

 40
1.0
 41
0.3715820312499999
 42
0.0625
 43
0.38
 44
0.0
 45
0.000000001
 46
0.0
 47
0.0
 48
0.0
140
0.3715820312499999
141
0.09
142
0.0
143
25.41200406917599
144
1.0
145
0.0
146
1.0
147
0.0928955078125
 71
     0
 72
     0
 73
     0
 74
     0
 75
     0
 76
     0
 77
     2
 78
    12
170
     1
171
     2
172
     0
173
     1
174
     0
175
     0
176
     0
177
     0
178
     0
270
     2
271
     2
272
     2
273
     2
274
     2
340
110
275
     0
280
     0
281
     0
282
     0
283
     1
284
    12
285
     0
286
     0
287
     3
288
     0
  0
DIMSTYLE
105
343
330
A
100
AcDbSymbolTableRecord
100
AcDbDimStyleTableRecord
  2
00
 70
     0
  3

  4

  5

  6

  7

 40
1.0
 41
0.18
 42
0.1
 43
0.1
 44
0.1
 45
0.0
 46
0.0
 47
0.0
 48
0.0
140
0.125
141
0.0
142
0.0
143
25.4
144
1.0
145
0.0
146
1.0
147
0.09
 71
     0
 72
     0
 73
     1
 74
     1
 75
     0
 76
     0
 77
     0
 78
     1
170
     1
171
     1
172
     1
173
     0
174
     0
175
     0
176
     1
177
     1
178
     4
270
     2
271
     2
272
     2
273
     2
274
     1
340
11
275
     0
280
     0
281
     0
282
     0
283
     1
284
     4
285
     4
286
     4
287
     5
288
     1
  0
ENDTAB
  0
TABLE
  2
BLOCK_RECORD
  5
1
330
0
100
AcDbSymbolTable
 70
     8
  0
BLOCK_RECORD
  5
1F
330
1
100
AcDbSymbolTableRecord
100
AcDbBlockTableRecord
  2
*MODEL_SPACE
  0
BLOCK_RECORD
  5
1B
330
1
100
AcDbSymbolTableRecord
100
AcDbBlockTableRecord
  2
*PAPER_SPACE
  0
BLOCK_RECORD
  5
130
330
1
100
AcDbSymbolTableRecord
100
AcDbBlockTableRecord
  2
SW_NOTE_0
  0
BLOCK_RECORD
  5
18B
330
1
100
AcDbSymbolTableRecord
100
AcDbBlockTableRecord
  2
_D
  0
BLOCK_RECORD
  5
19C
330
1
100
AcDbSymbolTableRecord
100
AcDbBlockTableRecord
  2
_D_1
  0
BLOCK_RECORD
  5
1AC
330
1
100
AcDbSymbolTableRecord
100
AcDbBlockTableRecord
  2
SW_CENTERMARKSYMBOL_0
  0
BLOCK_RECORD
  5
1D2
330
1
100
AcDbSymbolTableRecord
100
AcDbBlockTableRecord
  2
_D_2
  0
BLOCK_RECORD
  5
1F2
330
1
100
AcDbSymbolTableRecord
100
AcDbBlockTableRecord
  2
SW_CENTERMARKSYMBOL_1
  0
BLOCK_RECORD
  5
271
330
1
100
AcDbSymbolTableRecord
100
AcDbBlockTableRecord
  2
_D_3
  0
BLOCK_RECORD
  5
282
330
1
100
AcDbSymbolTableRecord
100
AcDbBlockTableRecord
  2
_D_4
  0
ENDTAB
  0
ENDSEC
  0
SECTION
  2
BLOCKS
  0
BLOCK
  5
20
330
1F
100
AcDbEntity
  8
0
100
AcDbBlockBegin
  2
*MODEL_SPACE
 70
     0
 10
0.0
 20
0.0
 30
0.0
  3
*MODEL_SPACE
  1

  0
ENDBLK
  5
21
330
1F
100
AcDbEntity
  8
0
100
AcDbBlockEnd
  0
BLOCK
  5
1C
330
1B
100
AcDbEntity
 67
     1
  8
0
100
AcDbBlockBegin
  2
*PAPER_SPACE
 70
     0
 10
0.0
 20
0.0
 30
0.0
  3
*PAPER_SPACE
  1

  0
ENDBLK
  5
1D
330
1B
100
AcDbEntity
 67
     1
  8
0
100
AcDbBlockEnd
  0
BLOCK
  5
131
330
130
100
AcDbEntity
  8
0
100
AcDbBlockBegin
  2
SW_NOTE_0
 70
     0
 10
0.0
 20
0.0
 30
0.0
  3
SW_NOTE_0
  1

  0
MTEXT
  5
133
330
130
100
AcDbEntity
  8
___1
 62
     0
100
AcDbMText
 10
-0.3491225128549047
 20
-0.0000000000000011
 30
0.0
 40
0.2708333333333333
 41
0.0
 71
     1
 72
     1
  1
SONANCE
  7
SLDTEXTSTYLE0
 11
-3.491481338843133E-15
 21
1.0
 31
0.0
  0
MTEXT
  5
134
330
130
100
AcDbEntity
  8
___1
 62
     0
100
AcDbMText
 10
0.0710437033491115
 20
0.0
 30
0.0
 40
0.2708333333333333
 41
0.0
 71
     1
 72
     1
  1
212 Avenida Fabricante, San Clemente, CA. 92630
  7
SLDTEXTSTYLE0
 11
-3.491481338843133E-15
 21
1.0
 31
0.0
  0
MTEXT
  5
135
330
130
100
AcDbEntity
  8
___1
 62
     0
100
AcDbMText
 10
0.4912099195531278
 20
0.0000000000000011
 30
0.0
 40
0.2708333333333333
 41
0.0
 71
     1
 72
     1
  1
58800 2-7777 949 492-7777  FAX 949 361-5579
  7
SLDTEXTSTYLE0
 11
-3.491481338843133E-15
 21
1.0
 31
0.0
  0
MTEXT
  5
136
330
130
100
AcDbEntity
  8
___1
 62
     0
100
AcDbMText
 10
0.911376135757144
 20
0.0000000000000022
 30
0.0
 40
0.2708333333333333
 41
0.0
 71
     1
 72
     1
  1
www.sonance.com
  7
SLDTEXTSTYLE0
 11
-3.491481338843133E-15
 21
1.0
 31
0.0
  0
ENDBLK
  5
132
330
130
100
AcDbEntity
  8
0
100
AcDbBlockEnd
  0
BLOCK
  5
18C
330
18B
100
AcDbEntity
  8
0
100
AcDbBlockBegin
  2
_D
 70
     0
 10
0.0
 20
0.0
 30
0.0
  3
_D
  1

  0
SOLID
  5
18E
330
18B
100
AcDbEntity
  8
___2
100
AcDbTrace
 10
16.53912837284294
 20
28.60092275760463
 30
0.0
 11
16.48196190649679
 21
28.22934072635463
 31
0.0
 12
16.5962948391891
 22
28.22934072635463
 32
0.0
 13
16.5962948391891
 23
28.22934072635463
 33
0.0
  0
SOLID
  5
18F
330
18B
100
AcDbEntity
  8
___2
100
AcDbTrace
 10
16.53912837284294
 20
19.44737945051802
 30
0.0
 11
16.5962948391891
 21
19.81896148176802
 31
0.0
 12
16.48196190649679
 22
19.81896148176802
 32
0.0
 13
16.48196190649679
 23
19.81896148176802
 33
0.0
  0
LINE
  5
190
330
18B
100
AcDbEntity
  8
___2
100
AcDbLine
 10
15.34832975905015
 20
22.89101411286597
 30
0.0
 11
15.34832975905015
 21
22.80160438656809
 31
0.0
  0
LINE
  5
191
330
18B
100
AcDbEntity
  8
___2
100
AcDbLine
 10
15.34832975905015
 20
22.80160438656809
 30
0.0
 11
15.94971866175423
 21
22.8016043865681
 31
0.0
  0
LINE
  5
192
330
18B
100
AcDbEntity
  8
___2
100
AcDbLine
 10
15.94971866175423
 20
22.8016043865681
 30
0.0
 11
15.94971866175423
 21
22.89101411286598
 31
0.0
  0
LINE
  5
193
330
18B
100
AcDbEntity
  8
___2
100
AcDbLine
 10
15.34832975905014
 20
25.08606620043695
 30
0.0
 11
15.34832975905014
 21
25.17547592673483
 31
0.0
  0
LINE
  5
194
330
18B
100
AcDbEntity
  8
___2
100
AcDbLine
 10
15.34832975905014
 20
25.17547592673483
 30
0.0
 11
15.94971866175421
 21
25.17547592673483
 31
0.0
  0
LINE
  5
195
330
18B
100
AcDbEntity
  8
___2
100
AcDbLine
 10
15.94971866175421
 20
25.17547592673483
 30
0.0
 11
15.94971866175421
 21
25.08606620043695
 31
0.0
  0
LINE
  5
196
330
18B
100
AcDbEntity
  8
___2
100
AcDbLine
 10
15.12180553819728
 20
28.60092275760463
 30
0.0
 11
16.61786853032326
 21
28.60092275760463
 31
0.0
  0
LINE
  5
197
330
18B
100
AcDbEntity
  8
___2
100
AcDbLine
 10
15.12180553819728
 20
19.44737945051802
 30
0.0
 11
16.61786853032326
 21
19.44737945051802
 31
0.0
  0
LINE
  5
198
330
18B
100
AcDbEntity
  8
___2
100
AcDbLine
 10
16.53912837284294
 20
28.60092275760463
 30
0.0
 11
16.53912837284294
 21
19.44737945051802
 31
0.0
  0
MTEXT
  5
199
330
18B
100
AcDbEntity
  8
___2
100
AcDbMText
 10
15.46631825933974
 20
23.00277627761324
 30
0.0
 40
0.3749999999999999
 41
0.0
 71
     1
 72
     1
  1
232.50
  7
SLDTEXTSTYLE0
 11
-7.044195017643634E-15
 21
1.0
 31
0.0
  0
MTEXT
  5
19A
330
18B
100
AcDbEntity
  8
___2
100
AcDbMText
 10
16.0557280070947
 20
23.36041507280603
 30
0.0
 40
0.3749999999999999
 41
0.0
 71
     1
 72
     1
  1
9.15
  7
SLDTEXTSTYLE0
 11
-7.044195017643634E-15
 21
1.0
 31
0.0
  0
ENDBLK
  5
18D
330
18B
100
AcDbEntity
  8
0
100
AcDbBlockEnd
  0
BLOCK
  5
19D
330
19C
100
AcDbEntity
  8
0
100
AcDbBlockBegin
  2
_D_1
 70
     0
 10
0.0
 20
0.0
 30
0.0
  3
_D_1
  1

  0
SOLID
  5
19F
330
19C
100
AcDbEntity
  8
___2
100
AcDbTrace
 10
6.047002388590974
 20
17.87257630091171
 30
0.0
 11
6.418584419840974
 21
17.81540983456556
 31
0.0
 12
6.418584419840974
 22
17.92974276725786
 32
0.0
 13
6.418584419840974
 23
17.92974276725786
 33
0.0
  0
SOLID
  5
1A0
330
19C
100
AcDbEntity
  8
___2
100
AcDbTrace
 10
15.20054569567759
 20
17.87257630091171
 30
0.0
 11
14.82896366442759
 21
17.92974276725786
 31
0.0
 12
14.82896366442759
 22
17.81540983456556
 32
0.0
 13
14.82896366442759
 23
17.81540983456556
 33
0.0
  0
LINE
  5
1A1
330
19C
100
AcDbEntity
  8
___2
100
AcDbLine
 10
9.773527065351889
 20
19.06337491470451
 30
0.0
 11
9.68411733905401
 21
19.06337491470451
 31
0.0
  0
LINE
  5
1A2
330
19C
100
AcDbEntity
  8
___2
100
AcDbLine
 10
9.68411733905401
 20
19.06337491470451
 30
0.0
 11
9.68411733905401
 21
18.46198601200043
 31
0.0
  0
LINE
  5
1A3
330
19C
100
AcDbEntity
  8
___2
100
AcDbLine
 10
9.68411733905401
 20
18.46198601200043
 30
0.0
 11
9.773527065351889
 21
18.46198601200043
 31
0.0
  0
LINE
  5
1A4
330
19C
100
AcDbEntity
  8
___2
100
AcDbLine
 10
11.96857915292286
 20
19.06337491470451
 30
0.0
 11
12.05798887922074
 21
19.06337491470451
 31
0.0
  0
LINE
  5
1A5
330
19C
100
AcDbEntity
  8
___2
100
AcDbLine
 10
12.05798887922074
 20
19.06337491470451
 30
0.0
 11
12.05798887922074
 21
18.46198601200043
 31
0.0
  0
LINE
  5
1A6
330
19C
100
AcDbEntity
  8
___2
100
AcDbLine
 10
12.05798887922074
 20
18.46198601200043
 30
0.0
 11
11.96857915292286
 21
18.46198601200043
 31
0.0
  0
LINE
  5
1A7
330
19C
100
AcDbEntity
  8
___2
100
AcDbLine
 10
6.047002388590974
 20
19.52611960799833
 30
0.0
 11
6.047002388590974
 21
17.7938361434314
 31
0.0
  0
LINE
  5
1A8
330
19C
100
AcDbEntity
  8
___2
100
AcDbLine
 10
15.20054569567759
 20
19.52611960799833
 30
0.0
 11
15.20054569567759
 21
17.7938361434314
 31
0.0
  0
LINE
  5
1A9
330
19C
100
AcDbEntity
  8
___2
100
AcDbLine
 10
6.047002388590974
 20
17.87257630091171
 30
0.0
 11
15.20054569567759
 21
17.87257630091171
 31
0.0
  0
MTEXT
  5
1AA
330
19C
100
AcDbEntity
  8
___2
100
AcDbMText
 10
9.885289230099158
 20
18.94538641441492
 30
0.0
 40
0.3749999999999999
 41
0.0
 71
     1
 72
     1
  1
232.50
  7
SLDTEXTSTYLE0
  0
MTEXT
  5
1AB
330
19C
100
AcDbEntity
  8
___2
100
AcDbMText
 10
10.24292802529194
 20
18.35597666665995
 30
0.0
 40
0.3749999999999999
 41
0.0
 71
     1
 72
     1
  1
9.15
  7
SLDTEXTSTYLE0
  0
ENDBLK
  5
19E
330
19C
100
AcDbEntity
  8
0
100
AcDbBlockEnd
  0
BLOCK
  5
1AD
330
1AC
100
AcDbEntity
  8
0
100
AcDbBlockBegin
  2
SW_CENTERMARKSYMBOL_0
 70
     0
 10
0.0
 20
0.0
 30
0.0
  3
SW_CENTERMARKSYMBOL_0
  1

  0
LINE
  5
1AF
330
1AC
100
AcDbEntity
  8
___2
 62
     0
100
AcDbLine
 10
0.0
 20
0.0
 30
0.0
 11
0.0
 21
0.0984251968503916
 31
0.0
  0
LINE
  5
1B0
330
1AC
100
AcDbEntity
  8
___2
 62
     0
100
AcDbLine
 10
0.0
 20
0.0
 30
0.0
 11
-0.0984251968503938
 21
0.0
 31
0.0
  0
LINE
  5
1B1
330
1AC
100
AcDbEntity
  8
___2
 62
     0
100
AcDbLine
 10
0.0
 20
0.0
 30
0.0
 11
0.0
 21
-0.098425196850396
 31
0.0
  0
LINE
  5
1B2
330
1AC
100
AcDbEntity
  8
___2
 62
     0
100
AcDbLine
 10
0.0
 20
0.0
 30
0.0
 11
0.0984251968503938
 21
0.0
 31
0.0
  0
LINE
  5
1B3
330
1AC
100
AcDbEntity
  8
___2
 62
     0
100
AcDbLine
 10
0.0
 20
0.1968503937007876
 30
0.0
 11
0.0
 21
4.966807548430437
 31
0.0
  0
LINE
  5
1B4
330
1AC
100
AcDbEntity
  8
___2
 62
     0
100
AcDbLine
 10
-0.1968503937007876
 20
0.0
 30
0.0
 11
-5.136303666953933
 21
0.0
 31
0.0
  0
LINE
  5
1B5
330
1AC
100
AcDbEntity
  8
___2
 62
     0
100
AcDbLine
 10
0.0
 20
-0.1968503937007876
 30
0.0
 11
0.0
 21
-4.868319492567241
 31
0.0
  0
LINE
  5
1B6
330
1AC
100
AcDbEntity
  8
___2
 62
     0
100
AcDbLine
 10
0.1968503937007876
 20
0.0
 30
0.0
 11
4.725574309451545
 21
0.0
 31
0.0
  0
ENDBLK
  5
1AE
330
1AC
100
AcDbEntity
  8
0
100
AcDbBlockEnd
  0
BLOCK
  5
1D3
330
1D2
100
AcDbEntity
  8
0
100
AcDbBlockBegin
  2
_D_2
 70
     0
 10
0.0
 20
0.0
 30
0.0
  3
_D_2
  1

  0
SOLID
  5
1D5
330
1D2
100
AcDbEntity
  8
___2
100
AcDbTrace
 10
36.08389838806842
 20
18.58123771823455
 30
0.0
 11
36.45548041931842
 21
18.5240712518884
 31
0.0
 12
36.45548041931842
 22
18.63840418458071
 32
0.0
 13
36.45548041931842
 23
18.63840418458071
 33
0.0
  0
SOLID
  5
1D6
330
1D2
100
AcDbEntity
  8
___2
100
AcDbTrace
 10
35.96972515972197
 20
18.58123771823455
 30
0.0
 11
35.59814312847197
 21
18.63840418458071
 31
0.0
 12
35.59814312847197
 22
18.5240712518884
 32
0.0
 13
35.59814312847197
 23
18.5240712518884
 33
0.0
  0
LINE
  5
1D7
330
1D2
100
AcDbEntity
  8
___2
100
AcDbLine
 10
33.89125530729638
 20
19.77203633202735
 30
0.0
 11
33.80184558099851
 21
19.77203633202735
 31
0.0
  0
LINE
  5
1D8
330
1D2
100
AcDbEntity
  8
___2
100
AcDbLine
 10
33.80184558099851
 20
19.77203633202735
 30
0.0
 11
33.8018455809985
 21
19.17064742932327
 31
0.0
  0
LINE
  5
1D9
330
1D2
100
AcDbEntity
  8
___2
100
AcDbLine
 10
33.8018455809985
 20
19.17064742932327
 30
0.0
 11
33.89125530729638
 21
19.17064742932327
 31
0.0
  0
LINE
  5
1DA
330
1D2
100
AcDbEntity
  8
___2
100
AcDbLine
 10
35.37102965781681
 20
19.77203633202734
 30
0.0
 11
35.46043938411469
 21
19.77203633202734
 31
0.0
  0
LINE
  5
1DB
330
1D2
100
AcDbEntity
  8
___2
100
AcDbLine
 10
35.46043938411469
 20
19.77203633202734
 30
0.0
 11
35.46043938411469
 21
19.17064742932326
 31
0.0
  0
LINE
  5
1DC
330
1D2
100
AcDbEntity
  8
___2
100
AcDbLine
 10
35.46043938411469
 20
19.17064742932326
 30
0.0
 11
35.37102965781681
 21
19.17064742932326
 31
0.0
  0
LINE
  5
1DD
330
1D2
100
AcDbEntity
  8
___2
100
AcDbLine
 10
36.08389838806842
 20
19.50643456862825
 30
0.0
 11
36.08389838806842
 21
18.50249756075424
 31
0.0
  0
LINE
  5
1DE
330
1D2
100
AcDbEntity
  8
___2
100
AcDbLine
 10
35.96972515972197
 20
19.44737945051802
 30
0.0
 11
35.96972515972197
 21
18.50249756075424
 31
0.0
  0
LINE
  5
1DF
330
1D2
100
AcDbEntity
  8
___2
100
AcDbLine
 10
36.08389838806842
 20
18.58123771823455
 30
0.0
 11
36.79847921739535
 21
18.58123771823455
 31
0.0
  0
LINE
  5
1E0
330
1D2
100
AcDbEntity
  8
___2
100
AcDbLine
 10
36.08389838806842
 20
18.58123771823455
 30
0.0
 11
35.96972515972197
 21
18.58123771823455
 31
0.0
  0
LINE
  5
1E1
330
1D2
100
AcDbEntity
  8
___2
100
AcDbLine
 10
35.96972515972197
 20
18.58123771823455
 30
0.0
 11
33.73478828398345
 21
18.58123771823455
 31
0.0
  0
MTEXT
  5
1E2
330
1D2
100
AcDbEntity
  8
___2
100
AcDbMText
 10
34.00301747204366
 20
19.65404783173776
 30
0.0
 40
0.3749999999999999
 41
0.0
 71
     1
 72
     1
  1
2.90
  7
SLDTEXTSTYLE0
  0
MTEXT
  5
1E3
330
1D2
100
AcDbEntity
  8
___2
100
AcDbMText
 10
34.00301747204365
 20
19.0646380839828
 30
0.0
 40
0.3749999999999999
 41
0.0
 71
     1
 72
     1
  1
0.11
  7
SLDTEXTSTYLE0
  0
ENDBLK
  5
1D4
330
1D2
100
AcDbEntity
  8
0
100
AcDbBlockEnd
  0
BLOCK
  5
1F3
330
1F2
100
AcDbEntity
  8
0
100
AcDbBlockBegin
  2
SW_CENTERMARKSYMBOL_1
 70
     0
 10
0.0
 20
0.0
 30
0.0
  3
SW_CENTERMARKSYMBOL_1
  1

  0
LINE
  5
1F5
330
1F2
100
AcDbEntity
  8
___2
 62
     0
100
AcDbLine
 10
0.0
 20
0.0
 30
0.0
 11
0.0
 21
0.0984251968503916
 31
0.0
  0
LINE
  5
1F6
330
1F2
100
AcDbEntity
  8
___2
 62
     0
100
AcDbLine
 10
0.0
 20
0.0
 30
0.0
 11
-0.098425196850396
 21
0.0
 31
0.0
  0
LINE
  5
1F7
330
1F2
100
AcDbEntity
  8
___2
 62
     0
100
AcDbLine
 10
0.0
 20
0.0
 30
0.0
 11
0.0
 21
-0.098425196850396
 31
0.0
  0
LINE
  5
1F8
330
1F2
100
AcDbEntity
  8
___2
 62
     0
100
AcDbLine
 10
0.0
 20
0.0
 30
0.0
 11
0.0984251968503916
 21
0.0
 31
0.0
  0
LINE
  5
1F9
330
1F2
100
AcDbEntity
  8
___2
 62
     0
100
AcDbLine
 10
0.0
 20
0.1968503937007876
 30
0.0
 11
0.0
 21
4.966807548430437
 31
0.0
  0
LINE
  5
1FA
330
1F2
100
AcDbEntity
  8
___2
 62
     0
100
AcDbLine
 10
-0.1968503937007876
 20
0.0
 30
0.0
 11
-4.860805775607786
 21
0.0
 31
0.0
  0
LINE
  5
1FB
330
1F2
100
AcDbEntity
  8
___2
 62
     0
100
AcDbLine
 10
0.0
 20
-0.1968503937007876
 30
0.0
 11
0.0
 21
-4.789322488221877
 31
0.0
  0
LINE
  5
1FC
330
1F2
100
AcDbEntity
  8
___2
 62
     0
100
AcDbLine
 10
0.1968503937007876
 20
0.0
 30
0.0
 11
4.776828754526481
 21
0.0
 31
0.0
  0
ENDBLK
  5
1F4
330
1F2
100
AcDbEntity
  8
0
100
AcDbBlockEnd
  0
BLOCK
  5
272
330
271
100
AcDbEntity
  8
0
100
AcDbBlockBegin
  2
_D_3
 70
     0
 10
0.0
 20
0.0
 30
0.0
  3
_D_3
  1

  0
SOLID
  5
274
330
271
100
AcDbEntity
  8
___2
100
AcDbTrace
 10
22.60293595633565
 20
14.18354161053972
 30
0.0
 11
22.54576948998949
 21
13.81195957928972
 31
0.0
 12
22.6601024226818
 22
13.81195957928972
 32
0.0
 13
22.6601024226818
 23
13.81195957928972
 33
0.0
  0
SOLID
  5
275
330
271
100
AcDbEntity
  8
___2
100
AcDbTrace
 10
22.60293595633565
 20
4.348918035534809
 30
0.0
 11
22.6601024226818
 21
4.720500066784809
 31
0.0
 12
22.54576948998949
 22
4.720500066784809
 32
0.0
 13
22.54576948998949
 23
4.720500066784809
 33
0.0
  0
LINE
  5
276
330
271
100
AcDbEntity
  8
___2
100
AcDbLine
 10
21.41213734254287
 20
8.124433084277685
 30
0.0
 11
21.41213734254287
 21
8.035023357979806
 31
0.0
  0
LINE
  5
277
330
271
100
AcDbEntity
  8
___2
100
AcDbLine
 10
21.41213734254287
 20
8.035023357979806
 30
0.0
 11
22.01352624524694
 21
8.035023357979812
 31
0.0
  0
LINE
  5
278
330
271
100
AcDbEntity
  8
___2
100
AcDbLine
 10
22.01352624524694
 20
8.035023357979812
 30
0.0
 11
22.01352624524694
 21
8.12443308427769
 31
0.0
  0
LINE
  5
279
330
271
100
AcDbEntity
  8
___2
100
AcDbLine
 10
21.41213734254285
 20
10.31948517184866
 30
0.0
 11
21.41213734254285
 21
10.40889489814654
 31
0.0
  0
LINE
  5
27A
330
271
100
AcDbEntity
  8
___2
100
AcDbLine
 10
21.41213734254285
 20
10.40889489814654
 30
0.0
 11
22.01352624524693
 21
10.40889489814654
 31
0.0
  0
LINE
  5
27B
330
271
100
AcDbEntity
  8
___2
100
AcDbLine
 10
22.01352624524693
 20
10.40889489814654
 30
0.0
 11
22.01352624524693
 21
10.31948517184866
 31
0.0
  0
LINE
  5
27C
330
271
100
AcDbEntity
  8
___2
100
AcDbLine
 10
20.9622322084028
 20
14.18354161053972
 30
0.0
 11
22.68167611381596
 21
14.18354161053972
 31
0.0
  0
LINE
  5
27D
330
271
100
AcDbEntity
  8
___2
100
AcDbLine
 10
20.9622322084028
 20
4.34891803553481
 30
0.0
 11
22.68167611381596
 21
4.348918035534809
 31
0.0
  0
LINE
  5
27E
330
271
100
AcDbEntity
  8
___2
100
AcDbLine
 10
22.60293595633565
 20
14.18354161053972
 30
0.0
 11
22.60293595633565
 21
4.348918035534809
 31
0.0
  0
MTEXT
  5
27F
330
271
100
AcDbEntity
  8
___2
100
AcDbMText
 10
21.53012584283246
 20
8.236195249024956
 30
0.0
 40
0.3749999999999999
 41
0.0
 71
     1
 72
     1
  1
249.80
  7
SLDTEXTSTYLE0
 11
-7.044195017643634E-15
 21
1.0
 31
0.0
  0
MTEXT
  5
280
330
271
100
AcDbEntity
  8
___2
100
AcDbMText
 10
22.11953559058742
 20
8.593834044217745
 30
0.0
 40
0.3749999999999999
 41
0.0
 71
     1
 72
     1
  1
9.83
  7
SLDTEXTSTYLE0
 11
-7.044195017643634E-15
 21
1.0
 31
0.0
  0
ENDBLK
  5
273
330
271
100
AcDbEntity
  8
0
100
AcDbBlockEnd
  0
BLOCK
  5
283
330
282
100
AcDbEntity
  8
0
100
AcDbBlockBegin
  2
_D_4
 70
     0
 10
0.0
 20
0.0
 30
0.0
  3
_D_4
  1

  0
SOLID
  5
285
330
282
100
AcDbEntity
  8
___2
100
AcDbTrace
 10
11.19013637518801
 20
3.006962501833029
 30
0.0
 11
11.56171840643801
 21
2.949796035486875
 31
0.0
 12
11.56171840643801
 22
3.064128968179183
 32
0.0
 13
11.56171840643801
 23
3.064128968179183
 33
0.0
  0
SOLID
  5
286
330
282
100
AcDbEntity
  8
___2
100
AcDbTrace
 10
21.02475995019293
 20
3.006962501833029
 30
0.0
 11
20.65317791894293
 21
3.064128968179183
 31
0.0
 12
20.65317791894293
 22
2.949796035486875
 32
0.0
 13
20.65317791894293
 23
2.949796035486875
 33
0.0
  0
LINE
  5
287
330
282
100
AcDbEntity
  8
___2
100
AcDbLine
 10
14.96815829224469
 20
4.19776111562583
 30
0.0
 11
14.87874856594681
 21
4.19776111562583
 31
0.0
  0
LINE
  5
288
330
282
100
AcDbEntity
  8
___2
100
AcDbLine
 10
14.87874856594681
 20
4.19776111562583
 30
0.0
 11
14.87874856594681
 21
3.596372212921752
 31
0.0
  0
LINE
  5
289
330
282
100
AcDbEntity
  8
___2
100
AcDbLine
 10
14.87874856594681
 20
3.596372212921752
 30
0.0
 11
14.96815829224469
 21
3.596372212921752
 31
0.0
  0
LINE
  5
28A
330
282
100
AcDbEntity
  8
___2
100
AcDbLine
 10
17.16321037981566
 20
4.19776111562583
 30
0.0
 11
17.25262010611354
 21
4.19776111562583
 31
0.0
  0
LINE
  5
28B
330
282
100
AcDbEntity
  8
___2
100
AcDbLine
 10
17.25262010611354
 20
4.19776111562583
 30
0.0
 11
17.25262010611354
 21
3.596372212921752
 31
0.0
  0
LINE
  5
28C
330
282
100
AcDbEntity
  8
___2
100
AcDbLine
 10
17.25262010611354
 20
3.596372212921752
 30
0.0
 11
17.16321037981566
 21
3.596372212921752
 31
0.0
  0
LINE
  5
28D
330
282
100
AcDbEntity
  8
___2
100
AcDbLine
 10
11.19013637518801
 20
4.411445777324929
 30
0.0
 11
11.19013637518801
 21
2.928222344352714
 31
0.0
  0
LINE
  5
28E
330
282
100
AcDbEntity
  8
___2
100
AcDbLine
 10
21.02475995019293
 20
4.411445777324922
 30
0.0
 11
21.02475995019293
 21
2.928222344352714
 31
0.0
  0
LINE
  5
28F
330
282
100
AcDbEntity
  8
___2
100
AcDbLine
 10
11.19013637518801
 20
3.006962501833029
 30
0.0
 11
21.02475995019293
 21
3.006962501833029
 31
0.0
  0
MTEXT
  5
290
330
282
100
AcDbEntity
  8
___2
100
AcDbMText
 10
15.07992045699196
 20
4.079772615336239
 30
0.0
 40
0.3749999999999999
 41
0.0
 71
     1
 72
     1
  1
249.80
  7
SLDTEXTSTYLE0
  0
MTEXT
  5
291
330
282
100
AcDbEntity
  8
___2
100
AcDbMText
 10
15.43755925218474
 20
3.490362867581275
 30
0.0
 40
0.3749999999999999
 41
0.0
 71
     1
 72
     1
  1
9.83
  7
SLDTEXTSTYLE0
  0
ENDBLK
  5
284
330
282
100
AcDbEntity
  8
0
100
AcDbBlockEnd
  0
ENDSEC
  0
SECTION
  2
ENTITIES
  0
HATCH
  5
85
330
1F
100
AcDbEntity
  8
TB
100
AcDbHatch
 10
0.0
 20
0.0
 30
0.0
210
0.0
220
0.0
230
1.0
  2
SOLID
 70
     1
 71
     0
 91
        1
 92
        0
 93
        4
 72
     1
 10
42.92916530087611
 20
3.996260201342923
 11
42.92916530087611
 21
5.096260201342925
 72
     1
 10
42.92916530087611
 20
5.096260201342925
 11
41.82916530087611
 21
5.096260201342925
 72
     1
 10
41.82916530087611
 20
5.096260201342925
 11
41.82916530087611
 21
3.996260201342923
 72
     1
 10
41.82916530087611
 20
3.996260201342923
 11
42.92916530087611
 21
3.996260201342923
 97
        0
 75
     0
 76
     1
 98
        1
 10
0.0
 20
0.0
  0
HATCH
  5
86
330
1F
100
AcDbEntity
  8
TB
100
AcDbHatch
 10
0.0
 20
0.0
 30
0.0
210
0.0
220
0.0
230
1.0
  2
SOLID
 70
     1
 71
     0
 91
        1
 92
        0
 93
        4
 72
     1
 10
43.66916530087612
 20
3.256260201342921
 11
43.66916530087612
 21
3.996260201342923
 72
     1
 10
43.66916530087612
 20
3.996260201342923
 11
42.92916530087611
 21
3.996260201342923
 72
     1
 10
42.92916530087611
 20
3.996260201342923
 11
42.92916530087611
 21
3.256260201342921
 72
     1
 10
42.92916530087611
 20
3.256260201342921
 11
43.66916530087612
 21
3.256260201342921
 97
        0
 75
     0
 76
     1
 98
        1
 10
0.0
 20
0.0
  0
HATCH
  5
87
330
1F
100
AcDbEntity
  8
TB
100
AcDbHatch
 10
0.0
 20
0.0
 30
0.0
210
0.0
220
0.0
230
1.0
  2
SOLID
 70
     1
 71
     0
 91
        1
 92
        0
 93
        4
 72
     1
 10
44.03916530087611
 20
2.886260201342921
 11
44.03916530087611
 21
3.256260201342921
 72
     1
 10
44.03916530087611
 20
3.256260201342921
 11
43.66916530087612
 21
3.256260201342921
 72
     1
 10
43.66916530087612
 20
3.256260201342921
 11
43.66916530087612
 21
2.886260201342921
 72
     1
 10
43.66916530087612
 20
2.886260201342921
 11
44.03916530087611
 21
2.886260201342921
 97
        0
 75
     0
 76
     1
 98
        1
 10
0.0
 20
0.0
  0
LINE
  5
8E
330
1F
100
AcDbEntity
  8
____2
100
AcDbLine
 10
3.949165300876109
 20
31.19626020134292
 30
0.0
 11
41.33916530087611
 21
31.19626020134292
 31
0.0
  0
LINE
  5
8F
330
1F
100
AcDbEntity
  8
____2
100
AcDbLine
 10
2.699165300876108
 20
29.94626020134292
 30
0.0
 11
2.699165300876111
 21
3.436260201342925
 31
0.0
  0
LINE
  5
90
330
1F
100
AcDbEntity
  8
____2
100
AcDbLine
 10
3.949165300876111
 20
2.186260201342925
 30
0.0
 11
41.33916530087611
 21
2.186260201342925
 31
0.0
  0
LINE
  5
91
330
1F
100
AcDbEntity
  8
____2
100
AcDbLine
 10
44.33916530087609
 20
3.436260201342925
 30
0.0
 11
44.3391653008761
 21
29.94626020134293
 31
0.0
  0
LINE
  5
92
330
1F
100
AcDbEntity
  8
____2
100
AcDbLine
 10
41.64916530087611
 20
31.19626020134292
 30
0.0
 11
41.64916530087611
 21
2.186260201342925
 31
0.0
  0
LINE
  5
93
330
1F
100
AcDbEntity
  8
____2
100
AcDbLine
 10
41.33916530087611
 20
31.19626020134292
 30
0.0
 11
41.33916530087611
 21
2.186260201342925
 31
0.0
  0
LINE
  5
94
330
1F
100
AcDbEntity
  8
____2
100
AcDbLine
 10
41.64916530087611
 20
2.186260201342925
 30
0.0
 11
43.08916530087609
 21
2.186260201342925
 31
0.0
  0
LINE
  5
95
330
1F
100
AcDbEntity
  8
TB
100
AcDbLine
 10
41.64916530087611
 20
2.186260201342925
 30
0.0
 11
43.08916530087609
 21
2.186260201342925
 31
0.0
  0
LINE
  5
96
330
1F
100
AcDbEntity
  8
____2
100
AcDbLine
 10
41.64916530087611
 20
31.19626020134292
 30
0.0
 11
43.08916530087609
 21
31.19626020134293
 31
0.0
  0
LINE
  5
97
330
1F
100
AcDbEntity
  8
____2
100
AcDbLine
 10
41.64916530087611
 20
16.74626020134292
 30
0.0
 11
44.33916530087609
 21
16.74626020134292
 31
0.0
  0
LINE
  5
A5
330
1F
100
AcDbEntity
  8
SLD-0
100
AcDbLine
 10
41.82916530087611
 20
5.096260201342925
 30
0.0
 11
42.92916530087611
 21
5.096260201342925
 31
0.0
  0
LINE
  5
A6
330
1F
100
AcDbEntity
  8
SLD-0
100
AcDbLine
 10
41.82916530087611
 20
5.096260201342925
 30
0.0
 11
41.82916530087611
 21
3.996260201342923
 31
0.0
  0
LINE
  5
A7
330
1F
100
AcDbEntity
  8
SLD-0
100
AcDbLine
 10
41.82916530087611
 20
3.996260201342923
 30
0.0
 11
42.92916530087611
 21
3.996260201342923
 31
0.0
  0
LINE
  5
A8
330
1F
100
AcDbEntity
  8
SLD-0
100
AcDbLine
 10
42.92916530087611
 20
5.096260201342925
 30
0.0
 11
42.92916530087611
 21
3.996260201342923
 31
0.0
  0
LINE
  5
A9
330
1F
100
AcDbEntity
  8
SLD-0
100
AcDbLine
 10
42.92916530087611
 20
3.996260201342923
 30
0.0
 11
43.66916530087612
 21
3.996260201342923
 31
0.0
  0
LINE
  5
AA
330
1F
100
AcDbEntity
  8
SLD-0
100
AcDbLine
 10
42.92916530087611
 20
3.996260201342923
 30
0.0
 11
42.92916530087611
 21
3.256260201342921
 31
0.0
  0
LINE
  5
AB
330
1F
100
AcDbEntity
  8
SLD-0
100
AcDbLine
 10
42.92916530087611
 20
3.256260201342921
 30
0.0
 11
43.66916530087612
 21
3.256260201342921
 31
0.0
  0
LINE
  5
AC
330
1F
100
AcDbEntity
  8
SLD-0
100
AcDbLine
 10
43.66916530087612
 20
3.996260201342923
 30
0.0
 11
43.66916530087612
 21
3.256260201342921
 31
0.0
  0
LINE
  5
AD
330
1F
100
AcDbEntity
  8
SLD-0
100
AcDbLine
 10
43.66916530087612
 20
3.256260201342921
 30
0.0
 11
44.03916530087611
 21
3.256260201342921
 31
0.0
  0
LINE
  5
AE
330
1F
100
AcDbEntity
  8
SLD-0
100
AcDbLine
 10
43.66916530087612
 20
3.256260201342921
 30
0.0
 11
43.66916530087612
 21
2.886260201342921
 31
0.0
  0
LINE
  5
AF
330
1F
100
AcDbEntity
  8
SLD-0
100
AcDbLine
 10
43.66916530087612
 20
2.886260201342921
 30
0.0
 11
44.03916530087611
 21
2.886260201342921
 31
0.0
  0
LINE
  5
B0
330
1F
100
AcDbEntity
  8
SLD-0
100
AcDbLine
 10
44.03916530087611
 20
3.256260201342921
 30
0.0
 11
44.03916530087611
 21
2.886260201342921
 31
0.0
  0
LINE
  5
FA
330
1F
100
AcDbEntity
  8
SLD-0
100
AcDbLine
 10
43.6591653008761
 20
16.74626020134292
 30
0.0
 11
43.6591653008761
 21
20.55626020134293
 31
0.0
  0
LINE
  5
FB
330
1F
100
AcDbEntity
  8
SLD-0
100
AcDbLine
 10
43.6591653008761
 20
20.55626020134293
 30
0.0
 11
44.3391653008761
 21
20.55626020134293
 31
0.0
  0
LINE
  5
FC
330
1F
100
AcDbEntity
  8
SLD-0
100
AcDbLine
 10
43.6591653008761
 20
20.55626020134293
 30
0.0
 11
42.9791653008761
 21
20.55626020134293
 31
0.0
  0
LINE
  5
FD
330
1F
100
AcDbEntity
  8
SLD-0
100
AcDbLine
 10
42.9791653008761
 20
20.55626020134293
 30
0.0
 11
42.9791653008761
 21
16.74626020134292
 31
0.0
  0
LINE
  5
FE
330
1F
100
AcDbEntity
  8
SLD-0
100
AcDbLine
 10
43.6591653008761
 20
20.55626020134293
 30
0.0
 11
43.6591653008761
 21
24.36626020134293
 31
0.0
  0
LINE
  5
FF
330
1F
100
AcDbEntity
  8
SLD-0
100
AcDbLine
 10
43.6591653008761
 20
24.36626020134293
 30
0.0
 11
44.3391653008761
 21
24.36626020134293
 31
0.0
  0
LINE
  5
100
330
1F
100
AcDbEntity
  8
TB
100
AcDbLine
 10
43.6591653008761
 20
24.36626020134293
 30
0.0
 11
44.3391653008761
 21
24.36626020134293
 31
0.0
  0
LINE
  5
101
330
1F
100
AcDbEntity
  8
SLD-0
100
AcDbLine
 10
42.9791653008761
 20
20.55626020134293
 30
0.0
 11
42.9791653008761
 21
24.36626020134293
 31
0.0
  0
LINE
  5
102
330
1F
100
AcDbEntity
  8
SLD-0
100
AcDbLine
 10
42.9791653008761
 20
24.36626020134293
 30
0.0
 11
43.6591653008761
 21
24.36626020134293
 31
0.0
  0
LINE
  5
103
330
1F
100
AcDbEntity
  8
SLD-0
100
AcDbLine
 10
42.9791653008761
 20
24.36626020134293
 30
0.0
 11
42.9791653008761
 21
28.86626020134293
 31
0.0
  0
LINE
  5
104
330
1F
100
AcDbEntity
  8
SLD-0
100
AcDbLine
 10
42.9791653008761
 20
28.86626020134293
 30
0.0
 11
44.3391653008761
 21
28.86626020134293
 31
0.0
  0
LINE
  5
105
330
1F
100
AcDbEntity
  8
SLD-0
100
AcDbLine
 10
42.9791653008761
 20
28.86626020134293
 30
0.0
 11
42.9791653008761
 21
31.19626020134293
 31
0.0
  0
ARC
  5
106
330
1F
100
AcDbEntity
  8
____2
100
AcDbCircle
 10
3.949165300876109
 20
29.94626020134292
 30
0.0
 40
1.250000000000001
100
AcDbArc
 50
90.0
 51
180.0
  0
ARC
  5
107
330
1F
100
AcDbEntity
  8
____2
100
AcDbCircle
 10
43.08916530087609
 20
3.436260201342925
 30
0.0
 40
1.25
100
AcDbArc
 50
270.0000000000008
 51
0.0
  0
ARC
  5
108
330
1F
100
AcDbEntity
  8
____2
100
AcDbCircle
 10
43.08916530087609
 20
29.94626020134293
 30
0.0
 40
1.250000000000007
100
AcDbArc
 50
0.0
 51
90.0
  0
ARC
  5
109
330
1F
100
AcDbEntity
  8
____2
100
AcDbCircle
 10
3.949165300876111
 20
3.436260201342925
 30
0.0
 40
1.25
100
AcDbArc
 50
180.0
 51
270.0000000000008
  0
MTEXT
  5
111
330
1F
100
AcDbEntity
  8
___2
100
AcDbMText
 10
8.891742373464357
 20
30.07219214376818
 30
0.0
 40
0.4999999999999999
 41
0.0
 71
     1
 72
     1
  1
FRONT
  7
SLDTEXTSTYLE0
  0
MTEXT
  5
112
330
1F
100
AcDbEntity
  8
___2
100
AcDbMText
 10
24.19668905943697
 20
30.1285328620306
 30
0.0
 40
0.4999999999999999
 41
0.0
 71
     1
 72
     1
  1
BACK
  7
SLDTEXTSTYLE0
  0
MTEXT
  5
113
330
1F
100
AcDbEntity
  8
___2
100
AcDbMText
 10
34.83696644689287
 20
30.07219207043568
 30
0.0
 40
0.4999999999999999
 41
0.0
 71
     1
 72
     1
  1
HEIGHT
  7
SLDTEXTSTYLE0
  0
MTEXT
  5
114
330
1F
100
AcDbEntity
  8
___2
100
AcDbMText
 10
14.97608702001447
 20
15.4313166064652
 30
0.0
 40
0.4999999999999999
 41
0.0
 71
     1
 72
     1
  1
GRILLE
  7
SLDTEXTSTYLE0
  0
MTEXT
  5
115
330
1F
100
AcDbEntity
  8
___2
100
AcDbMText
 10
30.2415665564613
 20
15.43131656979896
 30
0.0
 40
0.4999999999999999
 41
0.0
 71
     1
 72
     1
  1
ISOMETRIC
  7
SLDTEXTSTYLE0
  0
MTEXT
  5
138
330
1F
100
AcDbEntity
  8
___1
100
AcDbMText
 10
43.21237501613084
 20
16.88827085896353
 30
0.0
 40
0.2291666666666666
 41
0.0
 71
     1
 72
     1
  1
SCALE: 1:1
  7
SLDTEXTSTYLE0
 11
-3.491481338843133E-15
 21
1.0
 31
0.0
  0
MTEXT
  5
13A
330
1F
100
AcDbEntity
  8
___1
100
AcDbMText
 10
43.90746955143127
 20
16.84523522550028
 30
0.0
 40
0.2291666666666666
 41
0.0
 71
     1
 72
     1
  1
SHEET:    OF
  7
SLDTEXTSTYLE3
 11
-3.491481338843133E-15
 21
1.0
 31
0.0
  0
MTEXT
  5
13B
330
1F
100
AcDbEntity
  8
___1
100
AcDbMText
 10
43.22368571594016
 20
20.65379389348209
 30
0.0
 40
0.2291666666666666
 41
0.0
 71
     1
 72
     1
  1
DRAWN BY:
  7
SLDTEXTSTYLE0
 11
-3.491481338843133E-15
 21
1.0
 31
0.0
  0
MTEXT
  5
13C
330
1F
100
AcDbEntity
  8
___1
100
AcDbMText
 10
43.9426919388163
 20
20.6670701562858
 30
0.0
 40
0.2291666666666666
 41
0.0
 71
     1
 72
     1
  1
RELEASED ON:
  7
SLDTEXTSTYLE0
 11
-3.491481338843133E-15
 21
1.0
 31
0.0
  0
MTEXT
  5
13D
330
1F
100
AcDbEntity
  8
___1
100
AcDbMText
 10
43.21429180739349
 20
24.59041238867257
 30
0.0
 40
0.2291666666666666
 41
0.0
 71
     1
 72
     1
  1
DRWN - PART NUMBER
  7
SLDTEXTSTYLE0
 11
-3.491481338843133E-15
 21
1.0
 31
0.0
  0
MTEXT
  5
13E
330
1F
100
AcDbEntity
  8
___1
100
AcDbMText
 10
43.18714463181907
 20
29.43675180571108
 30
0.0
 40
0.2291666666666666
 41
0.0
 71
     1
 72
     1
  1
REV.
  7
SLDTEXTSTYLE0
 11
-3.491481338843133E-15
 21
1.0
 31
0.0
  0
MTEXT
  5
13F
330
1F
100
AcDbEntity
  8
___1
100
AcDbMText
 10
42.12245143752898
 20
19.20617946541411
 30
0.0
 40
0.3749999999999999
 41
0.0
 71
     1
 72
     1
  1
VP EXTREME 6'' Square Adaptor
  7
SLDTEXTSTYLE0
 11
-3.491481338843133E-15
 21
1.0
 31
0.0
  0
CIRCLE
  5
140
330
1F
100
AcDbEntity
  8
0
  6
CONTINUOUS
 62
     7
100
AcDbCircle
 10
14.84621498701617
 20
28.24659204894321
 30
0.0
 40
0.1968503937007871
  0
CIRCLE
  5
141
330
1F
100
AcDbEntity
  8
0
  6
CONTINUOUS
 62
     7
100
AcDbCircle
 10
14.84621498701641
 20
19.80171015917943
 30
0.0
 40
0.1968503937007888
  0
LINE
  5
142
330
1F
100
AcDbEntity
  8
0
  6
CONTINUOUS
 62
     7
100
AcDbLine
 10
15.20054569567759
 20
23.03989913555739
 30
0.0
 11
15.20054569567759
 21
19.52611960799833
 31
0.0
  0
LINE
  5
143
330
1F
100
AcDbEntity
  8
0
  6
CONTINUOUS
 62
     7
100
AcDbLine
 10
15.20054569567759
 20
19.52611960799833
 30
0.0
 11
15.14149057756735
 21
19.52611960799833
 31
0.0
  0
LINE
  5
144
330
1F
100
AcDbEntity
  8
0
  6
CONTINUOUS
 62
     7
100
AcDbLine
 10
15.14149057756735
 20
19.52611960799833
 30
0.0
 11
15.14149057756735
 21
23.03989913555739
 31
0.0
  0
LINE
  5
145
330
1F
100
AcDbEntity
  8
0
  6
CONTINUOUS
 62
     7
100
AcDbLine
 10
15.14149057756735
 20
23.03989913555739
 30
0.0
 11
15.20054569567759
 21
23.03989913555739
 31
0.0
  0
LINE
  5
146
330
1F
100
AcDbEntity
  8
0
  6
CONTINUOUS
 62
     7
100
AcDbLine
 10
11.60802601063822
 20
28.60092275760463
 30
0.0
 11
15.12180553819728
 21
28.60092275760463
 31
0.0
  0
LINE
  5
147
330
1F
100
AcDbEntity
  8
0
  6
CONTINUOUS
 62
     7
100
AcDbLine
 10
15.12180553819728
 20
28.60092275760463
 30
0.0
 11
15.12180553819728
 21
28.54186763949439
 31
0.0
  0
LINE
  5
148
330
1F
100
AcDbEntity
  8
0
  6
CONTINUOUS
 62
     7
100
AcDbLine
 10
15.12180553819728
 20
28.54186763949439
 30
0.0
 11
11.60802601063822
 21
28.54186763949439
 31
0.0
  0
LINE
  5
149
330
1F
100
AcDbEntity
  8
0
  6
CONTINUOUS
 62
     7
100
AcDbLine
 10
11.60802601063822
 20
28.54186763949439
 30
0.0
 11
11.60802601063822
 21
28.60092275760463
 31
0.0
  0
ARC
  5
14A
330
1F
100
AcDbEntity
  8
0
  6
CONTINUOUS
 62
     7
100
AcDbCircle
 10
15.12180553819728
 20
28.52218260012432
 30
0.0
 40
0.0787401574803148
100
AcDbArc
 50
0.0
 51
90.0
  0
LINE
  5
14B
330
1F
100
AcDbEntity
  8
0
  6
CONTINUOUS
 62
     7
100
AcDbLine
 10
15.20054569567759
 20
28.52218260012432
 30
0.0
 11
15.14149057756735
 21
28.52218260012432
 31
0.0
  0
ARC
  5
14C
330
1F
100
AcDbEntity
  8
0
  6
CONTINUOUS
 62
     7
100
AcDbCircle
 10
15.12180553819728
 20
28.52218260012432
 30
0.0
 40
0.019685039370076
100
AcDbArc
 50
0.0
 51
90.0
  0
LINE
  5
14D
330
1F
100
AcDbEntity
  8
0
  6
CONTINUOUS
 62
     7
100
AcDbLine
 10
15.14149057756735
 20
25.00840307256526
 30
0.0
 11
15.14149057756735
 21
28.52218260012432
 31
0.0
  0
LINE
  5
14E
330
1F
100
AcDbEntity
  8
0
  6
CONTINUOUS
 62
     7
100
AcDbLine
 10
15.20054569567759
 20
28.52218260012432
 30
0.0
 11
15.20054569567759
 21
25.00840307256526
 31
0.0
  0
LINE
  5
14F
330
1F
100
AcDbEntity
  8
0
  6
CONTINUOUS
 62
     7
100
AcDbLine
 10
15.20054569567759
 20
25.00840307256526
 30
0.0
 11
15.14149057756735
 21
25.00840307256526
 31
0.0
  0
LINE
  5
150
330
1F
100
AcDbEntity
  8
0
  6
CONTINUOUS
 62
     7
100
AcDbLine
 10
15.14149057756735
 20
23.03989913555739
 30
0.0
 11
15.10825120378755
 21
23.03989913555739
 31
0.0
  0
ARC
  5
151
330
1F
100
AcDbEntity
  8
0
  6
CONTINUOUS
 62
     7
100
AcDbCircle
 10
15.12180553819728
 20
19.52611960799833
 30
0.0
 40
0.019685039370076
100
AcDbArc
 50
270.0000000000008
 51
0.0
  0
LINE
  5
152
330
1F
100
AcDbEntity
  8
0
  6
CONTINUOUS
 62
     7
100
AcDbLine
 10
11.60802601063822
 20
19.50643456862825
 30
0.0
 11
15.12180553819728
 21
19.50643456862825
 31
0.0
  0
CIRCLE
  5
153
330
1F
100
AcDbEntity
  8
0
  6
CONTINUOUS
 62
     7
100
AcDbCircle
 10
14.84621498701641
 20
19.80171015917943
 30
0.0
 40
0.2007874015748037
  0
CIRCLE
  5
154
330
1F
100
AcDbEntity
  8
0
  6
CONTINUOUS
 62
     7
100
AcDbCircle
 10
14.43282916024473
 20
20.21509598595109
 30
0.0
 40
0.1614173228345912
  0
LINE
  5
155
330
1F
100
AcDbEntity
  8
0
  6
CONTINUOUS
 62
     7
100
AcDbLine
 10
11.60802601063822
 20
19.53967394240806
 30
0.0
 11
11.60802601063822
 21
19.50643456862825
 31
0.0
  0
ARC
  5
156
330
1F
100
AcDbEntity
  8
0
  6
CONTINUOUS
 62
     7
100
AcDbCircle
 10
10.62377404213428
 20
24.02415110406132
 30
0.0
 40
4.591218503937012
100
AcDbArc
 50
282.378983920084
 51
347.6210160799176
  0
CIRCLE
  5
157
330
1F
100
AcDbEntity
  8
0
  6
CONTINUOUS
 62
     7
100
AcDbCircle
 10
6.814718924024258
 20
20.21509598595088
 30
0.0
 40
0.0826771653544895
  0
CIRCLE
  5
158
330
1F
100
AcDbEntity
  8
0
  6
CONTINUOUS
 62
     7
100
AcDbCircle
 10
6.814718924024258
 20
20.21509598595088
 30
0.0
 40
0.1614173228348053
  0
LINE
  5
159
330
1F
100
AcDbEntity
  8
0
  6
CONTINUOUS
 62
     7
100
AcDbLine
 10
6.106057506701211
 20
28.52218260012432
 30
0.0
 11
6.106057506701211
 21
25.00840307256526
 31
0.0
  0
ARC
  5
15A
330
1F
100
AcDbEntity
  8
0
  6
CONTINUOUS
 62
     7
100
AcDbCircle
 10
6.125742546071289
 20
28.52218260012432
 30
0.0
 40
0.0196850393700787
100
AcDbArc
 50
90.0
 51
180.0
  0
LINE
  5
15B
330
1F
100
AcDbEntity
  8
0
  6
CONTINUOUS
 62
     7
100
AcDbLine
 10
9.639522073630344
 20
28.54186763949439
 30
0.0
 11
6.125742546071289
 21
28.54186763949439
 31
0.0
  0
CIRCLE
  5
15C
330
1F
100
AcDbEntity
  8
0
  6
CONTINUOUS
 62
     7
100
AcDbCircle
 10
6.401333097252392
 20
28.24659204894298
 30
0.0
 40
0.2007874015748028
  0
CIRCLE
  5
15D
330
1F
100
AcDbEntity
  8
0
  6
CONTINUOUS
 62
     7
100
AcDbCircle
 10
6.814718924024046
 20
27.83320622217135
 30
0.0
 40
0.1614173228348754
  0
LINE
  5
15E
330
1F
100
AcDbEntity
  8
0
  6
CONTINUOUS
 62
     7
100
AcDbLine
 10
9.639522073630344
 20
28.50862826571459
 30
0.0
 11
9.639522073630344
 21
28.54186763949439
 31
0.0
  0
ARC
  5
15F
330
1F
100
AcDbEntity
  8
0
  6
CONTINUOUS
 62
     7
100
AcDbCircle
 10
10.62377404213428
 20
24.02415110406132
 30
0.0
 40
4.591218503937013
100
AcDbArc
 50
102.3789839200833
 51
167.6210160799168
  0
LINE
  5
160
330
1F
100
AcDbEntity
  8
0
  6
CONTINUOUS
 62
     7
100
AcDbLine
 10
6.106057506701211
 20
25.00840307256526
 30
0.0
 11
6.139296880481014
 21
25.00840307256526
 31
0.0
  0
LINE
  5
161
330
1F
100
AcDbEntity
  8
0
  6
CONTINUOUS
 62
     7
100
AcDbLine
 10
6.125742546071289
 20
19.50643456862825
 30
0.0
 11
9.639522073630344
 21
19.50643456862825
 31
0.0
  0
ARC
  5
162
330
1F
100
AcDbEntity
  8
0
  6
CONTINUOUS
 62
     7
100
AcDbCircle
 10
6.125742546071289
 20
19.52611960799833
 30
0.0
 40
0.0196850393700787
100
AcDbArc
 50
180.0
 51
270.0000000000008
  0
LINE
  5
163
330
1F
100
AcDbEntity
  8
0
  6
CONTINUOUS
 62
     7
100
AcDbLine
 10
6.106057506701211
 20
23.03989913555739
 30
0.0
 11
6.106057506701211
 21
19.52611960799833
 31
0.0
  0
CIRCLE
  5
164
330
1F
100
AcDbEntity
  8
0
  6
CONTINUOUS
 62
     7
100
AcDbCircle
 10
6.401333097252628
 20
19.8017101591792
 30
0.0
 40
0.2007874015748028
  0
LINE
  5
165
330
1F
100
AcDbEntity
  8
0
  6
CONTINUOUS
 62
     7
100
AcDbLine
 10
6.139296880481014
 20
23.03989913555739
 30
0.0
 11
6.106057506701211
 21
23.03989913555739
 31
0.0
  0
ARC
  5
166
330
1F
100
AcDbEntity
  8
0
  6
CONTINUOUS
 62
     7
100
AcDbCircle
 10
10.62377404213428
 20
24.02415110406132
 30
0.0
 40
4.591218503937013
100
AcDbArc
 50
192.378983920084
 51
257.6210160799176
  0
LINE
  5
167
330
1F
100
AcDbEntity
  8
0
  6
CONTINUOUS
 62
     7
100
AcDbLine
 10
9.639522073630344
 20
19.50643456862825
 30
0.0
 11
9.639522073630344
 21
19.53967394240806
 31
0.0
  0
CIRCLE
  5
168
330
1F
100
AcDbEntity
  8
0
  6
CONTINUOUS
 62
     7
100
AcDbCircle
 10
14.43282916024452
 20
27.83320622217156
 30
0.0
 40
0.1614173228346463
  0
LINE
  5
169
330
1F
100
AcDbEntity
  8
0
  6
CONTINUOUS
 62
     7
100
AcDbLine
 10
15.10825120378755
 20
25.00840307256526
 30
0.0
 11
15.14149057756735
 21
25.00840307256526
 31
0.0
  0
ARC
  5
16A
330
1F
100
AcDbEntity
  8
0
  6
CONTINUOUS
 62
     7
100
AcDbCircle
 10
10.62377404213428
 20
24.02415110406132
 30
0.0
 40
4.591218503937012
100
AcDbArc
 50
12.37898392008319
 51
77.6210160799168
  0
LINE
  5
16B
330
1F
100
AcDbEntity
  8
0
  6
CONTINUOUS
 62
     7
100
AcDbLine
 10
11.60802601063822
 20
28.54186763949439
 30
0.0
 11
11.60802601063822
 21
28.50862826571459
 31
0.0
  0
CIRCLE
  5
16C
330
1F
100
AcDbEntity
  8
0
  6
CONTINUOUS
 62
     7
100
AcDbCircle
 10
14.84621498701617
 20
28.24659204894321
 30
0.0
 40
0.2007874015748019
  0
LINE
  5
16D
330
1F
100
AcDbEntity
  8
0
  6
CONTINUOUS
 62
     7
100
AcDbLine
 10
6.125742546071289
 20
28.60092275760463
 30
0.0
 11
6.125742546071289
 21
28.54186763949439
 31
0.0
  0
LINE
  5
16E
330
1F
100
AcDbEntity
  8
0
  6
CONTINUOUS
 62
     7
100
AcDbLine
 10
6.125742546071289
 20
28.60092275760463
 30
0.0
 11
9.639522073630344
 21
28.60092275760463
 31
0.0
  0
LINE
  5
16F
330
1F
100
AcDbEntity
  8
0
  6
CONTINUOUS
 62
     7
100
AcDbLine
 10
9.639522073630344
 20
28.60092275760463
 30
0.0
 11
9.639522073630344
 21
28.54186763949439
 31
0.0
  0
LINE
  5
170
330
1F
100
AcDbEntity
  8
0
  6
CONTINUOUS
 62
     7
100
AcDbLine
 10
9.639522073630344
 20
19.44737945051801
 30
0.0
 11
6.125742546071289
 21
19.44737945051801
 31
0.0
  0
LINE
  5
171
330
1F
100
AcDbEntity
  8
0
  6
CONTINUOUS
 62
     7
100
AcDbLine
 10
6.125742546071289
 20
19.44737945051801
 30
0.0
 11
6.125742546071289
 21
19.50643456862825
 31
0.0
  0
LINE
  5
172
330
1F
100
AcDbEntity
  8
0
  6
CONTINUOUS
 62
     7
100
AcDbLine
 10
9.639522073630344
 20
19.50643456862825
 30
0.0
 11
9.639522073630344
 21
19.44737945051801
 31
0.0
  0
ARC
  5
173
330
1F
100
AcDbEntity
  8
0
  6
CONTINUOUS
 62
     7
100
AcDbCircle
 10
6.125742546071289
 20
19.52611960799833
 30
0.0
 40
0.0787401574803148
100
AcDbArc
 50
180.0
 51
270.0000000000008
  0
LINE
  5
174
330
1F
100
AcDbEntity
  8
0
  6
CONTINUOUS
 62
     7
100
AcDbLine
 10
6.047002388590974
 20
19.52611960799833
 30
0.0
 11
6.106057506701211
 21
19.52611960799833
 31
0.0
  0
CIRCLE
  5
175
330
1F
100
AcDbEntity
  8
0
  6
CONTINUOUS
 62
     7
100
AcDbCircle
 10
14.43282916024473
 20
20.21509598595109
 30
0.0
 40
0.0826771653542782
  0
CIRCLE
  5
176
330
1F
100
AcDbEntity
  8
0
  6
CONTINUOUS
 62
     7
100
AcDbCircle
 10
6.814718924024046
 20
27.83320622217135
 30
0.0
 40
0.0826771653545579
  0
CIRCLE
  5
177
330
1F
100
AcDbEntity
  8
0
  6
CONTINUOUS
 62
     7
100
AcDbCircle
 10
14.43282916024452
 20
27.83320622217156
 30
0.0
 40
0.0826771653543314
  0
LINE
  5
178
330
1F
100
AcDbEntity
  8
0
  6
CONTINUOUS
 62
     7
100
AcDbLine
 10
6.047002388590974
 20
25.00840307256526
 30
0.0
 11
6.047002388590974
 21
28.52218260012432
 31
0.0
  0
LINE
  5
179
330
1F
100
AcDbEntity
  8
0
  6
CONTINUOUS
 62
     7
100
AcDbLine
 10
6.047002388590974
 20
28.52218260012432
 30
0.0
 11
6.106057506701211
 21
28.52218260012432
 31
0.0
  0
LINE
  5
17A
330
1F
100
AcDbEntity
  8
0
  6
CONTINUOUS
 62
     7
100
AcDbLine
 10
6.106057506701211
 20
25.00840307256526
 30
0.0
 11
6.047002388590974
 21
25.00840307256526
 31
0.0
  0
ARC
  5
17B
330
1F
100
AcDbEntity
  8
0
  6
CONTINUOUS
 62
     7
100
AcDbCircle
 10
6.125742546071289
 20
28.52218260012432
 30
0.0
 40
0.0787401574803148
100
AcDbArc
 50
90.0
 51
180.0
  0
LINE
  5
17C
330
1F
100
AcDbEntity
  8
0
  6
CONTINUOUS
 62
     7
100
AcDbLine
 10
6.047002388590974
 20
19.52611960799833
 30
0.0
 11
6.047002388590974
 21
23.03989913555739
 31
0.0
  0
LINE
  5
17D
330
1F
100
AcDbEntity
  8
0
  6
CONTINUOUS
 62
     7
100
AcDbLine
 10
6.047002388590974
 20
23.03989913555739
 30
0.0
 11
6.106057506701211
 21
23.03989913555739
 31
0.0
  0
ARC
  5
17E
330
1F
100
AcDbEntity
  8
0
  6
CONTINUOUS
 62
     7
100
AcDbCircle
 10
15.12180553819728
 20
19.52611960799833
 30
0.0
 40
0.0787401574803148
100
AcDbArc
 50
270.0000000000008
 51
0.0
  0
LINE
  5
17F
330
1F
100
AcDbEntity
  8
0
  6
CONTINUOUS
 62
     7
100
AcDbLine
 10
15.12180553819728
 20
19.44737945051801
 30
0.0
 11
15.12180553819728
 21
19.50643456862825
 31
0.0
  0
LINE
  5
180
330
1F
100
AcDbEntity
  8
0
  6
CONTINUOUS
 62
     7
100
AcDbLine
 10
15.12180553819728
 20
19.44737945051801
 30
0.0
 11
11.60802601063822
 21
19.44737945051801
 31
0.0
  0
LINE
  5
181
330
1F
100
AcDbEntity
  8
0
  6
CONTINUOUS
 62
     7
100
AcDbLine
 10
11.60802601063822
 20
19.44737945051801
 30
0.0
 11
11.60802601063822
 21
19.50643456862825
 31
0.0
  0
CIRCLE
  5
182
330
1F
100
AcDbEntity
  8
0
  6
CONTINUOUS
 62
     7
100
AcDbCircle
 10
10.62377404213428
 20
24.02415110406132
 30
0.0
 40
4.048008674476324
  0
LINE
  5
183
330
1F
100
AcDbEntity
  8
0
  6
CONTINUOUS
 62
     7
100
AcDbLine
 10
15.20054569567759
 20
25.00840307256526
 30
0.0
 11
15.20054569567759
 21
23.03989913555739
 31
0.0
  0
LINE
  5
184
330
1F
100
AcDbEntity
  8
0
  6
CONTINUOUS
 62
     7
100
AcDbLine
 10
11.60802601063822
 20
19.44737945051801
 30
0.0
 11
9.639522073630344
 21
19.44737945051801
 31
0.0
  0
LINE
  5
185
330
1F
100
AcDbEntity
  8
0
  6
CONTINUOUS
 62
     7
100
AcDbLine
 10
9.639522073630344
 20
28.60092275760463
 30
0.0
 11
11.60802601063822
 21
28.60092275760463
 31
0.0
  0
LINE
  5
186
330
1F
100
AcDbEntity
  8
0
  6
CONTINUOUS
 62
     7
100
AcDbLine
 10
6.047002388590974
 20
23.03989913555739
 30
0.0
 11
6.047002388590974
 21
25.00840307256526
 31
0.0
  0
CIRCLE
  5
187
330
1F
100
AcDbEntity
  8
0
  6
CONTINUOUS
 62
     7
100
AcDbCircle
 10
6.401333097252628
 20
19.8017101591792
 30
0.0
 40
0.1968503937007871
  0
CIRCLE
  5
188
330
1F
100
AcDbEntity
  8
0
  6
CONTINUOUS
 62
     7
100
AcDbCircle
 10
6.401333097252392
 20
28.24659204894298
 30
0.0
 40
0.1968503937007879
  0
DIMENSION
  5
189
330
1F
100
AcDbEntity
  8
___2
100
AcDbDimension
  2
_D
 10
16.53912837284295
 20
19.44737945051802
 30
0.0
 11
16.53912837284295
 21
23.98854008331898
 31
0.0
 70
   160
  1
<>
  3
SLDDIMSTYLE0
100
AcDbAlignedDimension
 13
15.12180553819728
 23
28.60092275760463
 33
0.0
 14
15.12180553819728
 24
19.44737945051802
 34
0.0
 50
90.0000000000002
100
AcDbRotatedDimension
  0
DIMENSION
  5
19B
330
1F
100
AcDbEntity
  8
___2
100
AcDbDimension
  2
_D_1
 10
15.20054569567759
 20
17.87257630091171
 30
0.0
 11
10.87105303580489
 21
17.87257630091171
 31
0.0
 70
   160
  1
<>
  3
SLDDIMSTYLE0
100
AcDbAlignedDimension
 13
6.047002388590974
 23
19.52611960799833
 33
0.0
 14
15.20054569567759
 24
19.52611960799833
 34
0.0
100
AcDbRotatedDimension
  0
INSERT
  5
1B7
330
1F
100
AcDbEntity
  8
___2
100
AcDbBlockReference
  2
SW_CENTERMARKSYMBOL_0
 10
10.62377404213428
 20
24.02415110406132
 30
0.0
  0
LINE
  5
1B8
330
1F
100
AcDbEntity
  8
0
  6
CONTINUOUS
 62
     7
100
AcDbLine
 10
36.00909523846211
 20
23.03989913555739
 30
0.0
 11
36.00909523846211
 21
25.00840307256526
 31
0.0
  0
LINE
  5
1B9
330
1F
100
AcDbEntity
  8
0
  6
CONTINUOUS
 62
     7
100
AcDbLine
 10
36.02484326995817
 20
23.03989913555739
 30
0.0
 11
36.00909523846211
 21
23.03989913555739
 31
0.0
  0
LINE
  5
1BA
330
1F
100
AcDbEntity
  8
0
  6
CONTINUOUS
 62
     7
100
AcDbLine
 10
36.02484326995817
 20
19.52611960799833
 30
0.0
 11
36.02484326995817
 21
23.03989913555739
 31
0.0
  0
LINE
  5
1BB
330
1F
100
AcDbEntity
  8
0
  6
CONTINUOUS
 62
     7
100
AcDbLine
 10
35.96972515972195
 20
19.52611960799833
 30
0.0
 11
36.02484326995817
 21
19.52611960799833
 31
0.0
  0
LINE
  5
1BC
330
1F
100
AcDbEntity
  8
0
  6
CONTINUOUS
 62
     7
100
AcDbLine
 10
35.96972515972195
 20
19.52611960799833
 30
0.0
 11
35.96972515972195
 21
28.52218260012432
 31
0.0
  0
LINE
  5
1BD
330
1F
100
AcDbEntity
  8
0
  6
CONTINUOUS
 62
     7
100
AcDbLine
 10
36.02484326995817
 20
28.52218260012432
 30
0.0
 11
35.96972515972195
 21
28.52218260012432
 31
0.0
  0
LINE
  5
1BE
330
1F
100
AcDbEntity
  8
0
  6
CONTINUOUS
 62
     7
100
AcDbLine
 10
36.02484326995817
 20
25.00840307256526
 30
0.0
 11
36.02484326995817
 21
28.52218260012432
 31
0.0
  0
LINE
  5
1BF
330
1F
100
AcDbEntity
  8
0
  6
CONTINUOUS
 62
     7
100
AcDbLine
 10
36.02484326995817
 20
25.00840307256526
 30
0.0
 11
36.00909523846211
 21
25.00840307256526
 31
0.0
  0
LINE
  5
1C0
330
1F
100
AcDbEntity
  8
0
  6
CONTINUOUS
 62
     7
100
AcDbLine
 10
35.96972515972195
 20
28.52218260012432
 30
0.0
 11
35.96972515972195
 21
28.60092275760463
 31
0.0
  0
LINE
  5
1C1
330
1F
100
AcDbEntity
  8
0
  6
CONTINUOUS
 62
     7
100
AcDbLine
 10
35.96972515972195
 20
28.60092275760463
 30
0.0
 11
36.02484326995817
 21
28.60092275760463
 31
0.0
  0
LINE
  5
1C2
330
1F
100
AcDbEntity
  8
0
  6
CONTINUOUS
 62
     7
100
AcDbLine
 10
36.02484326995817
 20
28.52218260012432
 30
0.0
 11
36.02484326995817
 21
28.60092275760463
 31
0.0
  0
LINE
  5
1C3
330
1F
100
AcDbEntity
  8
0
  6
CONTINUOUS
 62
     7
100
AcDbLine
 10
36.02484326995817
 20
19.44737945051801
 30
0.0
 11
36.02484326995817
 21
19.52611960799833
 31
0.0
  0
LINE
  5
1C4
330
1F
100
AcDbEntity
  8
0
  6
CONTINUOUS
 62
     7
100
AcDbLine
 10
36.02484326995817
 20
19.44737945051801
 30
0.0
 11
35.96972515972195
 21
19.44737945051801
 31
0.0
  0
LINE
  5
1C5
330
1F
100
AcDbEntity
  8
0
  6
CONTINUOUS
 62
     7
100
AcDbLine
 10
35.96972515972195
 20
19.44737945051801
 30
0.0
 11
35.96972515972195
 21
19.52611960799833
 31
0.0
  0
LINE
  5
1C6
330
1F
100
AcDbEntity
  8
0
  6
CONTINUOUS
 62
     7
100
AcDbLine
 10
36.02484326995817
 20
28.52218260012432
 30
0.0
 11
36.08389838806841
 21
28.52218260012432
 31
0.0
  0
LINE
  5
1C7
330
1F
100
AcDbEntity
  8
0
  6
CONTINUOUS
 62
     7
100
AcDbLine
 10
36.08389838806841
 20
28.52218260012432
 30
0.0
 11
36.08389838806841
 21
25.00840307256526
 31
0.0
  0
LINE
  5
1C8
330
1F
100
AcDbEntity
  8
0
  6
CONTINUOUS
 62
     7
100
AcDbLine
 10
36.08389838806841
 20
25.00840307256526
 30
0.0
 11
36.02484326995817
 21
25.00840307256526
 31
0.0
  0
LINE
  5
1C9
330
1F
100
AcDbEntity
  8
0
  6
CONTINUOUS
 62
     7
100
AcDbLine
 10
36.02484326995817
 20
19.52611960799833
 30
0.0
 11
36.08389838806841
 21
19.52611960799833
 31
0.0
  0
LINE
  5
1CA
330
1F
100
AcDbEntity
  8
0
  6
CONTINUOUS
 62
     7
100
AcDbLine
 10
36.08389838806841
 20
19.52611960799833
 30
0.0
 11
36.08389838806841
 21
19.50643456862825
 31
0.0
  0
LINE
  5
1CB
330
1F
100
AcDbEntity
  8
0
  6
CONTINUOUS
 62
     7
100
AcDbLine
 10
36.02484326995817
 20
19.44737945051801
 30
0.0
 11
36.08389838806841
 21
19.50643456862825
 31
0.0
  0
LINE
  5
1CC
330
1F
100
AcDbEntity
  8
0
  6
CONTINUOUS
 62
     7
100
AcDbLine
 10
36.08389838806841
 20
23.03989913555739
 30
0.0
 11
36.08389838806841
 21
19.52611960799833
 31
0.0
  0
LINE
  5
1CD
330
1F
100
AcDbEntity
  8
0
  6
CONTINUOUS
 62
     7
100
AcDbLine
 10
36.02484326995817
 20
23.03989913555739
 30
0.0
 11
36.08389838806841
 21
23.03989913555739
 31
0.0
  0
LINE
  5
1CE
330
1F
100
AcDbEntity
  8
0
  6
CONTINUOUS
 62
     7
100
AcDbLine
 10
36.02484326995817
 20
28.60092275760463
 30
0.0
 11
36.08389838806841
 21
28.54186763949439
 31
0.0
  0
LINE
  5
1CF
330
1F
100
AcDbEntity
  8
0
  6
CONTINUOUS
 62
     7
100
AcDbLine
 10
36.08389838806841
 20
28.54186763949439
 30
0.0
 11
36.08389838806841
 21
28.52218260012432
 31
0.0
  0
DIMENSION
  5
1D0
330
1F
100
AcDbEntity
  8
___2
100
AcDbDimension
  2
_D_2
 10
35.96972515972197
 20
18.58123771823455
 30
0.0
 11
34.63114248255658
 21
18.58123771823455
 31
0.0
 70
   160
  1
<>
  3
SLDDIMSTYLE1
100
AcDbAlignedDimension
 13
36.08389838806842
 23
19.50643456862825
 33
0.0
 14
35.96972515972197
 24
19.44737945051802
 34
0.0
100
AcDbRotatedDimension
  0
LINE
  5
1E4
330
1F
100
AcDbEntity
  8
___2
  6
CENTERX2
100
AcDbLine
 10
35.41954628764552
 20
24.02415110406132
 30
0.0
 11
36.69087504953572
 21
24.02415110406132
 31
0.0
  0
CIRCLE
  5
1E5
330
1F
100
AcDbEntity
  8
0
  6
CONTINUOUS
 62
     7
100
AcDbCircle
 10
25.52433029228839
 20
24.02415110406132
 30
0.0
 40
4.048008674476321
  0
ARC
  5
1E6
330
1F
100
AcDbEntity
  8
0
  6
CONTINUOUS
 62
     7
100
AcDbCircle
 10
30.02236178835138
 20
28.52218260012432
 30
0.0
 40
0.0787401574803148
100
AcDbArc
 50
0.0
 51
90.0
  0
LINE
  5
1E7
330
1F
100
AcDbEntity
  8
0
  6
CONTINUOUS
 62
     7
100
AcDbLine
 10
30.10110194583169
 20
19.52611960799833
 30
0.0
 11
30.10110194583169
 21
28.52218260012432
 31
0.0
  0
ARC
  5
1E8
330
1F
100
AcDbEntity
  8
0
  6
CONTINUOUS
 62
     7
100
AcDbCircle
 10
30.02236178835138
 20
19.52611960799833
 30
0.0
 40
0.0787401574803148
100
AcDbArc
 50
270.0000000000008
 51
0.0
  0
LINE
  5
1E9
330
1F
100
AcDbEntity
  8
0
  6
CONTINUOUS
 62
     7
100
AcDbLine
 10
21.02629879622539
 20
19.44737945051801
 30
0.0
 11
30.02236178835138
 21
19.44737945051801
 31
0.0
  0
LINE
  5
1EA
330
1F
100
AcDbEntity
  8
0
  6
CONTINUOUS
 62
     7
100
AcDbLine
 10
30.02236178835138
 20
28.60092275760463
 30
0.0
 11
21.02629879622539
 21
28.60092275760463
 31
0.0
  0
CIRCLE
  5
1EB
330
1F
100
AcDbEntity
  8
0
  6
CONTINUOUS
 62
     7
100
AcDbCircle
 10
21.71527517417815
 20
27.83320622217156
 30
0.0
 40
0.0826771653543297
  0
CIRCLE
  5
1EC
330
1F
100
AcDbEntity
  8
0
  6
CONTINUOUS
 62
     7
100
AcDbCircle
 10
21.71527517417794
 20
20.21509598595109
 30
0.0
 40
0.0826771653542764
  0
CIRCLE
  5
1ED
330
1F
100
AcDbEntity
  8
0
  6
CONTINUOUS
 62
     7
100
AcDbCircle
 10
29.33338541039841
 20
20.21509598595088
 30
0.0
 40
0.0826771653544895
  0
CIRCLE
  5
1EE
330
1F
100
AcDbEntity
  8
0
  6
CONTINUOUS
 62
     7
100
AcDbCircle
 10
29.33338541039862
 20
27.83320622217135
 30
0.0
 40
0.082677165354557
  0
ARC
  5
1EF
330
1F
100
AcDbEntity
  8
0
  6
CONTINUOUS
 62
     7
100
AcDbCircle
 10
21.02629879622539
 20
19.52611960799833
 30
0.0
 40
0.0787401574803148
100
AcDbArc
 50
180.0
 51
270.0000000000008
  0
LINE
  5
1F0
330
1F
100
AcDbEntity
  8
0
  6
CONTINUOUS
 62
     7
100
AcDbLine
 10
20.94755863874508
 20
28.52218260012432
 30
0.0
 11
20.94755863874508
 21
19.52611960799833
 31
0.0
  0
ARC
  5
1F1
330
1F
100
AcDbEntity
  8
0
  6
CONTINUOUS
 62
     7
100
AcDbCircle
 10
21.02629879622539
 20
28.52218260012432
 30
0.0
 40
0.0787401574803148
100
AcDbArc
 50
90.0
 51
180.0
  0
INSERT
  5
1FD
330
1F
100
AcDbEntity
  8
___2
100
AcDbBlockReference
  2
SW_CENTERMARKSYMBOL_1
 10
25.52433029228839
 20
24.02415110406132
 30
0.0
  0
LINE
  5
1FE
330
1F
100
AcDbEntity
  8
0
  6
CONTINUOUS
 62
     7
100
AcDbLine
 10
11.41453477686369
 20
13.9000770436106
 30
0.0
 11
11.41453477686369
 21
4.632360508177526
 31
0.0
  0
LINE
  5
1FF
330
1F
100
AcDbEntity
  8
0
  6
CONTINUOUS
 62
     7
100
AcDbLine
 10
11.41453477686369
 20
13.9000770436106
 30
0.0
 11
11.44453477686369
 21
13.9000770436106
 31
0.0
  0
LINE
  5
200
330
1F
100
AcDbEntity
  8
0
  6
CONTINUOUS
 62
     7
100
AcDbLine
 10
11.44453477686369
 20
13.9000770436106
 30
0.0
 11
11.44453477686369
 21
4.632360508177526
 31
0.0
  0
LINE
  5
201
330
1F
100
AcDbEntity
  8
0
  6
CONTINUOUS
 62
     7
100
AcDbLine
 10
11.44453477686369
 20
4.632360508177526
 30
0.0
 11
11.41453477686369
 21
4.632360508177526
 31
0.0
  0
ARC
  5
202
330
1F
100
AcDbEntity
  8
0
  6
CONTINUOUS
 62
     7
100
AcDbCircle
 10
11.47358989497393
 20
4.632360508177526
 30
0.0
 40
0.0590551181102388
100
AcDbArc
 50
180.0
 51
270.0000000000008
  0
ARC
  5
203
330
1F
100
AcDbEntity
  8
0
  6
CONTINUOUS
 62
     7
100
AcDbCircle
 10
11.47358989497393
 20
4.632360508177526
 30
0.0
 40
0.0290551181102376
100
AcDbArc
 50
180.0
 51
270.0000000000008
  0
LINE
  5
204
330
1F
100
AcDbEntity
  8
0
  6
CONTINUOUS
 62
     7
100
AcDbLine
 10
11.47358989497393
 20
4.57330539006729
 30
0.0
 11
11.47358989497393
 21
4.603305390067289
 31
0.0
  0
LINE
  5
205
330
1F
100
AcDbEntity
  8
0
  6
CONTINUOUS
 62
     7
100
AcDbLine
 10
11.47358989497393
 20
4.57330539006729
 30
0.0
 11
20.741306430407
 21
4.57330539006729
 31
0.0
  0
LINE
  5
206
330
1F
100
AcDbEntity
  8
0
  6
CONTINUOUS
 62
     7
100
AcDbLine
 10
11.47358989497393
 20
4.603305390067289
 30
0.0
 11
20.741306430407
 21
4.603305390067289
 31
0.0
  0
LINE
  5
207
330
1F
100
AcDbEntity
  8
0
  6
CONTINUOUS
 62
     7
100
AcDbLine
 10
20.741306430407
 20
4.603305390067289
 30
0.0
 11
20.741306430407
 21
4.57330539006729
 31
0.0
  0
ARC
  5
208
330
1F
100
AcDbEntity
  8
0
  6
CONTINUOUS
 62
     7
100
AcDbCircle
 10
11.47358989497393
 20
13.9000770436106
 30
0.0
 40
0.0290551181102376
100
AcDbArc
 50
90.0
 51
180.0
  0
ARC
  5
209
330
1F
100
AcDbEntity
  8
0
  6
CONTINUOUS
 62
     7
100
AcDbCircle
 10
11.47358989497393
 20
13.9000770436106
 30
0.0
 40
0.0590551181102388
100
AcDbArc
 50
90.0
 51
180.0
  0
LINE
  5
20A
330
1F
100
AcDbEntity
  8
0
  6
CONTINUOUS
 62
     7
100
AcDbLine
 10
11.47358989497393
 20
13.92913216172083
 30
0.0
 11
11.47358989497393
 21
13.95913216172083
 31
0.0
  0
LINE
  5
20B
330
1F
100
AcDbEntity
  8
0
  6
CONTINUOUS
 62
     7
100
AcDbLine
 10
20.741306430407
 20
13.92913216172083
 30
0.0
 11
11.47358989497393
 21
13.92913216172083
 31
0.0
  0
LINE
  5
20C
330
1F
100
AcDbEntity
  8
0
  6
CONTINUOUS
 62
     7
100
AcDbLine
 10
20.741306430407
 20
13.95913216172083
 30
0.0
 11
11.47358989497393
 21
13.95913216172083
 31
0.0
  0
LINE
  5
20D
330
1F
100
AcDbEntity
  8
0
  6
CONTINUOUS
 62
     7
100
AcDbLine
 10
20.741306430407
 20
13.95913216172083
 30
0.0
 11
20.741306430407
 21
13.92913216172083
 31
0.0
  0
LINE
  5
20E
330
1F
100
AcDbEntity
  8
0
  6
CONTINUOUS
 62
     7
100
AcDbLine
 10
20.77036154851724
 20
4.632360508177526
 30
0.0
 11
20.77036154851724
 21
13.9000770436106
 31
0.0
  0
LINE
  5
20F
330
1F
100
AcDbEntity
  8
0
  6
CONTINUOUS
 62
     7
100
AcDbLine
 10
20.77036154851724
 20
13.9000770436106
 30
0.0
 11
20.80036154851724
 21
13.9000770436106
 31
0.0
  0
LINE
  5
210
330
1F
100
AcDbEntity
  8
0
  6
CONTINUOUS
 62
     7
100
AcDbLine
 10
20.80036154851724
 20
4.632360508177526
 30
0.0
 11
20.80036154851724
 21
13.90007704361059
 31
0.0
  0
LINE
  5
211
330
1F
100
AcDbEntity
  8
0
  6
CONTINUOUS
 62
     7
100
AcDbLine
 10
20.80036154851724
 20
4.632360508177526
 30
0.0
 11
20.77036154851724
 21
4.632360508177526
 31
0.0
  0
ARC
  5
212
330
1F
100
AcDbEntity
  8
0
  6
CONTINUOUS
 62
     7
100
AcDbCircle
 10
20.741306430407
 20
4.632360508177526
 30
0.0
 40
0.0290551181102394
100
AcDbArc
 50
270.0000000000008
 51
0.0
  0
ARC
  5
213
330
1F
100
AcDbEntity
  8
0
  6
CONTINUOUS
 62
     7
100
AcDbCircle
 10
20.741306430407
 20
4.632360508177526
 30
0.0
 40
0.0590551181102406
100
AcDbArc
 50
270.0000000000008
 51
0.0
  0
ARC
  5
214
330
1F
100
AcDbEntity
  8
0
  6
CONTINUOUS
 62
     7
100
AcDbCircle
 10
20.741306430407
 20
13.9000770436106
 30
0.0
 40
0.0290551181102394
100
AcDbArc
 50
0.0
 51
90.0
  0
ARC
  5
215
330
1F
100
AcDbEntity
  8
0
  6
CONTINUOUS
 62
     7
100
AcDbCircle
 10
20.741306430407
 20
13.9000770436106
 30
0.0
 40
0.0590551181102406
100
AcDbArc
 50
359.9999999999956
 51
90.0
  0
SPLINE
  5
216
330
1F
100
AcDbEntity
  8
0
  6
CONTINUOUS
 62
     7
100
AcDbSpline
210
0.0
220
0.0
230
1.0
 70
     8
 71
     3
 72
     8
 73
     4
 74
     0
 42
0.000000001
 43
0.0000000001
 40
0.0
 40
0.0
 40
0.0
 40
0.0
 40
1.0
 40
1.0
 40
1.0
 40
1.0
 10
11.4201428830399
 20
4.56007478835181
 30
0.0
 10
11.41283231739708
 20
4.565113458024477
 30
0.0
 10
11.4063317967653
 20
4.571613979067648
 30
0.0
 10
11.40129312800501
 20
4.578924543386699
 30
0.0
  0
ARC
  5
217
330
1F
100
AcDbEntity
  8
0
  6
CONTINUOUS
 62
     7
100
AcDbCircle
 10
11.41782503223169
 20
4.561514618808867
 30
0.0
 40
0.0240085262181167
100
AcDbArc
 50
96.82614866934021
 51
133.5181810944143
  0
SPLINE
  5
218
330
1F
100
AcDbEntity
  8
0
  6
CONTINUOUS
 62
     7
100
AcDbSpline
210
0.0
220
0.0
230
1.0
 70
     8
 71
     3
 72
     8
 73
     4
 74
     0
 42
0.000000001
 43
0.0000000001
 40
0.0
 40
0.0
 40
0.0
 40
0.0
 40
1.0
 40
1.0
 40
1.0
 40
1.0
 10
11.41497144780757
 20
4.585352957406605
 30
0.0
 10
11.41793866881659
 20
4.580779462301233
 30
0.0
 10
11.42199779888001
 20
4.576720331158026
 30
0.0
 10
11.4265712970598
 20
4.573753108154369
 30
0.0
  0
ARC
  5
219
330
1F
100
AcDbEntity
  8
0
  6
CONTINUOUS
 62
     7
100
AcDbCircle
 10
11.40273295846207
 20
4.576606692578486
 30
0.0
 40
0.0240085262181073
100
AcDbArc
 50
316.481818905584
 51
353.1738513306728
  0
SPLINE
  5
21A
330
1F
100
AcDbEntity
  8
0
  6
CONTINUOUS
 62
     7
100
AcDbSpline
210
0.0
220
0.0
230
1.0
 70
     8
 71
     3
 72
    18
 73
    14
 74
     0
 42
0.000000001
 43
0.0000000001
 40
0.0
 40
0.0
 40
0.0
 40
0.0
 40
0.125
 40
0.125
 40
0.25
 40
0.25
 40
0.375
 40
0.375
 40
0.5
 40
0.5
 40
0.75
 40
0.75
 40
1.0
 40
1.0
 40
1.0
 40
1.0
 10
11.19012872610967
 20
4.407353466846734
 30
0.0
 10
11.1901144064286
 20
4.403493741759839
 30
0.0
 10
11.19048659472712
 20
4.399699275598099
 30
0.0
 10
11.19197063260956
 20
4.392234391284221
 30
0.0
 10
11.19310110659352
 20
4.38852479951404
 30
0.0
 10
11.19604655535197
 20
4.381463050544004
 30
0.0
 10
11.19784919665366
 20
4.378112159495412
 30
0.0
 10
11.20210454325655
 20
4.371763544674211
 30
0.0
 10
11.20457237286201
 20
4.368763533720974
 30
0.0
 10
11.21264944536617
 20
4.360681964806455
 30
0.0
 10
11.21915182575051
 20
4.356307333485631
 30
0.0
 10
11.23318259146169
 20
4.350441279266994
 30
0.0
 10
11.24085372977494
 20
4.348881752189878
 30
0.0
 10
11.24857180649993
 20
4.34891038645647
 30
0.0
  0
LINE
  5
21B
330
1F
100
AcDbEntity
  8
0
  6
CONTINUOUS
 62
     7
100
AcDbLine
 10
11.19012872610967
 20
4.407353466846735
 30
0.0
 11
11.40129312800501
 21
4.578924543386698
 31
0.0
  0
LINE
  5
21C
330
1F
100
AcDbEntity
  8
0
  6
CONTINUOUS
 62
     7
100
AcDbLine
 10
11.4201428830399
 20
4.56007478835181
 30
0.0
 11
11.24857180649993
 21
4.34891038645647
 31
0.0
  0
SPLINE
  5
21D
330
1F
100
AcDbEntity
  8
0
  6
CONTINUOUS
 62
     7
100
AcDbSpline
210
0.0
220
0.0
230
1.0
 70
     8
 71
     3
 72
    18
 73
    14
 74
     0
 42
0.000000001
 43
0.0000000001
 40
0.0
 40
0.0
 40
0.0
 40
0.0
 40
0.1249999999999968
 40
0.1249999999999968
 40
0.2499999999999937
 40
0.2499999999999937
 40
0.3749999999999905
 40
0.3749999999999905
 40
0.4999999999999873
 40
0.4999999999999873
 40
0.7499999999999937
 40
0.7499999999999937
 40
1.0
 40
1.0
 40
1.0
 40
1.0
 10
21.02476759927126
 20
14.1251061792278
 30
0.0
 10
21.02478191895232
 20
14.12896590431469
 30
0.0
 10
21.0244097306538
 20
14.13276037047643
 30
0.0
 10
21.02292569277136
 20
14.14022525479031
 30
0.0
 10
21.02179521878741
 20
14.14393484656049
 30
0.0
 10
21.01884977002896
 20
14.15099659553053
 30
0.0
 10
21.01704712872727
 20
14.15434748657912
 30
0.0
 10
21.01279178212438
 20
14.16069610140032
 30
0.0
 10
21.01032395251892
 20
14.16369611235356
 30
0.0
 10
21.00224688001476
 20
14.17177768126808
 30
0.0
 10
20.99574449963042
 20
14.1761523125889
 30
0.0
 10
20.98171373391923
 20
14.18201836680754
 30
0.0
 10
20.97404259560599
 20
14.18357789388465
 30
0.0
 10
20.966324518881
 20
14.18354925961807
 30
0.0
  0
LINE
  5
21E
330
1F
100
AcDbEntity
  8
0
  6
CONTINUOUS
 62
     7
100
AcDbLine
 10
21.02476759927126
 20
14.1251061792278
 30
0.0
 11
20.81360319737592
 21
13.95353510268783
 31
0.0
  0
SPLINE
  5
21F
330
1F
100
AcDbEntity
  8
0
  6
CONTINUOUS
 62
     7
100
AcDbSpline
210
0.0
220
0.0
230
1.0
 70
     8
 71
     3
 72
     8
 73
     4
 74
     0
 42
0.000000001
 43
0.0000000001
 40
0.0
 40
0.0
 40
0.0
 40
0.0
 40
1.0
 40
1.0
 40
1.0
 40
1.0
 10
20.79475344234103
 20
13.97238485772272
 30
0.0
 10
20.80206400798384
 20
13.96734618805006
 30
0.0
 10
20.80856452861563
 20
13.96084566700689
 30
0.0
 10
20.81360319737592
 20
13.95353510268783
 30
0.0
  0
LINE
  5
220
330
1F
100
AcDbEntity
  8
0
  6
CONTINUOUS
 62
     7
100
AcDbLine
 10
20.79475344234103
 20
13.97238485772272
 30
0.0
 11
20.966324518881
 21
14.18354925961807
 31
0.0
  0
SPLINE
  5
221
330
1F
100
AcDbEntity
  8
0
  6
CONTINUOUS
 62
     7
100
AcDbSpline
210
0.0
220
0.0
230
1.0
 70
     8
 71
     3
 72
     8
 73
     4
 74
     0
 42
0.000000001
 43
0.0000000001
 40
0.0
 40
0.0
 40
0.0
 40
0.0
 40
1.0
 40
1.0
 40
1.0
 40
1.0
 10
20.79992487757337
 20
13.94710668866793
 30
0.0
 10
20.79695765656435
 20
13.9516801837733
 30
0.0
 10
20.79289852650092
 20
13.95573931491651
 30
0.0
 10
20.78832502832114
 20
13.95870653792016
 30
0.0
  0
ARC
  5
222
330
1F
100
AcDbEntity
  8
0
  6
CONTINUOUS
 62
     7
100
AcDbCircle
 10
20.81216336691881
 20
13.95585295349608
 30
0.0
 40
0.024008526218053
100
AcDbArc
 50
136.4818189055656
 51
173.1738513307311
  0
ARC
  5
223
330
1F
100
AcDbEntity
  8
0
  6
CONTINUOUS
 62
     7
100
AcDbCircle
 10
20.79707129314922
 20
13.97094502726572
 30
0.0
 40
0.0240085262181695
100
AcDbArc
 50
276.8261486693943
 51
313.5181810943674
  0
SPLINE
  5
224
330
1F
100
AcDbEntity
  8
0
  6
CONTINUOUS
 62
     7
100
AcDbSpline
210
0.0
220
0.0
230
1.0
 70
     8
 71
     3
 72
    18
 73
    14
 74
     0
 42
0.000000001
 43
0.0000000001
 40
0.0
 40
0.0
 40
0.0
 40
0.0
 40
0.125
 40
0.125
 40
0.25
 40
0.25
 40
0.375
 40
0.375
 40
0.5
 40
0.5
 40
0.75
 40
0.75
 40
1.0
 40
1.0
 40
1.0
 40
1.0
 10
11.24857180649993
 20
14.18354925961807
 30
0.0
 10
11.24471208141304
 20
14.18356357929913
 30
0.0
 10
11.2409176152513
 20
14.18319139100061
 30
0.0
 10
11.23345273093742
 20
14.18170735311817
 30
0.0
 10
11.22974313916724
 20
14.18057687913421
 30
0.0
 10
11.2226813901972
 20
14.17763143037577
 30
0.0
 10
11.21933049914861
 20
14.17582878907407
 30
0.0
 10
11.21298188432741
 20
14.17157344247118
 30
0.0
 10
11.20998187337417
 20
14.16910561286572
 30
0.0
 10
11.20190030445965
 20
14.16102854036156
 30
0.0
 10
11.19752567313883
 20
14.15452615997722
 30
0.0
 10
11.19165961892019
 20
14.14049539426603
 30
0.0
 10
11.19010009184307
 20
14.13282425595279
 30
0.0
 10
11.19012872610967
 20
14.1251061792278
 30
0.0
  0
LINE
  5
225
330
1F
100
AcDbEntity
  8
0
  6
CONTINUOUS
 62
     7
100
AcDbLine
 10
11.24857180649993
 20
14.18354925961807
 30
0.0
 11
11.4201428830399
 21
13.97238485772272
 31
0.0
  0
SPLINE
  5
226
330
1F
100
AcDbEntity
  8
0
  6
CONTINUOUS
 62
     7
100
AcDbSpline
210
0.0
220
0.0
230
1.0
 70
     8
 71
     3
 72
     8
 73
     4
 74
     0
 42
0.000000001
 43
0.0000000001
 40
0.0
 40
0.0
 40
0.0
 40
0.0
 40
1.0
 40
1.0
 40
1.0
 40
1.0
 10
11.40129312800501
 20
13.95353510268783
 30
0.0
 10
11.40633179767767
 20
13.96084566833064
 30
0.0
 10
11.41283231872085
 20
13.96734618896243
 30
0.0
 10
11.4201428830399
 20
13.97238485772272
 30
0.0
  0
LINE
  5
227
330
1F
100
AcDbEntity
  8
0
  6
CONTINUOUS
 62
     7
100
AcDbLine
 10
11.40129312800501
 20
13.95353510268783
 30
0.0
 11
11.19012872610967
 21
14.1251061792278
 31
0.0
  0
SPLINE
  5
228
330
1F
100
AcDbEntity
  8
0
  6
CONTINUOUS
 62
     7
100
AcDbSpline
210
0.0
220
0.0
230
1.0
 70
     8
 71
     3
 72
    18
 73
    14
 74
     0
 42
0.000000001
 43
0.0000000001
 40
0.0
 40
0.0
 40
0.0
 40
0.0
 40
0.125
 40
0.125
 40
0.25
 40
0.25
 40
0.375
 40
0.375
 40
0.5
 40
0.5
 40
0.75
 40
0.75
 40
1.0
 40
1.0
 40
1.0
 40
1.0
 10
20.966324518881
 20
4.34891038645647
 30
0.0
 10
20.97018424396789
 20
4.348896066775408
 30
0.0
 10
20.97397871012963
 20
4.349268255073923
 30
0.0
 10
20.98144359444351
 20
4.350752292956365
 30
0.0
 10
20.98515318621369
 20
4.351882766940323
 30
0.0
 10
20.99221493518372
 20
4.354828215698767
 30
0.0
 10
20.99556582623232
 20
4.356630857000459
 30
0.0
 10
21.00191444105352
 20
4.360886203603352
 30
0.0
 10
21.00491445200675
 20
4.363354033208815
 30
0.0
 10
21.01299602092128
 20
4.371431105712972
 30
0.0
 10
21.0173706522421
 20
4.377933486097316
 30
0.0
 10
21.02323670646074
 20
4.391964251808496
 30
0.0
 10
21.02479623353786
 20
4.39963539012174
 30
0.0
 10
21.02476759927126
 20
4.407353466846734
 30
0.0
  0
LINE
  5
229
330
1F
100
AcDbEntity
  8
0
  6
CONTINUOUS
 62
     7
100
AcDbLine
 10
20.966324518881
 20
4.34891038645647
 30
0.0
 11
20.79475344234103
 21
4.56007478835181
 31
0.0
  0
SPLINE
  5
22A
330
1F
100
AcDbEntity
  8
0
  6
CONTINUOUS
 62
     7
100
AcDbSpline
210
0.0
220
0.0
230
1.0
 70
     8
 71
     3
 72
     8
 73
     4
 74
     0
 42
0.000000001
 43
0.0000000001
 40
0.0
 40
0.0
 40
0.0
 40
0.0
 40
1.0
 40
1.0
 40
1.0
 40
1.0
 10
20.81360319737592
 20
4.578924543386699
 30
0.0
 10
20.80856452770325
 20
4.571613977743889
 30
0.0
 10
20.80206400666008
 20
4.565113457112101
 30
0.0
 10
20.79475344234103
 20
4.56007478835181
 30
0.0
  0
LINE
  5
22B
330
1F
100
AcDbEntity
  8
0
  6
CONTINUOUS
 62
     7
100
AcDbLine
 10
20.81360319737592
 20
4.578924543386699
 30
0.0
 11
21.02476759927126
 21
4.407353466846734
 31
0.0
  0
ARC
  5
22C
330
1F
100
AcDbEntity
  8
0
  6
CONTINUOUS
 62
     7
100
AcDbCircle
 10
11.40273295846206
 20
13.95585295349604
 30
0.0
 40
0.0240085262181215
100
AcDbArc
 50
6.826148669364464
 51
43.51818109440866
  0
SPLINE
  5
22D
330
1F
100
AcDbEntity
  8
0
  6
CONTINUOUS
 62
     7
100
AcDbSpline
210
0.0
220
0.0
230
1.0
 70
     8
 71
     3
 72
     8
 73
     4
 74
     0
 42
0.000000001
 43
0.0000000001
 40
0.0
 40
0.0
 40
0.0
 40
0.0
 40
1.0
 40
1.0
 40
1.0
 40
1.0
 10
11.4265712970598
 20
13.95870653792017
 30
0.0
 10
11.42199780195443
 20
13.95573931691115
 30
0.0
 10
11.41793867081122
 20
13.95168018684772
 30
0.0
 10
11.41497144780757
 20
13.94710668866794
 30
0.0
  0
ARC
  5
22E
330
1F
100
AcDbEntity
  8
0
  6
CONTINUOUS
 62
     7
100
AcDbCircle
 10
11.41782503223163
 20
13.97094502726557
 30
0.0
 40
0.0240085262180075
100
AcDbArc
 50
226.4818189055332
 51
263.1738513307703
  0
SPLINE
  5
22F
330
1F
100
AcDbEntity
  8
0
  6
CONTINUOUS
 62
     7
100
AcDbSpline
210
0.0
220
0.0
230
1.0
 70
     8
 71
     3
 72
     8
 73
     4
 74
     0
 42
0.000000001
 43
0.0000000001
 40
0.0
 40
0.0
 40
0.0
 40
0.0
 40
1.0
 40
1.0
 40
1.0
 40
1.0
 10
20.78832502832114
 20
4.573753108154369
 30
0.0
 10
20.7928985234265
 20
4.57672032916339
 30
0.0
 10
20.79695765456971
 20
4.580779459226818
 30
0.0
 10
20.79992487757337
 20
4.585352957406605
 30
0.0
  0
ARC
  5
230
330
1F
100
AcDbEntity
  8
0
  6
CONTINUOUS
 62
     7
100
AcDbCircle
 10
20.79707129314921
 20
4.561514618808801
 30
0.0
 40
0.0240085262181866
100
AcDbArc
 50
46.48181890563833
 51
83.17385133058582
  0
ARC
  5
231
330
1F
100
AcDbEntity
  8
0
  6
CONTINUOUS
 62
     7
100
AcDbCircle
 10
20.81216336691882
 20
4.576606692578456
 30
0.0
 40
0.024008526218063
100
AcDbArc
 50
186.8261486692689
 51
223.5181810944208
  0
SPLINE
  5
232
330
1F
100
AcDbEntity
  8
0
  6
CONTINUOUS
 62
     7
100
AcDbSpline
210
0.0
220
0.0
230
1.0
 70
     8
 71
     3
 72
     8
 73
     4
 74
     0
 42
0.000000001
 43
0.0000000001
 40
0.0
 40
0.0
 40
0.0
 40
0.0
 40
0.0001039534811277
 40
0.0001039534811277
 40
0.0001039534811277
 40
0.0001039534811277
 10
20.9622322084028
 20
4.348918035534809
 30
0.0
 10
20.96359642731523
 20
4.348918035534809
 30
0.0
 10
20.96496075505757
 20
4.348915446055937
 30
0.0
 10
20.966324518881
 20
4.34891038645647
 30
0.0
  0
LINE
  5
233
330
1F
100
AcDbEntity
  8
0
  6
CONTINUOUS
 62
     7
100
AcDbLine
 10
11.25266411697813
 20
4.34891803553481
 30
0.0
 11
20.9622322084028
 21
4.34891803553481
 31
0.0
  0
SPLINE
  5
234
330
1F
100
AcDbEntity
  8
0
  6
CONTINUOUS
 62
     7
100
AcDbSpline
210
0.0
220
0.0
230
1.0
 70
     8
 71
     3
 72
     8
 73
     4
 74
     0
 42
0.000000001
 43
0.0000000001
 40
0.0
 40
0.0
 40
0.0
 40
0.0
 40
0.0001039534811276
 40
0.0001039534811276
 40
0.0001039534811276
 40
0.0001039534811276
 10
11.24857180649993
 20
4.34891038645647
 30
0.0
 10
11.24993557032336
 20
4.348915446055937
 30
0.0
 10
11.25129989806569
 20
4.348918035534806
 30
0.0
 10
11.25266411697813
 20
4.348918035534806
 30
0.0
  0
SPLINE
  5
235
330
1F
100
AcDbEntity
  8
0
  6
CONTINUOUS
 62
     7
100
AcDbSpline
210
0.0
220
0.0
230
1.0
 70
     8
 71
     3
 72
    10
 73
     6
 74
     0
 42
0.000000001
 43
0.0000000001
 40
0.0
 40
0.0
 40
0.0
 40
0.0
 40
0.5
 40
0.5
 40
1.0
 40
1.0
 40
1.0
 40
1.0
 10
11.44799934379283
 20
4.551508723332212
 30
0.0
 10
11.4429936743718
 20
4.55150872333221
 30
0.0
 10
11.43805180337509
 20
4.552271926795097
 30
0.0
 10
11.42860655220247
 20
4.555207914575851
 30
0.0
 10
11.42421786639454
 20
4.557327990003516
 30
0.0
 10
11.4201428830399
 20
4.56007478835181
 30
0.0
  0
LINE
  5
236
330
1F
100
AcDbEntity
  8
0
  6
CONTINUOUS
 62
     7
100
AcDbLine
 10
20.7668969815881
 20
4.551508723332212
 30
0.0
 11
11.44799934379283
 21
4.551508723332212
 31
0.0
  0
SPLINE
  5
237
330
1F
100
AcDbEntity
  8
0
  6
CONTINUOUS
 62
     7
100
AcDbSpline
210
0.0
220
0.0
230
1.0
 70
     8
 71
     3
 72
    10
 73
     6
 74
     0
 42
0.000000001
 43
0.0000000001
 40
0.0
 40
0.0
 40
0.0
 40
0.0
 40
0.5
 40
0.5
 40
1.0
 40
1.0
 40
1.0
 40
1.0
 10
20.79475344234103
 20
4.56007478835181
 30
0.0
 10
20.79067689742991
 20
4.557326937414986
 30
0.0
 10
20.7862178357595
 20
4.555177434875662
 30
0.0
 10
20.77676633298412
 20
4.552255870795757
 30
0.0
 10
20.77190383312916
 20
4.551508723332212
 30
0.0
 10
20.7668969815881
 20
4.551508723332212
 30
0.0
  0
SPLINE
  5
238
330
1F
100
AcDbEntity
  8
0
  6
CONTINUOUS
 62
     7
100
AcDbSpline
210
0.0
220
0.0
230
1.0
 70
     8
 71
     3
 72
     8
 73
     4
 74
     0
 42
0.000000001
 43
0.0000000001
 40
0.0
 40
0.0
 40
0.0
 40
0.0
 40
1.0
 40
1.0
 40
1.0
 40
1.0
 10
20.7668969815881
 20
4.567410925399471
 30
0.0
 10
20.7745980843701
 20
4.567410925399471
 30
0.0
 10
20.7820463967856
 20
4.56967961797434
 30
0.0
 10
20.78832502832114
 20
4.573753108154369
 30
0.0
  0
LINE
  5
239
330
1F
100
AcDbEntity
  8
0
  6
CONTINUOUS
 62
     7
100
AcDbLine
 10
20.7668969815881
 20
4.551508723332212
 30
0.0
 11
20.7668969815881
 21
4.567410925399471
 31
0.0
  0
SPLINE
  5
23A
330
1F
100
AcDbEntity
  8
0
  6
CONTINUOUS
 62
     7
100
AcDbSpline
210
0.0
220
0.0
230
1.0
 70
     8
 71
     3
 72
     8
 73
     4
 74
     0
 42
0.000000001
 43
0.0000000001
 40
0.0
 40
0.0
 40
0.0
 40
0.0
 40
0.0001039534811276
 40
0.0001039534811276
 40
0.0001039534811276
 40
0.0001039534811276
 10
11.19013637518801
 20
4.411445777324929
 30
0.0
 10
11.19013637518801
 20
4.410081558412494
 30
0.0
 10
11.19013378570913
 20
4.408717230670161
 30
0.0
 10
11.19012872610967
 20
4.407353466846734
 30
0.0
  0
LINE
  5
23B
330
1F
100
AcDbEntity
  8
0
  6
CONTINUOUS
 62
     7
100
AcDbLine
 10
11.19013637518801
 20
14.12101386874961
 30
0.0
 11
11.19013637518801
 21
4.411445777324929
 31
0.0
  0
SPLINE
  5
23C
330
1F
100
AcDbEntity
  8
0
  6
CONTINUOUS
 62
     7
100
AcDbSpline
210
0.0
220
0.0
230
1.0
 70
     8
 71
     3
 72
     8
 73
     4
 74
     0
 42
0.000000001
 43
0.0000000001
 40
0.0
 40
0.0
 40
0.0
 40
0.0
 40
0.0001039534811276
 40
0.0001039534811276
 40
0.0001039534811276
 40
0.0001039534811276
 10
11.19012872610967
 20
14.1251061792278
 30
0.0
 10
11.19013378570913
 20
14.12374241540437
 30
0.0
 10
11.190136375188
 20
14.12237808766204
 30
0.0
 10
11.190136375188
 20
14.12101386874961
 30
0.0
  0
SPLINE
  5
23D
330
1F
100
AcDbEntity
  8
0
  6
CONTINUOUS
 62
     7
100
AcDbSpline
210
0.0
220
0.0
230
1.0
 70
     8
 71
     3
 72
    10
 73
     6
 74
     0
 42
0.000000001
 43
0.0000000001
 40
0.0
 40
0.0
 40
0.0
 40
0.0
 40
0.5
 40
0.5
 40
1.0
 40
1.0
 40
1.0
 40
1.0
 10
11.39272706298541
 20
13.9256786419349
 30
0.0
 10
11.39272706298541
 20
13.93068549347596
 30
0.0
 10
11.39347421044895
 20
13.93554799333092
 30
0.0
 10
11.39639577452886
 20
13.9449994961063
 30
0.0
 10
11.39854527706818
 20
13.94945855777671
 30
0.0
 10
11.40129312800501
 20
13.95353510268783
 30
0.0
  0
LINE
  5
23E
330
1F
100
AcDbEntity
  8
0
  6
CONTINUOUS
 62
     7
100
AcDbLine
 10
11.39272706298541
 20
4.606781004139629
 30
0.0
 11
11.39272706298541
 21
13.9256786419349
 31
0.0
  0
SPLINE
  5
23F
330
1F
100
AcDbEntity
  8
0
  6
CONTINUOUS
 62
     7
100
AcDbSpline
210
0.0
220
0.0
230
1.0
 70
     8
 71
     3
 72
    10
 73
     6
 74
     0
 42
0.000000001
 43
0.0000000001
 40
0.0
 40
0.0
 40
0.0
 40
0.0
 40
0.5
 40
0.5
 40
1.0
 40
1.0
 40
1.0
 40
1.0
 10
11.40129312800501
 20
4.578924543386699
 30
0.0
 10
11.39854632965671
 20
4.582999526741348
 30
0.0
 10
11.39642625422905
 20
4.587388212549275
 30
0.0
 10
11.3934902664483
 20
4.596833463721885
 30
0.0
 10
11.39272706298541
 20
4.601775334718599
 30
0.0
 10
11.39272706298541
 20
4.606781004139629
 30
0.0
  0
SPLINE
  5
240
330
1F
100
AcDbEntity
  8
0
  6
CONTINUOUS
 62
     7
100
AcDbSpline
210
0.0
220
0.0
230
1.0
 70
     8
 71
     3
 72
     8
 73
     4
 74
     0
 42
0.000000001
 43
0.0000000001
 40
0.0
 40
0.0
 40
0.0
 40
0.0
 40
1.0
 40
1.0
 40
1.0
 40
1.0
 10
11.41497144780757
 20
13.94710668866794
 30
0.0
 10
11.41089795762754
 20
13.9408280571324
 30
0.0
 10
11.40862926505267
 20
13.9333797447169
 30
0.0
 10
11.40862926505267
 20
13.9256786419349
 30
0.0
  0
LINE
  5
241
330
1F
100
AcDbEntity
  8
0
  6
CONTINUOUS
 62
     7
100
AcDbLine
 10
11.39272706298541
 20
13.9256786419349
 30
0.0
 11
11.40862926505267
 21
13.9256786419349
 31
0.0
  0
SPLINE
  5
242
330
1F
100
AcDbEntity
  8
0
  6
CONTINUOUS
 62
     7
100
AcDbSpline
210
0.0
220
0.0
230
1.0
 70
     8
 71
     3
 72
     8
 73
     4
 74
     0
 42
0.000000001
 43
0.0000000001
 40
0.0
 40
0.0
 40
0.0
 40
0.0
 40
1.0
 40
1.0
 40
1.0
 40
1.0
 10
20.79992487757337
 20
4.585352957406605
 30
0.0
 10
20.80399836775339
 20
4.59163158894214
 30
0.0
 10
20.80626706032826
 20
4.599079901357639
 30
0.0
 10
20.80626706032826
 20
4.606781004139629
 30
0.0
  0
LINE
  5
243
330
1F
100
AcDbEntity
  8
0
  6
CONTINUOUS
 62
     7
100
AcDbLine
 10
20.80626706032826
 20
4.606781004139629
 30
0.0
 11
20.82216926239552
 21
4.606781004139629
 31
0.0
  0
SPLINE
  5
244
330
1F
100
AcDbEntity
  8
0
  6
CONTINUOUS
 62
     7
100
AcDbSpline
210
0.0
220
0.0
230
1.0
 70
     8
 71
     3
 72
    10
 73
     6
 74
     0
 42
0.000000001
 43
0.0000000001
 40
0.0
 40
0.0
 40
0.0
 40
0.0
 40
0.5
 40
0.5
 40
1.0
 40
1.0
 40
1.0
 40
1.0
 10
20.82216926239552
 20
4.606781004139629
 30
0.0
 10
20.82216926239552
 20
4.601774152598574
 30
0.0
 10
20.82142211493197
 20
4.596911652743611
 30
0.0
 10
20.81850055085207
 20
4.587460149968232
 30
0.0
 10
20.81635104831274
 20
4.583001088297819
 30
0.0
 10
20.81360319737592
 20
4.578924543386699
 30
0.0
  0
SPLINE
  5
245
330
1F
100
AcDbEntity
  8
0
  6
CONTINUOUS
 62
     7
100
AcDbSpline
210
0.0
220
0.0
230
1.0
 70
     8
 71
     3
 72
     8
 73
     4
 74
     0
 42
0.000000001
 43
0.0000000001
 40
0.0
 40
0.0
 40
0.0
 40
0.0
 40
0.0001039534811276
 40
0.0001039534811276
 40
0.0001039534811276
 40
0.0001039534811276
 10
11.25266411697812
 20
14.18354161053973
 30
0.0
 10
11.25129989806569
 20
14.18354161053973
 30
0.0
 10
11.24993557032336
 20
14.1835442000186
 30
0.0
 10
11.24857180649993
 20
14.18354925961807
 30
0.0
  0
LINE
  5
246
330
1F
100
AcDbEntity
  8
0
  6
CONTINUOUS
 62
     7
100
AcDbLine
 10
20.9622322084028
 20
14.18354161053972
 30
0.0
 11
11.25266411697813
 21
14.18354161053973
 31
0.0
  0
SPLINE
  5
247
330
1F
100
AcDbEntity
  8
0
  6
CONTINUOUS
 62
     7
100
AcDbSpline
210
0.0
220
0.0
230
1.0
 70
     8
 71
     3
 72
     8
 73
     4
 74
     0
 42
0.000000001
 43
0.0000000001
 40
0.0
 40
0.0
 40
0.0
 40
0.0
 40
0.0001039534811276
 40
0.0001039534811276
 40
0.0001039534811276
 40
0.0001039534811276
 10
20.966324518881
 20
14.18354925961807
 30
0.0
 10
20.96496075505757
 20
14.1835442000186
 30
0.0
 10
20.96359642731524
 20
14.18354161053973
 30
0.0
 10
20.9622322084028
 20
14.18354161053973
 30
0.0
  0
SPLINE
  5
248
330
1F
100
AcDbEntity
  8
0
  6
CONTINUOUS
 62
     7
100
AcDbSpline
210
0.0
220
0.0
230
1.0
 70
     8
 71
     3
 72
    10
 73
     6
 74
     0
 42
0.000000001
 43
0.0000000001
 40
0.0
 40
0.0
 40
0.0
 40
0.0
 40
0.5
 40
0.5
 40
1.0
 40
1.0
 40
1.0
 40
1.0
 10
20.7668969815881
 20
13.98095092274232
 30
0.0
 10
20.77190265100913
 20
13.98095092274232
 30
0.0
 10
20.77684452200585
 20
13.98018771927944
 30
0.0
 10
20.78628977317845
 20
13.97725173149868
 30
0.0
 10
20.79067845898638
 20
13.97513165607102
 30
0.0
 10
20.79475344234103
 20
13.97238485772272
 30
0.0
  0
LINE
  5
249
330
1F
100
AcDbEntity
  8
0
  6
CONTINUOUS
 62
     7
100
AcDbLine
 10
11.44799934379283
 20
13.98095092274232
 30
0.0
 11
20.7668969815881
 21
13.98095092274232
 31
0.0
  0
SPLINE
  5
24A
330
1F
100
AcDbEntity
  8
0
  6
CONTINUOUS
 62
     7
100
AcDbSpline
210
0.0
220
0.0
230
1.0
 70
     8
 71
     3
 72
    10
 73
     6
 74
     0
 42
0.000000001
 43
0.0000000001
 40
0.0
 40
0.0
 40
0.0
 40
0.0
 40
0.5
 40
0.5
 40
1.0
 40
1.0
 40
1.0
 40
1.0
 10
11.4201428830399
 20
13.97238485772272
 30
0.0
 10
11.42421942795102
 20
13.97513270865955
 30
0.0
 10
11.42867848962143
 20
13.97728221119887
 30
0.0
 10
11.43812999239681
 20
13.98020377527878
 30
0.0
 10
11.44299249225177
 20
13.98095092274232
 30
0.0
 10
11.44799934379283
 20
13.98095092274232
 30
0.0
  0
LINE
  5
24B
330
1F
100
AcDbEntity
  8
0
  6
CONTINUOUS
 62
     7
100
AcDbLine
 10
11.44799934379283
 20
13.96504872067506
 30
0.0
 11
11.44799934379283
 21
13.98095092274232
 31
0.0
  0
SPLINE
  5
24C
330
1F
100
AcDbEntity
  8
0
  6
CONTINUOUS
 62
     7
100
AcDbSpline
210
0.0
220
0.0
230
1.0
 70
     8
 71
     3
 72
     8
 73
     4
 74
     0
 42
0.000000001
 43
0.0000000001
 40
0.0
 40
0.0
 40
0.0
 40
0.0
 40
1.0
 40
1.0
 40
1.0
 40
1.0
 10
11.44799934379283
 20
13.96504872067506
 30
0.0
 10
11.44029824101084
 20
13.96504872067506
 30
0.0
 10
11.43284992859534
 20
13.9627800281002
 30
0.0
 10
11.4265712970598
 20
13.95870653792017
 30
0.0
  0
LINE
  5
24D
330
1F
100
AcDbEntity
  8
0
  6
CONTINUOUS
 62
     7
100
AcDbLine
 10
21.02475995019293
 20
4.411445777324922
 30
0.0
 11
21.02475995019293
 21
9.266229823037266
 31
0.0
  0
SPLINE
  5
24E
330
1F
100
AcDbEntity
  8
0
  6
CONTINUOUS
 62
     7
100
AcDbSpline
210
0.0
220
0.0
230
1.0
 70
     8
 71
     3
 72
     8
 73
     4
 74
     0
 42
0.000000001
 43
0.0000000001
 40
0.0
 40
0.0
 40
0.0
 40
0.0
 40
0.0001039534811274
 40
0.0001039534811274
 40
0.0001039534811274
 40
0.0001039534811274
 10
21.02476759927126
 20
4.407353466846734
 30
0.0
 10
21.02476253967179
 20
4.408717230670158
 30
0.0
 10
21.02475995019292
 20
4.410081558412489
 30
0.0
 10
21.02475995019292
 20
4.411445777324922
 30
0.0
  0
LINE
  5
24F
330
1F
100
AcDbEntity
  8
0
  6
CONTINUOUS
 62
     7
100
AcDbLine
 10
20.82216926239552
 20
9.266229823037266
 30
0.0
 11
20.82216926239552
 21
4.606781004139629
 31
0.0
  0
SPLINE
  5
250
330
1F
100
AcDbEntity
  8
0
  6
CONTINUOUS
 62
     7
100
AcDbSpline
210
0.0
220
0.0
230
1.0
 70
    24
 71
     3
 72
    14
 73
    10
 74
     0
 42
0.000000001
 43
0.0000000001
 40
0.0
 40
0.0
 40
0.0
 40
0.0
 40
0.25
 40
0.25
 40
0.5
 40
0.5
 40
0.75
 40
0.75
 40
1.0
 40
1.0
 40
1.0
 40
1.0
 10
21.02475995019292
 20
9.266229823037266
 30
0.0
 10
21.02071183633954
 20
9.266229823037266
 30
0.0
 10
21.01290503153188
 20
9.266229823037266
 30
0.0
 10
20.99032961481696
 20
9.266229823037266
 30
0.0
 10
20.97556294315378
 20
9.266229823037266
 30
0.0
 10
20.94012255010994
 20
9.266229823037266
 30
0.0
 10
20.91945187465367
 20
9.266229823037266
 30
0.0
 10
20.87368060387717
 20
9.266229823037266
 30
0.0
 10
20.84858394236856
 20
9.266229823037266
 30
0.0
 10
20.82216926239552
 20
9.266229823037266
 30
0.0
  0
LINE
  5
251
330
1F
100
AcDbEntity
  8
0
  6
CONTINUOUS
 62
     7
100
AcDbLine
 10
11.39272706298541
 20
4.606781004139629
 30
0.0
 11
11.40862926505267
 21
4.606781004139629
 31
0.0
  0
SPLINE
  5
252
330
1F
100
AcDbEntity
  8
0
  6
CONTINUOUS
 62
     7
100
AcDbSpline
210
0.0
220
0.0
230
1.0
 70
     8
 71
     3
 72
     8
 73
     4
 74
     0
 42
0.000000001
 43
0.0000000001
 40
0.0
 40
0.0
 40
0.0
 40
0.0
 40
1.0
 40
1.0
 40
1.0
 40
1.0
 10
11.40862926505267
 20
4.606781004139629
 30
0.0
 10
11.40862926505267
 20
4.599082011258554
 30
0.0
 10
11.41089966224191
 20
4.591628961552597
 30
0.0
 10
11.41497144780757
 20
4.585352957406605
 30
0.0
  0
SPLINE
  5
253
330
1F
100
AcDbEntity
  8
0
  6
CONTINUOUS
 62
     7
100
AcDbSpline
210
0.0
220
0.0
230
1.0
 70
     8
 71
     3
 72
     8
 73
     4
 74
     0
 42
0.000000001
 43
0.0000000001
 40
0.0
 40
0.0
 40
0.0
 40
0.0
 40
1.0
 40
1.0
 40
1.0
 40
1.0
 10
11.4265712970598
 20
4.573753108154369
 30
0.0
 10
11.43284730120579
 20
4.569681322588707
 30
0.0
 10
11.44030035091175
 20
4.567410925399471
 30
0.0
 10
11.44799934379283
 20
4.567410925399471
 30
0.0
  0
LINE
  5
254
330
1F
100
AcDbEntity
  8
0
  6
CONTINUOUS
 62
     7
100
AcDbLine
 10
11.44799934379283
 20
4.551508723332212
 30
0.0
 11
11.44799934379283
 21
4.567410925399471
 31
0.0
  0
SPLINE
  5
255
330
1F
100
AcDbEntity
  8
0
  6
CONTINUOUS
 62
     7
100
AcDbSpline
210
0.0
220
0.0
230
1.0
 70
     8
 71
     3
 72
     8
 73
     4
 74
     0
 42
0.000000001
 43
0.0000000001
 40
0.0
 40
0.0
 40
0.0
 40
0.0
 40
1.0
 40
1.0
 40
1.0
 40
1.0
 10
20.80626706032826
 20
13.9256786419349
 30
0.0
 10
20.80626706032826
 20
13.93337763481598
 30
0.0
 10
20.80399666313903
 20
13.94083068452194
 30
0.0
 10
20.79992487757337
 20
13.94710668866793
 30
0.0
  0
SPLINE
  5
256
330
1F
100
AcDbEntity
  8
0
  6
CONTINUOUS
 62
     7
100
AcDbSpline
210
0.0
220
0.0
230
1.0
 70
     8
 71
     3
 72
    10
 73
     6
 74
     0
 42
0.000000001
 43
0.0000000001
 40
0.0
 40
0.0
 40
0.0
 40
0.0
 40
0.5
 40
0.5
 40
1.0
 40
1.0
 40
1.0
 40
1.0
 10
20.81360319737592
 20
13.95353510268783
 30
0.0
 10
20.81634999572422
 20
13.94946011933319
 30
0.0
 10
20.81847007115188
 20
13.94507143352526
 30
0.0
 10
20.82140605893263
 20
13.93562618235265
 30
0.0
 10
20.82216926239552
 20
13.93068431135594
 30
0.0
 10
20.82216926239552
 20
13.9256786419349
 30
0.0
  0
LINE
  5
257
330
1F
100
AcDbEntity
  8
0
  6
CONTINUOUS
 62
     7
100
AcDbLine
 10
20.80626706032826
 20
13.9256786419349
 30
0.0
 11
20.82216926239552
 21
13.9256786419349
 31
0.0
  0
SPLINE
  5
258
330
1F
100
AcDbEntity
  8
0
  6
CONTINUOUS
 62
     7
100
AcDbSpline
210
0.0
220
0.0
230
1.0
 70
     8
 71
     3
 72
     8
 73
     4
 74
     0
 42
0.000000001
 43
0.0000000001
 40
0.0
 40
0.0
 40
0.0
 40
0.0
 40
1.0
 40
1.0
 40
1.0
 40
1.0
 10
20.78832502832114
 20
13.95870653792016
 30
0.0
 10
20.78204902417514
 20
13.96277832348583
 30
0.0
 10
20.77459597446918
 20
13.96504872067506
 30
0.0
 10
20.7668969815881
 20
13.96504872067506
 30
0.0
  0
LINE
  5
259
330
1F
100
AcDbEntity
  8
0
  6
CONTINUOUS
 62
     7
100
AcDbLine
 10
20.7668969815881
 20
13.96504872067506
 30
0.0
 11
20.7668969815881
 21
13.98095092274232
 31
0.0
  0
SPLINE
  5
25A
330
1F
100
AcDbEntity
  8
0
  6
CONTINUOUS
 62
     7
100
AcDbSpline
210
0.0
220
0.0
230
1.0
 70
     8
 71
     3
 72
     8
 73
     4
 74
     0
 42
0.000000001
 43
0.0000000001
 40
0.0
 40
0.0
 40
0.0
 40
0.0
 40
0.0001039534811274
 40
0.0001039534811274
 40
0.0001039534811274
 40
0.0001039534811274
 10
21.02475995019293
 20
14.12101386874961
 30
0.0
 10
21.02475995019293
 20
14.12237808766204
 30
0.0
 10
21.02476253967179
 20
14.12374241540437
 30
0.0
 10
21.02476759927126
 20
14.1251061792278
 30
0.0
  0
LINE
  5
25B
330
1F
100
AcDbEntity
  8
0
  6
CONTINUOUS
 62
     7
100
AcDbLine
 10
21.02475995019293
 20
14.12101386874961
 30
0.0
 11
21.02475995019293
 21
9.266229823037266
 31
0.0
  0
LINE
  5
25C
330
1F
100
AcDbEntity
  8
0
  6
CONTINUOUS
 62
     7
100
AcDbLine
 10
20.82216926239552
 20
13.9256786419349
 30
0.0
 11
20.82216926239552
 21
9.266229823037266
 31
0.0
  0
LINE
  5
25D
330
1F
100
AcDbEntity
  8
0
  6
CONTINUOUS
 62
     7
100
AcDbLine
 10
20.80626706032826
 20
9.266229823037266
 30
0.0
 11
20.80626706032826
 21
13.9256786419349
 31
0.0
  0
SPLINE
  5
25E
330
1F
100
AcDbEntity
  8
0
  6
CONTINUOUS
 62
     7
100
AcDbSpline
210
0.0
220
0.0
230
1.0
 70
    24
 71
     3
 72
    10
 73
     6
 74
     0
 42
0.000000001
 43
0.0000000001
 40
0.0
 40
0.0
 40
0.0
 40
0.0
 40
0.5
 40
0.5
 40
1.0
 40
1.0
 40
1.0
 40
1.0
 10
20.80626706032826
 20
9.266229823037266
 30
0.0
 10
20.80626706032826
 20
9.266229823037266
 30
0.0
 10
20.80821774551263
 20
9.266229823037266
 30
0.0
 10
20.81443440270922
 20
9.266229823037266
 30
0.0
 10
20.81861538494149
 20
9.266229823037266
 30
0.0
 10
20.82216926239552
 20
9.266229823037266
 30
0.0
  0
LINE
  5
25F
330
1F
100
AcDbEntity
  8
0
  6
CONTINUOUS
 62
     7
100
AcDbLine
 10
20.80626706032826
 20
4.606781004139629
 30
0.0
 11
20.80626706032826
 21
9.266229823037266
 31
0.0
  0
LINE
  5
260
330
1F
100
AcDbEntity
  8
0
  6
CONTINUOUS
 62
     7
100
AcDbLine
 10
11.44799934379283
 20
4.567410925399471
 30
0.0
 11
20.7668969815881
 21
4.567410925399471
 31
0.0
  0
LINE
  5
261
330
1F
100
AcDbEntity
  8
0
  6
CONTINUOUS
 62
     7
100
AcDbLine
 10
11.40862926505267
 20
13.9256786419349
 30
0.0
 11
11.40862926505267
 21
4.606781004139629
 31
0.0
  0
LINE
  5
262
330
1F
100
AcDbEntity
  8
0
  6
CONTINUOUS
 62
     7
100
AcDbLine
 10
20.7668969815881
 20
13.96504872067506
 30
0.0
 11
11.44799934379283
 21
13.96504872067506
 31
0.0
  0
LINE
  5
263
330
1F
100
AcDbEntity
  8
0
  6
CONTINUOUS
 62
     7
100
AcDbLine
 10
11.4893489736132
 20
4.569390476479684
 30
0.0
 11
20.72554735176773
 21
4.569390476479684
 31
0.0
  0
LWPOLYLINE
  5
264
330
1F
100
AcDbEntity
  8
0
  6
CONTINUOUS
 62
     7
100
AcDbPolyline
 90
        3
 70
   128
 43
0.0
 10
11.41060881613288
 20
4.648130633959998
 10
11.41212178617987
 20
4.632769191281563
 10
11.41589108269849
 20
4.61977661021755
  0
LWPOLYLINE
  5
265
330
1F
100
AcDbEntity
  8
0
  6
CONTINUOUS
 62
     7
100
AcDbPolyline
 90
        3
 70
   128
 43
0.0
 10
11.46104643245492
 20
4.574652891996809
 10
11.47398753093476
 20
4.570903446526673
 10
11.4893489736132
 20
4.569390476479684
  0
LWPOLYLINE
  5
266
330
1F
100
AcDbEntity
  8
0
  6
CONTINUOUS
 62
     7
100
AcDbPolyline
 90
        3
 70
   128
 43
0.0
 10
20.80428750924805
 20
13.88432901211453
 10
20.80277453920106
 20
13.89969045479297
 10
20.79899411786306
 20
13.91271184055292
  0
LWPOLYLINE
  5
267
330
1F
100
AcDbEntity
  8
0
  6
CONTINUOUS
 62
     7
100
AcDbPolyline
 90
        3
 70
   128
 43
0.0
 10
20.75398167718591
 20
13.95775585691967
 10
20.74090879444617
 20
13.96155619954786
 10
20.72554735176773
 20
13.96306916959485
  0
LINE
  5
268
330
1F
100
AcDbEntity
  8
0
  6
CONTINUOUS
 62
     7
100
AcDbLine
 10
11.41060881613288
 20
13.88432901211453
 30
0.0
 11
11.41060881613288
 21
4.648130633959998
 31
0.0
  0
LINE
  5
269
330
1F
100
AcDbEntity
  8
0
  6
CONTINUOUS
 62
     7
100
AcDbLine
 10
20.72554735176773
 20
13.96306916959485
 30
0.0
 11
11.4893489736132
 21
13.96306916959485
 31
0.0
  0
LWPOLYLINE
  5
26A
330
1F
100
AcDbEntity
  8
0
  6
CONTINUOUS
 62
     7
100
AcDbPolyline
 90
        3
 70
   128
 43
0.0
 10
11.4893489736132
 20
13.96306916959485
 10
11.47398753093476
 20
13.96155619954786
 10
11.4609146486501
 20
13.9577558570959
  0
LWPOLYLINE
  5
26B
330
1F
100
AcDbEntity
  8
0
  6
CONTINUOUS
 62
     7
100
AcDbPolyline
 90
        3
 70
   128
 43
0.0
 10
11.41590220734532
 20
13.91271184010643
 10
11.41212178617987
 20
13.89969045479297
 10
11.41060881613288
 20
13.88432901211453
  0
LWPOLYLINE
  5
26C
330
1F
100
AcDbEntity
  8
0
  6
CONTINUOUS
 62
     7
100
AcDbPolyline
 90
        3
 70
   128
 43
0.0
 10
20.72554735176773
 20
4.569390476479684
 10
20.74090879444617
 20
4.570903446526673
 10
20.75384989247484
 20
4.574652891823028
  0
LWPOLYLINE
  5
26D
330
1F
100
AcDbEntity
  8
0
  6
CONTINUOUS
 62
     7
100
AcDbPolyline
 90
        3
 70
   128
 43
0.0
 10
20.79900524285994
 20
4.619776610677395
 10
20.80277453920106
 20
4.632769191281563
 10
20.80428750924805
 20
4.648130633959998
  0
LINE
  5
26E
330
1F
100
AcDbEntity
  8
0
  6
CONTINUOUS
 62
     7
100
AcDbLine
 10
20.80428750924805
 20
4.648130633959998
 30
0.0
 11
20.80428750924805
 21
13.88432901211453
 31
0.0
  0
DIMENSION
  5
26F
330
1F
100
AcDbEntity
  8
___2
100
AcDbDimension
  2
_D_3
 10
22.60293595633565
 20
4.348918035534809
 30
0.0
 11
22.60293595633565
 21
9.221959054730695
 31
0.0
 70
   160
  1
<>
  3
SLDDIMSTYLE2
100
AcDbAlignedDimension
 13
20.9622322084028
 23
14.18354161053972
 33
0.0
 14
20.9622322084028
 24
4.34891803553481
 34
0.0
 50
90.0000000000002
100
AcDbRotatedDimension
  0
DIMENSION
  5
281
330
1F
100
AcDbEntity
  8
___2
100
AcDbDimension
  2
_D_4
 10
21.02475995019293
 20
3.006962501833027
 30
0.0
 11
16.06568426269769
 21
3.006962501833027
 31
0.0
 70
   160
  1
<>
  3
SLDDIMSTYLE2
100
AcDbAlignedDimension
 13
11.19013637518801
 23
4.411445777324929
 33
0.0
 14
21.02475995019293
 24
4.411445777324922
 34
0.0
 50
0.0000000000000052
100
AcDbRotatedDimension
  0
LINE
  5
292
330
1F
100
AcDbEntity
  8
___2
  6
CENTERX2
100
AcDbLine
 10
16.10744816269047
 20
14.19975402622992
 30
0.0
 11
16.10744816269047
 21
4.332705619844611
 31
0.0
  0
LINE
  5
293
330
1F
100
AcDbEntity
  8
___2
  6
CENTERX2
100
AcDbLine
 10
11.17392395949781
 20
9.266229823037268
 30
0.0
 11
21.04097236588311
 21
9.266229823037266
 31
0.0
  0
LINE
  5
294
330
1F
100
AcDbEntity
  8
0
  6
CONTINUOUS
 62
     7
100
AcDbLine
 10
34.62428465369102
 20
10.71499838197662
 30
0.0
 11
34.60449982636494
 21
10.70357684427553
 31
0.0
  0
LINE
  5
295
330
1F
100
AcDbEntity
  8
0
  6
CONTINUOUS
 62
     7
100
AcDbLine
 10
34.80133422255313
 20
10.36261272522802
 30
0.0
 11
34.82111904987922
 21
10.37403426292911
 31
0.0
  0
LINE
  5
296
330
1F
100
AcDbEntity
  8
0
  6
CONTINUOUS
 62
     7
100
AcDbLine
 10
34.62428465369119
 20
3.819407667429539
 30
0.0
 11
34.6044998263651
 21
3.807986129728455
 31
0.0
  0
LINE
  5
297
330
1F
100
AcDbEntity
  8
0
  6
CONTINUOUS
 62
     7
100
AcDbLine
 10
34.8013342225533
 20
3.467022010680943
 30
0.0
 11
34.82111904987939
 21
3.478443548382027
 31
0.0
  0
LINE
  5
298
330
1F
100
AcDbEntity
  8
0
  6
CONTINUOUS
 62
     7
100
AcDbLine
 10
34.97891412574729
 20
3.255889671957785
 30
0.0
 11
35.01788851526151
 21
3.278389108110379
 31
0.0
  0
LINE
  5
299
330
1F
100
AcDbEntity
  8
0
  6
CONTINUOUS
 62
     7
100
AcDbLine
 10
28.57797761107261
 20
14.43265673571515
 30
0.0
 11
28.5390032215584
 21
14.41015729956256
 31
0.0
  0
LINE
  5
29A
330
1F
100
AcDbEntity
  8
0
  6
CONTINUOUS
 62
     7
100
AcDbLine
 10
28.65285140311977
 20
7.266642706523273
 30
0.0
 11
28.63306657579367
 21
7.255221168822187
 31
0.0
  0
LINE
  5
29B
330
1F
100
AcDbEntity
  8
0
  6
CONTINUOUS
 62
     7
100
AcDbLine
 10
28.82990097198187
 20
6.914257049774675
 30
0.0
 11
28.84968579930796
 21
6.925678587475759
 31
0.0
  0
LINE
  5
29C
330
1F
100
AcDbEntity
  8
0
  6
CONTINUOUS
 62
     7
100
AcDbLine
 10
28.6528514031196
 20
14.16223342107035
 30
0.0
 11
28.63306657579351
 21
14.15081188336927
 31
0.0
  0
LINE
  5
29D
330
1F
100
AcDbEntity
  8
0
  6
CONTINUOUS
 62
     7
100
AcDbLine
 10
28.82990097198171
 20
13.80984776432175
 30
0.0
 11
28.8496857993078
 21
13.82126930202284
 31
0.0
  0
LWPOLYLINE
  5
29E
330
1F
100
AcDbEntity
  8
0
  6
CONTINUOUS
 62
     7
100
AcDbPolyline
 90
       26
 70
   128
 43
0.0
 10
34.8421112727241
 20
10.45273965563537
 10
34.83773822945454
 20
10.49523767205753
 10
34.8248938740374
 20
10.54011439009899
 10
34.80438526456177
 20
10.58455004052018
 10
34.77750103238642
 20
10.62575256798225
 10
34.74593041269219
 20
10.66113306615247
 10
34.71165710362309
 20
10.68846844821041
 10
34.67683462323635
 20
10.70604113156889
 10
34.64365099604279
 20
10.71274695990468
 10
34.61419127137984
 20
10.70816458136112
 10
34.59030651209335
 20
10.69258192363493
 10
34.57349748545128
 20
10.66697810242005
 10
34.56482036441685
 20
10.63296189996766
 10
34.56482036441685
 20
10.59267067938071
 10
34.57349748545128
 20
10.54863608622941
 10
34.59030651209335
 20
10.50362497594936
 10
34.61419127137984
 20
10.46046556213873
 10
34.6436509960428
 20
10.42186970949649
 10
34.67683462323635
 20
10.39026253738974
 10
34.71165710362309
 20
10.36763004068501
 10
34.74593041269219
 20
10.35539430238676
 10
34.77750103238642
 20
10.35432413893217
 10
34.80438526456178
 20
10.36448679262686
 10
34.8248938740374
 20
10.38524370656357
 10
34.83773822945454
 20
10.41529064750109
 10
34.8421112727241
 20
10.45273965563537
  0
LWPOLYLINE
  5
29F
330
1F
100
AcDbEntity
  8
0
  6
CONTINUOUS
 62
     7
100
AcDbPolyline
 90
       26
 70
   128
 43
0.0
 10
34.84211127272427
 20
3.557148941088291
 10
34.83773822945471
 20
3.59964695751045
 10
34.82489387403756
 20
3.644523675551911
 10
34.80438526456194
 20
3.688959325973104
 10
34.77750103238658
 20
3.730161853435175
 10
34.74593041269235
 20
3.765542351605386
 10
34.71165710362325
 20
3.792877733663332
 10
34.67683462323652
 20
3.810450417021809
 10
34.64365099604296
 20
3.817156245357596
 10
34.61419127138001
 20
3.812573866814045
 10
34.59030651209351
 20
3.796991209087855
 10
34.57349748545145
 20
3.77138738787297
 10
34.56482036441701
 20
3.737371185420587
 10
34.56482036441701
 20
3.697079964833633
 10
34.57349748545145
 20
3.653045371682328
 10
34.59030651209351
 20
3.608034261402277
 10
34.61419127138001
 20
3.564874847591655
 10
34.64365099604296
 20
3.526278994949409
 10
34.67683462323652
 20
3.494671822842664
 10
34.71165710362326
 20
3.472039326137936
 10
34.74593041269235
 20
3.459803587839684
 10
34.77750103238659
 20
3.458733424385086
 10
34.80438526456194
 20
3.468896078079778
 10
34.82489387403756
 20
3.489652992016496
 10
34.83773822945471
 20
3.519699932954009
 10
34.84211127272427
 20
3.557148941088291
  0
ARC
  5
2A0
330
1F
100
AcDbEntity
  8
0
  6
CONTINUOUS
 62
     7
100
AcDbCircle
 10
34.87434178822767
 20
10.63209216897791
 30
0.0
 40
0.1210082525647437
100
AcDbArc
 50
2.605478485658018
 51
57.39452165997393
  0
LINE
  5
2A1
330
1F
100
AcDbEntity
  8
0
  6
CONTINUOUS
 62
     7
100
AcDbLine
 10
34.99522494581568
 20
10.63759302348662
 30
0.0
 11
34.91170839685664
 21
10.63759302348662
 31
0.0
  0
ARC
  5
2A2
330
1F
100
AcDbEntity
  8
0
  6
CONTINUOUS
 62
     7
100
AcDbCircle
 10
34.88148760745962
 20
10.63621780985943
 30
0.0
 40
0.0302520631412061
100
AcDbArc
 50
2.605478485680703
 51
57.39452165996249
  0
LINE
  5
2A3
330
1F
100
AcDbEntity
  8
0
  6
CONTINUOUS
 62
     7
100
AcDbLine
 10
34.93954724650965
 20
10.73402962725018
 30
0.0
 11
34.89778897203013
 21
10.66170217442751
 31
0.0
  0
ARC
  5
2A4
330
1F
100
AcDbEntity
  8
0
  6
CONTINUOUS
 62
     7
100
AcDbCircle
 10
34.9133161777419
 20
10.65459160513052
 30
0.0
 40
0.1210082525647268
100
AcDbArc
 50
2.605478485652443
 51
57.39452165997268
  0
LINE
  5
2A5
330
1F
100
AcDbEntity
  8
0
  6
CONTINUOUS
 62
     7
100
AcDbLine
 10
35.03419933532989
 20
10.66009245963922
 30
0.0
 11
34.99522494581568
 21
10.63759302348662
 31
0.0
  0
LINE
  5
2A6
330
1F
100
AcDbEntity
  8
0
  6
CONTINUOUS
 62
     7
100
AcDbLine
 10
34.93954724650965
 20
10.73402962725018
 30
0.0
 11
34.97852163602387
 21
10.75652906340277
 31
0.0
  0
LINE
  5
2A7
330
1F
100
AcDbEntity
  8
0
  6
CONTINUOUS
 62
     7
100
AcDbLine
 10
32.41317164049867
 20
4.731090357771738
 30
0.0
 11
31.0741229721887
 21
5.504106699871588
 31
0.0
  0
LINE
  5
2A8
330
1F
100
AcDbEntity
  8
0
  6
CONTINUOUS
 62
     7
100
AcDbLine
 10
31.0741229721887
 20
5.504106699871588
 30
0.0
 11
31.0741229721887
 21
5.579468919212065
 31
0.0
  0
LWPOLYLINE
  5
2A9
330
1F
100
AcDbEntity
  8
0
  6
CONTINUOUS
 62
     7
100
AcDbPolyline
 90
       23
 70
   128
 43
0.0
 10
31.0741229721887
 20
5.579468919212065
 10
30.91100166609501
 20
5.720119426705177
 10
30.75018131078051
 20
5.869124599242837
 10
30.59209263949153
 20
6.026085348776984
 10
30.43715906906773
 20
6.190581279437551
 10
30.2857955658834
 20
6.362171813499864
 10
30.13840753442217
 20
6.540397371406124
 10
29.99538973146184
 20
6.724780602680455
 10
29.85712520877738
 20
6.914827664440682
 10
29.72398428719413
 20
7.110029544082578
 10
29.5963235647389
 20
7.309863422593904
 10
29.47448496154555
 20
7.513794074846883
 10
29.35879480407306
 20
7.72127530311857
 10
29.24956295108903
 20
7.931751399999682
 10
29.14708196375928
 20
8.144658636773713
 10
29.05162632206662
 20
8.359426773279905
 10
28.96345168965731
 20
8.575480585216145
 10
28.8827942290842
 20
8.792241404791154
 10
28.80986996928074
 20
9.009128670599535
 10
28.7448742269598
 20
9.225561482568583
 10
28.68798108348712
 20
9.440960157812166
 10
28.63934291863037
 20
9.654747783224561
 10
28.59909000243283
 20
9.866351760655837
  0
LINE
  5
2AA
330
1F
100
AcDbEntity
  8
0
  6
CONTINUOUS
 62
     7
100
AcDbLine
 10
28.59909000243283
 20
9.866351760655837
 30
0.0
 11
28.53382794135121
 21
9.904026746583629
 31
0.0
  0
LINE
  5
2AB
330
1F
100
AcDbEntity
  8
0
  6
CONTINUOUS
 62
     7
100
AcDbLine
 10
28.53382794135121
 20
9.904026746583629
 30
0.0
 11
28.53382794135121
 21
11.45032065137986
 31
0.0
  0
LWPOLYLINE
  5
2AC
330
1F
100
AcDbEntity
  8
0
  6
CONTINUOUS
 62
     7
100
AcDbPolyline
 90
       12
 70
   128
 43
0.0
 10
28.59909000243283
 20
11.47371556358054
 10
28.63934291863037
 20
11.63884451321892
 10
28.68798108348712
 20
11.79647570881093
 10
28.7448742269598
 20
11.94618695879711
 10
28.80986996928074
 20
12.08757728400665
 10
28.8827942290842
 20
12.22026799162008
 10
28.96345168965731
 20
12.34390368944133
 10
29.05162632206662
 20
12.45815323776246
 10
29.14708196375928
 20
12.56271063627183
 10
29.24956295108903
 20
12.65729584363015
 10
29.35879480407306
 20
12.74165552751922
 10
29.44837692314865
 20
12.80014014540064
  0
LINE
  5
2AD
330
1F
100
AcDbEntity
  8
0
  6
CONTINUOUS
 62
     7
100
AcDbLine
 10
31.0741229721887
 20
12.90298616413099
 30
0.0
 11
31.0741229721887
 21
12.97834838347146
 31
0.0
  0
LINE
  5
2AE
330
1F
100
AcDbEntity
  8
0
  6
CONTINUOUS
 62
     7
100
AcDbLine
 10
31.0741229721887
 20
12.97834838347146
 30
0.0
 11
32.46606545483939
 21
12.17479709230738
 31
0.0
  0
LINE
  5
2AF
330
1F
100
AcDbEntity
  8
0
  6
CONTINUOUS
 62
     7
100
AcDbLine
 10
35.00636048567688
 20
7.774877045595339
 30
0.0
 11
35.00636048567688
 21
6.167513242670633
 31
0.0
  0
LINE
  5
2B0
330
1F
100
AcDbEntity
  8
0
  6
CONTINUOUS
 62
     7
100
AcDbLine
 10
35.00636048567688
 20
6.167513242670633
 30
0.0
 11
34.94109842459527
 21
6.205188228598426
 31
0.0
  0
LWPOLYLINE
  5
2B1
330
1F
100
AcDbEntity
  8
0
  6
CONTINUOUS
 62
     7
100
AcDbPolyline
 90
       12
 70
   128
 43
0.0
 10
34.03891768950151
 20
4.848228697692647
 10
33.94386486228919
 20
4.80008125373368
 10
33.81620413983396
 20
4.747641308001088
 10
33.68306321825071
 20
4.706160664370704
 10
33.54479869556625
 20
4.675750422536699
 10
33.40178089260592
 20
4.656492031779309
 10
33.2543928611447
 20
4.64843707281513
 10
33.10302935796037
 20
4.651607119645896
 10
32.94809578753656
 20
4.665993681775733
 10
32.79000711624758
 20
4.691558226951695
 10
32.62918676093307
 20
4.728232284366631
 10
32.46606545483939
 20
4.77591762804798
  0
LWPOLYLINE
  5
2B2
330
1F
100
AcDbEntity
  8
0
  6
CONTINUOUS
 62
     7
100
AcDbPolyline
 90
      118
 70
   128
 43
0.0
 10
28.90771982948987
 20
10.49186545537507
 10
28.91184631265833
 20
10.66690410235336
 10
28.92421386444449
 20
10.83667373154531
 10
28.94478682599496
 20
11.00068485316139
 10
28.97350588013581
 20
11.15846458068015
 10
29.01028822239941
 20
11.30955799430244
 10
29.05502779977111
 20
11.45352945260297
 10
29.10759561646753
 20
11.58996384859734
 10
29.16784010586482
 20
11.71846780660287
 10
29.23558756750445
 20
11.83867081644261
 10
29.31064266791661
 20
11.95022630172201
 10
29.39278900381717
 20
12.05281261909847
 10
29.48178972605437
 20
12.14613398566229
 10
29.57738822250623
 20
12.2299213317554
 10
29.67930885795972
 20
12.30393307676884
 10
29.78725776883847
 20
12.36795582568219
 10
29.90092371048749
 20
12.42180498433667
 10
30.01997895457212
 20
12.46532529166783
 10
30.14408023400362
 20
12.49839126736347
 10
30.27286973266707
 20
12.52090757365581
 10
30.40597611709788
 20
12.53280929020498
 10
30.54301560713224
 20
12.53406210128114
 10
30.68359308244476
 20
12.52466239470566
 10
30.82730322178255
 20
12.50463727226589
 10
30.97373167161143
 20
12.47404447157378
 10
31.12245624080436
 20
12.43297219959333
 10
31.27304811792776
 20
12.38153887831711
 10
31.42507310761591
 20
12.31989280332499
 10
31.57809288246857
 20
12.2482117162096
 10
31.73166624686235
 20
12.1667022921013
 10
31.8853504090319
 20
12.07559954377027
 10
32.0387022577532
 20
11.97516614402389
 10
32.19127963994794
 20
11.86569166835298
 10
32.34264263552527
 20
11.74749176001075
 10
32.49235482578536
 20
11.62090721993157
 10
32.63998455172741
 20
11.48630302411363
 10
32.7851061586344
 20
11.34406727129871
 10
32.92730122334572
 20
11.19461006398298
 10
33.06615976067953
 20
11.03836232598537
 10
33.20128140552615
 20
10.87577455998265
 10
33.3322765672043
 20
10.70731554859359
 10
33.45876755275195
 20
10.53347100275729
 10
33.58038965591281
 20
10.35474216130284
 10
33.69679220867894
 20
10.17164434574798
 10
33.8076395923574
 20
9.984705474493806
 10
33.91261220524578
 20
9.794464540699337
 10
34.01140738412669
 20
9.601470058224695
 10
34.10374027692414
 20
9.406278480123667
 10
34.18934466400581
 20
9.2094525942455
 10
34.2679737257632
 20
9.01155990057183
 10
34.33940075425642
 20
8.813170974967345
 10
34.40341980687187
 20
8.614857824061842
 10
34.45984630010817
 20
8.417192236007049
 10
34.50851754177808
 20
8.220744131863356
 10
34.54929320009225
 20
8.026079922369867
 10
34.58205570827211
 20
7.83376087483561
 10
34.60671060352528
 20
7.644341494860589
 10
34.62318679940629
 20
7.458367927552593
 10
34.6314367907772
 20
7.276376382849465
 10
34.6314367907772
 20
7.098891589487049
 10
34.62318679940629
 20
6.926425282070403
 10
34.60671060352527
 20
6.759474725610457
 10
34.58205570827209
 20
6.598521281780261
 10
34.54929320009224
 20
6.444029021024673
 10
34.50851754177806
 20
6.296443384525128
 10
34.45984630010815
 20
6.156189899877403
 10
34.40341980687185
 20
6.023672954185393
 10
34.3394007542564
 20
5.899274628108423
 10
34.26797372576317
 20
5.783353594223778
 10
34.18934466400578
 20
5.676244082880822
 10
34.10374027692411
 20
5.578254918528384
 10
34.01140738412666
 20
5.489668629293914
 10
33.91261220524575
 20
5.41074063238176
 10
33.80763959235737
 20
5.341698497639245
 10
33.69679220867891
 20
5.282741291413887
 10
33.58038965591278
 20
5.234039002593587
 10
33.45876755275192
 20
5.195732052484661
 10
33.33227656720427
 20
5.167930889940858
 10
33.2012814055261
 20
5.150715672910725
 10
33.06615976067948
 20
5.144136037321492
 10
32.92730122334567
 20
5.148210953965849
 10
32.78510615863436
 20
5.162928673804227
 10
32.63998455172737
 20
5.188246761840329
 10
32.49235482578531
 20
5.224092219472211
 10
32.34264263552522
 20
5.270361694966145
 10
32.19127963994789
 20
5.326921781446425
 10
32.03870225775316
 20
5.39360940154192
 10
31.88535040903186
 20
5.470232277580357
 10
31.73166624686231
 20
5.55656948597462
 10
31.57809288246853
 20
5.65237209420265
 10
31.42507310761587
 20
5.757363878544338
 10
31.27304811792772
 20
5.871242120506023
 10
31.12245624080432
 20
5.993678479636275
 10
30.9737316716114
 20
6.124319940216409
 10
30.82730322178251
 20
6.262789829096197
 10
30.68359308244472
 20
6.408688901740057
 10
30.54301560713221
 20
6.561596493352415
 10
30.40597611709784
 20
6.7210717317632
 10
30.27286973266704
 20
6.88665480857645
 10
30.14408023400359
 20
7.057868304916932
 10
30.01997895457209
 20
7.234218567952366
 10
29.90092371048747
 20
7.415197134222327
 10
29.78725776883845
 20
7.600282195670026
 10
29.6793088579597
 20
7.788940104150021
 10
29.57738822250621
 20
7.980626910073968
 10
29.48178972605436
 20
8.174789930758099
 10
29.39278900381716
 20
8.37086934395046
 10
29.3106426679166
 20
8.56829980194341
 10
29.23558756750444
 20
8.766512061617389
 10
29.16784010586482
 20
8.964934625716213
 10
29.10759561646753
 20
9.162995390621592
 10
29.05502779977111
 20
9.360123295875976
 10
29.01028822239941
 20
9.555749970697676
 10
28.97350588013581
 20
9.74931137274097
 10
28.94478682599496
 20
9.940249414376192
 10
28.92421386444451
 20
10.12801357180085
 10
28.91184631265834
 20
10.31206247234226
 10
28.90771982948987
 20
10.49186545537507
  0
LINE
  5
2B3
330
1F
100
AcDbEntity
  8
0
  6
CONTINUOUS
 62
     7
100
AcDbLine
 10
34.91170839685664
 20
7.768448635266027
 30
0.0
 11
34.91170839685664
 21
10.63759302348662
 31
0.0
  0
LINE
  5
2B4
330
1F
100
AcDbEntity
  8
0
  6
CONTINUOUS
 62
     7
100
AcDbLine
 10
34.99522494581568
 20
10.63759302348662
 30
0.0
 11
34.99522494581568
 21
7.768448635266027
 31
0.0
  0
LINE
  5
2B5
330
1F
100
AcDbEntity
  8
0
  6
CONTINUOUS
 62
     7
100
AcDbLine
 10
34.99522494581568
 20
7.768448635266027
 30
0.0
 11
34.91170839685664
 21
7.768448635266027
 31
0.0
  0
LINE
  5
2B6
330
1F
100
AcDbEntity
  8
0
  6
CONTINUOUS
 62
     7
100
AcDbLine
 10
32.45492991497818
 20
12.16836868197807
 30
0.0
 11
34.93954724650965
 21
10.73402962725018
 31
0.0
  0
LINE
  5
2B7
330
1F
100
AcDbEntity
  8
0
  6
CONTINUOUS
 62
     7
100
AcDbLine
 10
34.89778897203013
 20
10.66170217442751
 30
0.0
 11
32.41317164049867
 21
12.0960412291554
 31
0.0
  0
LINE
  5
2B8
330
1F
100
AcDbEntity
  8
0
  6
CONTINUOUS
 62
     7
100
AcDbLine
 10
32.41317164049867
 20
12.0960412291554
 30
0.0
 11
32.45492991497818
 21
12.16836868197807
 31
0.0
  0
LWPOLYLINE
  5
2B9
330
1F
100
AcDbEntity
  8
0
  6
CONTINUOUS
 62
     7
100
AcDbPolyline
 90
       23
 70
   128
 43
0.0
 10
32.41317164049867
 20
12.06889992390267
 10
32.57629294659235
 20
11.92824941640955
 10
32.73711330190686
 20
11.7792442438719
 10
32.89520197319583
 20
11.62228349433775
 10
33.05013554361964
 20
11.45778756367718
 10
33.20149904680397
 20
11.28619702961487
 10
33.3488870782652
 20
11.10797147170861
 10
33.49190488122553
 20
10.92358824043428
 10
33.63016940390999
 20
10.73354117867405
 10
33.76331032549324
 20
10.53833929903216
 10
33.89097104794847
 20
10.33850542052083
 10
34.01280965114182
 20
10.13457476826785
 10
34.12849980861431
 20
9.927093539996164
 10
34.23773166159835
 20
9.716617443115052
 10
34.34021264892809
 20
9.503710206341019
 10
34.43566829062075
 20
9.288942069834828
 10
34.52384292303005
 20
9.072888257898589
 10
34.60450038360317
 20
8.856127438323579
 10
34.67742464340662
 20
8.639240172515198
 10
34.74242038572756
 20
8.42280736054615
 10
34.79931352920025
 20
8.207408685302568
 10
34.847951694057
 20
7.993621059890172
 10
34.88820461025454
 20
7.782017082458895
  0
LINE
  5
2BA
330
1F
100
AcDbEntity
  8
0
  6
CONTINUOUS
 62
     7
100
AcDbLine
 10
32.41317164049867
 20
12.0960412291554
 30
0.0
 11
32.41317164049867
 21
12.06889992390267
 31
0.0
  0
LINE
  5
2BB
330
1F
100
AcDbEntity
  8
0
  6
CONTINUOUS
 62
     7
100
AcDbLine
 10
34.88820461025454
 20
7.782017082458895
 30
0.0
 11
34.91170839685664
 21
7.768448635266027
 31
0.0
  0
LWPOLYLINE
  5
2BC
330
1F
100
AcDbEntity
  8
0
  6
CONTINUOUS
 62
     7
100
AcDbPolyline
 90
       27
 70
   128
 43
0.0
 10
34.84489515768941
 20
10.45113255305304
 10
34.84076953117249
 20
10.49275029484328
 10
34.82863241803886
 20
10.53671271174074
 10
34.80918918318724
 20
10.58046486787224
 10
34.78356979675391
 20
10.62146404695602
 10
34.7532631643557
 20
10.65732752572969
 10
34.72003059730747
 20
10.68597104916536
 10
34.6858034516106
 20
10.70572995979593
 10
34.65257088456237
 20
10.71545594155626
 10
34.62226425216416
 20
10.71458375573895
 10
34.59664486573084
 20
10.70316409061343
 10
34.57720163087921
 20
10.68186061560801
 10
34.56506451774558
 20
10.65191141125501
 10
34.56093889122867
 20
10.61505701645051
 10
34.56506451774558
 20
10.57343927466028
 10
34.57720163087921
 20
10.52947685776281
 10
34.59664486573084
 20
10.48572470163131
 10
34.62226425216416
 20
10.44472552254753
 10
34.65257088456237
 20
10.40886204377386
 10
34.6858034516106
 20
10.38021852033819
 10
34.72003059730747
 20
10.36045960970762
 10
34.7532631643557
 20
10.35073362794729
 10
34.78356979675391
 20
10.35160581376461
 10
34.80918918318724
 20
10.36302547889013
 10
34.82863241803886
 20
10.38432895389555
 10
34.84076953117249
 20
10.41427815824855
 10
34.84489515768941
 20
10.45113255305304
  0
LWPOLYLINE
  5
2BD
330
1F
100
AcDbEntity
  8
0
  6
CONTINUOUS
 62
     7
100
AcDbPolyline
 90
       24
 70
   128
 43
0.0
 10
34.52474838667975
 20
10.29840295140659
 10
34.52051579242452
 20
10.26528612780387
 10
34.50813192181192
 20
10.23951227681595
 10
34.48851522987284
 20
10.22299292706308
 10
34.46312059690801
 20
10.21695324314543
 10
34.43383142667172
 20
10.22184116078947
 10
34.40281996293135
 20
10.23729416550426
 10
34.37238618408453
 20
10.26216617862291
 10
34.34478722428305
 20
10.29461255671429
 10
34.32206997211852
 20
10.33222690034768
 10
34.3059192622595
 20
10.37221952572994
 10
34.29753291897165
 20
10.41162436279057
 10
34.29753291897165
 20
10.44751893502992
 10
34.3059192622595
 20
10.47724110623174
 10
34.32206997211852
 20
10.49858651892786
 10
34.34478722428305
 20
10.50997208150739
 10
34.37238618408453
 20
10.51055337887929
 10
34.40281996293136
 20
10.50028729887673
 10
34.43383142667172
 20
10.47993522968933
 10
34.46312059690801
 20
10.45100659118418
 10
34.48851522987285
 20
10.4156468881395
 10
34.50813192181192
 20
10.37647858797023
 10
34.52051579242452
 20
10.33640662431689
 10
34.52474838667975
 20
10.29840295140659
  0
LINE
  5
2BE
330
1F
100
AcDbEntity
  8
0
  6
CONTINUOUS
 62
     7
100
AcDbLine
 10
34.99522494581568
 20
7.768448635266027
 30
0.0
 11
35.00636048567688
 21
7.774877045595339
 31
0.0
  0
LINE
  5
2BF
330
1F
100
AcDbEntity
  8
0
  6
CONTINUOUS
 62
     7
100
AcDbLine
 10
34.99522494581568
 20
3.291940444120725
 30
0.0
 11
35.03419933532989
 21
3.314439880273318
 31
0.0
  0
LINE
  5
2C0
330
1F
100
AcDbEntity
  8
0
  6
CONTINUOUS
 62
     7
100
AcDbLine
 10
34.99522494581568
 20
6.161084832341323
 30
0.0
 11
34.99522494581568
 21
3.291940444120725
 31
0.0
  0
LINE
  5
2C1
330
1F
100
AcDbEntity
  8
0
  6
CONTINUOUS
 62
     7
100
AcDbLine
 10
34.99522494581568
 20
6.161084832341323
 30
0.0
 11
35.00636048567688
 21
6.167513242670633
 31
0.0
  0
LINE
  5
2C2
330
1F
100
AcDbEntity
  8
0
  6
CONTINUOUS
 62
     7
100
AcDbLine
 10
35.03419933532989
 20
10.66009245963922
 30
0.0
 11
35.03419933532989
 21
3.314439880273318
 31
0.0
  0
LINE
  5
2C3
330
1F
100
AcDbEntity
  8
0
  6
CONTINUOUS
 62
     7
100
AcDbLine
 10
32.45492991497818
 20
12.16836868197807
 30
0.0
 11
32.46606545483939
 21
12.17479709230738
 31
0.0
  0
LINE
  5
2C4
330
1F
100
AcDbEntity
  8
0
  6
CONTINUOUS
 62
     7
100
AcDbLine
 10
31.0629874323275
 20
12.97191997314215
 30
0.0
 11
31.0741229721887
 21
12.97834838347146
 31
0.0
  0
LINE
  5
2C5
330
1F
100
AcDbEntity
  8
0
  6
CONTINUOUS
 62
     7
100
AcDbLine
 10
28.57837010079604
 20
14.40625902787004
 30
0.0
 11
31.0629874323275
 21
12.97191997314215
 31
0.0
  0
LINE
  5
2C6
330
1F
100
AcDbEntity
  8
0
  6
CONTINUOUS
 62
     7
100
AcDbLine
 10
28.61734449031025
 20
14.42875846402264
 30
0.0
 11
28.57837010079604
 21
14.40625902787004
 31
0.0
  0
LINE
  5
2C7
330
1F
100
AcDbEntity
  8
0
  6
CONTINUOUS
 62
     7
100
AcDbLine
 10
28.61734449031025
 20
14.42875846402264
 30
0.0
 11
34.97852163602387
 21
10.75652906340277
 31
0.0
  0
LWPOLYLINE
  5
2C8
330
1F
100
AcDbEntity
  8
0
  6
CONTINUOUS
 62
     7
100
AcDbPolyline
 90
       16
 70
   128
 43
0.0
 10
28.93555867914289
 20
10.50793648119835
 10
28.93968516231135
 20
10.68297512817664
 10
28.95205271409751
 20
10.85274475736859
 10
28.97262567564797
 20
11.01675587898467
 10
29.00134472978882
 20
11.17453560650343
 10
29.03812707205242
 20
11.32562902012572
 10
29.08286664942412
 20
11.46960047842626
 10
29.13543446612055
 20
11.60603487442062
 10
29.19567895551784
 20
11.73453883242615
 10
29.26342641715746
 20
11.85474184226589
 10
29.33848151756963
 20
11.96629732754529
 10
29.42062785347019
 20
12.06888364492175
 10
29.50962857570739
 20
12.16220501148557
 10
29.60522707215924
 20
12.24599235757868
 10
29.70714770761274
 20
12.32000410259212
 10
29.76022163865135
 20
12.35317782531295
  0
LWPOLYLINE
  5
2C9
330
1F
100
AcDbEntity
  8
0
  6
CONTINUOUS
 62
     7
100
AcDbPolyline
 90
       45
 70
   128
 43
0.0
 10
33.80780563806584
 20
5.341796992710122
 10
33.72463105833192
 20
5.298812317237169
 10
33.60822850556579
 20
5.250110028416868
 10
33.48660640240492
 20
5.211803078307942
 10
33.36011541685728
 20
5.184001915764139
 10
33.22912025517912
 20
5.166786698734007
 10
33.0939986103325
 20
5.160207063144775
 10
32.95514007299869
 20
5.164281979789132
 10
32.81294500828737
 20
5.178999699627508
 10
32.66782340138038
 20
5.20431778766361
 10
32.52019367543832
 20
5.240163245295492
 10
32.37048148517824
 20
5.286432720789428
 10
32.21911848960091
 20
5.342992807269707
 10
32.06654110740617
 20
5.409680427365202
 10
31.91318925868487
 20
5.486303303403639
 10
31.75950509651532
 20
5.572640511797902
 10
31.60593173212154
 20
5.668443120025931
 10
31.45291195726888
 20
5.773434904367619
 10
31.30088696758073
 20
5.887313146329304
 10
31.15029509045733
 20
6.009749505459557
 10
31.00157052126441
 20
6.140390966039691
 10
30.85514207143553
 20
6.278860854919478
 10
30.71143193209774
 20
6.424759927563338
 10
30.57085445678523
 20
6.577667519175696
 10
30.43381496675086
 20
6.737142757586482
 10
30.30070858232006
 20
6.902725834399732
 10
30.1719190836566
 20
7.073939330740213
 10
30.04781780422511
 20
7.250289593775648
 10
29.92876256014048
 20
7.431268160045609
 10
29.81509661849146
 20
7.616353221493307
 10
29.70714770761272
 20
7.805011129973303
 10
29.60522707215922
 20
7.996697935897251
 10
29.50962857570737
 20
8.19086095658138
 10
29.42062785347018
 20
8.386940369773741
 10
29.33848151756962
 20
8.58437082776669
 10
29.26342641715746
 20
8.78258308744067
 10
29.19567895551783
 20
8.981005651539494
 10
29.13543446612055
 20
9.179066416444874
 10
29.08286664942412
 20
9.376194321699257
 10
29.03812707205243
 20
9.571820996520957
 10
29.00134472978883
 20
9.76538239856425
 10
28.97262567564798
 20
9.956320440199473
 10
28.95205271409752
 20
10.14408459762413
 10
28.93968516231136
 20
10.32813349816554
 10
28.93555867914289
 20
10.50793648119835
  0
LWPOLYLINE
  5
2CA
330
1F
100
AcDbEntity
  8
0
  6
CONTINUOUS
 62
     7
100
AcDbPolyline
 90
       11
 70
   128
 43
0.0
 10
34.44321216055391
 20
10.4717851930391
 10
34.42494821973125
 20
10.46803673422821
 10
34.41227534126195
 20
10.45345104464108
 10
34.40782521813708
 20
10.4301853631575
 10
34.41227534126195
 20
10.40178167887942
 10
34.42494821973126
 20
10.37256419525813
 10
34.44391452267796
 20
10.34698100931783
 10
34.46628680240842
 20
10.32892692920577
 10
34.48865908213887
 20
10.32115052495837
 10
34.50762538508558
 20
10.32483568362901
 10
34.51999820513694
 20
10.33877345040816
  0
ARC
  5
2CB
330
1F
100
AcDbEntity
  8
0
  6
CONTINUOUS
 62
     7
100
AcDbCircle
 10
34.5371312328495
 20
10.43733382809195
 30
0.0
 40
0.1036441380848298
100
AcDbArc
 50
160.5157103013909
 51
259.4789131659105
  0
LINE
  5
2CC
330
1F
100
AcDbEntity
  8
0
  6
CONTINUOUS
 62
     7
100
AcDbLine
 10
34.99522494581568
 20
3.291940444120725
 30
0.0
 11
34.91170839685664
 21
3.291940444120724
 31
0.0
  0
LINE
  5
2CD
330
1F
100
AcDbEntity
  8
0
  6
CONTINUOUS
 62
     7
100
AcDbLine
 10
34.91170839685664
 20
3.291940444120724
 30
0.0
 11
34.91170839685664
 21
6.161084832341323
 31
0.0
  0
LINE
  5
2CE
330
1F
100
AcDbEntity
  8
0
  6
CONTINUOUS
 62
     7
100
AcDbLine
 10
34.91170839685664
 20
6.161084832341323
 30
0.0
 11
34.99522494581568
 21
6.161084832341323
 31
0.0
  0
LINE
  5
2CF
330
1F
100
AcDbEntity
  8
0
  6
CONTINUOUS
 62
     7
100
AcDbLine
 10
34.88820461025454
 20
6.174653279534192
 30
0.0
 11
34.94109842459527
 21
6.205188228598426
 31
0.0
  0
LINE
  5
2D0
330
1F
100
AcDbEntity
  8
0
  6
CONTINUOUS
 62
     7
100
AcDbLine
 10
34.91170839685664
 20
6.161084832341323
 30
0.0
 11
34.88820461025454
 21
6.174653279534192
 31
0.0
  0
LINE
  5
2D1
330
1F
100
AcDbEntity
  8
0
  6
CONTINUOUS
 62
     7
100
AcDbLine
 10
31.02122915784798
 20
12.87245121506675
 30
0.0
 11
31.0741229721887
 21
12.90298616413099
 31
0.0
  0
LINE
  5
2D2
330
1F
100
AcDbEntity
  8
0
  6
CONTINUOUS
 62
     7
100
AcDbLine
 10
31.02122915784798
 20
12.87245121506675
 30
0.0
 11
31.02122915784798
 21
12.89959252031949
 31
0.0
  0
LINE
  5
2D3
330
1F
100
AcDbEntity
  8
0
  6
CONTINUOUS
 62
     7
100
AcDbLine
 10
31.0629874323275
 20
12.97191997314215
 30
0.0
 11
31.02122915784798
 21
12.89959252031949
 31
0.0
  0
LINE
  5
2D4
330
1F
100
AcDbEntity
  8
0
  6
CONTINUOUS
 62
     7
100
AcDbLine
 10
31.02122915784798
 20
12.89959252031949
 30
0.0
 11
28.53661182631651
 21
14.33393157504738
 31
0.0
  0
LINE
  5
2D5
330
1F
100
AcDbEntity
  8
0
  6
CONTINUOUS
 62
     7
100
AcDbLine
 10
28.57837010079604
 20
14.40625902787004
 30
0.0
 11
28.53661182631651
 21
14.33393157504738
 31
0.0
  0
LWPOLYLINE
  5
2D6
330
1F
100
AcDbEntity
  8
0
  6
CONTINUOUS
 62
     7
100
AcDbPolyline
 90
       23
 70
   128
 43
0.0
 10
34.88820461025454
 20
6.174653279534192
 10
34.847951694057
 20
6.009524329895812
 10
34.79931352920025
 20
5.851893134303801
 10
34.74242038572756
 20
5.702181884317627
 10
34.67742464340663
 20
5.560791559108088
 10
34.60450038360317
 20
5.42810085149465
 10
34.52384292303005
 20
5.304465153673402
 10
34.43566829062075
 20
5.190215605352276
 10
34.34021264892809
 20
5.0856582068429
 10
34.23773166159835
 20
4.991072999484584
 10
34.12849980861431
 20
4.906713315595509
 10
34.01280965114182
 20
4.832805099960039
 10
33.89097104794846
 20
4.769546304669444
 10
33.76331032549324
 20
4.717106358936852
 10
33.63016940390998
 20
4.675625715306468
 10
33.49190488122552
 20
4.645215473472464
 10
33.3488870782652
 20
4.625957082715074
 10
33.20149904680397
 20
4.617902123750896
 10
33.05013554361963
 20
4.621072170581662
 10
32.89520197319583
 20
4.635458732711498
 10
32.73711330190686
 20
4.661023277887461
 10
32.57629294659235
 20
4.697697335302396
 10
32.41317164049867
 20
4.745382678983744
  0
ARC
  5
2D7
330
1F
100
AcDbEntity
  8
0
  6
CONTINUOUS
 62
     7
100
AcDbCircle
 10
34.90322268096241
 20
3.2905639244967
 30
0.0
 40
0.0085966377446611
100
AcDbArc
 50
230.7967147643247
 51
9.214036990419858
  0
LINE
  5
2D8
330
1F
100
AcDbEntity
  8
0
  6
CONTINUOUS
 62
     7
100
AcDbLine
 10
32.41317164049867
 20
4.71824137373101
 30
0.0
 11
34.89778897203013
 21
3.283902319003118
 31
0.0
  0
LINE
  5
2D9
330
1F
100
AcDbEntity
  8
0
  6
CONTINUOUS
 62
     7
100
AcDbLine
 10
32.41317164049867
 20
4.745382678983744
 30
0.0
 11
32.41317164049867
 21
4.71824137373101
 31
0.0
  0
LWPOLYLINE
  5
2DA
330
1F
100
AcDbEntity
  8
0
  6
CONTINUOUS
 62
     7
100
AcDbPolyline
 90
       27
 70
   128
 43
0.0
 10
34.84489515768957
 20
3.555541838505962
 10
34.84076953117265
 20
3.5971595802962
 10
34.82863241803903
 20
3.641121997193665
 10
34.8091891831874
 20
3.684874153325162
 10
34.78356979675407
 20
3.725873332408943
 10
34.75326316435586
 20
3.761736811182612
 10
34.72003059730763
 20
3.790380334618285
 10
34.68580345161077
 20
3.810139245248852
 10
34.65257088456254
 20
3.819865227009183
 10
34.62226425216433
 20
3.818993041191869
 10
34.596644865731
 20
3.807573376066351
 10
34.57720163087937
 20
3.786269901060926
 10
34.56506451774575
 20
3.756320696707932
 10
34.56093889122883
 20
3.719466301903434
 10
34.56506451774575
 20
3.677848560113197
 10
34.57720163087937
 20
3.633886143215731
 10
34.596644865731
 20
3.590133987084235
 10
34.62226425216433
 20
3.549134808000454
 10
34.65257088456254
 20
3.513271329226784
 10
34.68580345161077
 20
3.48462780579111
 10
34.72003059730763
 20
3.464868895160545
 10
34.75326316435587
 20
3.455142913400215
 10
34.78356979675407
 20
3.456015099217529
 10
34.80918918318741
 20
3.467434764343047
 10
34.82863241803903
 20
3.488738239348472
 10
34.84076953117265
 20
3.518687443701466
 10
34.84489515768957
 20
3.555541838505962
  0
LWPOLYLINE
  5
2DB
330
1F
100
AcDbEntity
  8
0
  6
CONTINUOUS
 62
     7
100
AcDbPolyline
 90
       24
 70
   128
 43
0.0
 10
34.52474838667986
 20
4.077905034087924
 10
34.52051579242463
 20
4.044788210485214
 10
34.50813192181203
 20
4.0190143594973
 10
34.48851522987296
 20
4.002495009744433
 10
34.46312059690815
 20
3.99645532582679
 10
34.43383142667187
 20
4.001343243470824
 10
34.40281996293151
 20
4.016796248185614
 10
34.37238618408469
 20
4.041668261304255
 10
34.34478722428321
 20
4.074114639395626
 10
34.3220699721187
 20
4.111728983028994
 10
34.30591926225969
 20
4.151721608411247
 10
34.29753291897184
 20
4.191126445471866
 10
34.29753291897184
 20
4.227021017711203
 10
34.30591926225969
 20
4.256743188913005
 10
34.3220699721187
 20
4.278088601609123
 10
34.34478722428322
 20
4.28947416418865
 10
34.37238618408469
 20
4.290055461560545
 10
34.40281996293151
 20
4.279789381557994
 10
34.43383142667187
 20
4.259437312370595
 10
34.46312059690815
 20
4.230508673865457
 10
34.48851522987296
 20
4.195148970820789
 10
34.50813192181203
 20
4.155980670651537
 10
34.52051579242463
 20
4.115908706998203
 10
34.52474838667986
 20
4.077905034087924
  0
LWPOLYLINE
  5
2DC
330
1F
100
AcDbEntity
  8
0
  6
CONTINUOUS
 62
     7
100
AcDbPolyline
 90
       23
 70
   128
 43
0.0
 10
28.5461961880921
 20
11.44318061451631
 10
28.58644910428964
 20
11.60830956415469
 10
28.63508726914639
 20
11.7659407597467
 10
28.69198041261908
 20
11.91565200973287
 10
28.75697615494001
 20
12.05704233494241
 10
28.82990041474348
 20
12.18973304255585
 10
28.91055787531659
 20
12.3133687403771
 10
28.9987325077259
 20
12.42761828869822
 10
29.09418814941855
 20
12.5321756872076
 10
29.1966691367483
 20
12.62676089456592
 10
29.30590098973233
 20
12.71112057845499
 10
29.42159114720482
 20
12.78502879409046
 10
29.54342975039818
 20
12.84828758938105
 10
29.67109047285341
 20
12.90072753511365
 10
29.80423139443666
 20
12.94220817874403
 10
29.94249591712111
 20
12.97261842057803
 10
30.08551372008145
 20
12.99187681133543
 10
30.23290175154267
 20
12.9999317702996
 10
30.384265254727
 20
12.99676172346884
 10
30.53919882515081
 20
12.982375161339
 10
30.69728749643978
 20
12.95681061616304
 10
30.85810785175429
 20
12.9201365587481
 10
31.02122915784798
 20
12.87245121506675
  0
LINE
  5
2DD
330
1F
100
AcDbEntity
  8
0
  6
CONTINUOUS
 62
     7
100
AcDbLine
 10
28.52269240149
 20
11.45674906170918
 30
0.0
 11
28.5461961880921
 21
11.44318061451631
 31
0.0
  0
LINE
  5
2DE
330
1F
100
AcDbEntity
  8
0
  6
CONTINUOUS
 62
     7
100
AcDbLine
 10
28.52269240149
 20
14.32589344992977
 30
0.0
 11
28.52269240149
 21
11.45674906170918
 31
0.0
  0
ARC
  5
2DF
330
1F
100
AcDbEntity
  8
0
  6
CONTINUOUS
 62
     7
100
AcDbCircle
 10
28.53117811738423
 20
14.3272699695538
 30
0.0
 40
0.0085966377446551
100
AcDbArc
 50
50.79671476427937
 51
189.2140369904662
  0
LWPOLYLINE
  5
2E0
330
1F
100
AcDbEntity
  8
0
  6
CONTINUOUS
 62
     7
100
AcDbPolyline
 90
       27
 70
   128
 43
0.0
 10
28.87346190711798
 20
13.89836759214677
 10
28.86933628060106
 20
13.93998533393701
 10
28.85719916746744
 20
13.98394775083448
 10
28.83775593261581
 20
14.02769990696597
 10
28.81213654618248
 20
14.06869908604975
 10
28.78182991378427
 20
14.10456256482342
 10
28.74859734673604
 20
14.1332060882591
 10
28.71437020103917
 20
14.15296499888966
 10
28.68113763399094
 20
14.16269098064999
 10
28.65083100159273
 20
14.16181879483268
 10
28.62521161515941
 20
14.15039912970716
 10
28.60576838030778
 20
14.12909565470174
 10
28.59363126717415
 20
14.09914645034874
 10
28.58950564065724
 20
14.06229205554424
 10
28.59363126717415
 20
14.02067431375401
 10
28.60576838030778
 20
13.97671189685654
 10
28.62521161515941
 20
13.93295974072505
 10
28.65083100159274
 20
13.89196056164126
 10
28.68113763399094
 20
13.85609708286759
 10
28.71437020103918
 20
13.82745355943192
 10
28.74859734673604
 20
13.80769464880136
 10
28.78182991378428
 20
13.79796866704103
 10
28.81213654618248
 20
13.79884085285834
 10
28.83775593261581
 20
13.81026051798386
 10
28.85719916746744
 20
13.83156399298928
 10
28.86933628060106
 20
13.86151319734228
 10
28.87346190711798
 20
13.89836759214677
  0
LWPOLYLINE
  5
2E1
330
1F
100
AcDbEntity
  8
0
  6
CONTINUOUS
 62
     7
100
AcDbPolyline
 90
       24
 70
   128
 43
0.0
 10
29.13793097882177
 20
13.40814644821134
 10
29.13369838456654
 20
13.37502962460857
 10
29.12131451395392
 20
13.34925577362061
 10
29.10169782201481
 20
13.33273642386771
 10
29.07630318904995
 20
13.32669673995006
 10
29.04701401881362
 20
13.3315846575941
 10
29.01600255507321
 20
13.34703766230892
 10
28.98556877622633
 20
13.3719096754276
 10
28.95796981642481
 20
13.40435605351903
 10
28.93525256426026
 20
13.44197039715247
 10
28.91910185440122
 20
13.48196302253479
 10
28.91071551111335
 20
13.52136785959548
 10
28.91071551111335
 20
13.55726243183488
 10
28.91910185440122
 20
13.58698460303673
 10
28.93525256426026
 20
13.60833001573289
 10
28.95796981642481
 20
13.61971557831244
 10
28.98556877622634
 20
13.62029687568433
 10
29.01600255507321
 20
13.61003079568176
 10
29.04701401881362
 20
13.58967872649433
 10
29.07630318904995
 20
13.56075008798914
 10
29.10169782201481
 20
13.52539038494441
 10
29.12131451395392
 20
13.48622208477509
 10
29.13369838456654
 20
13.44615012112168
 10
29.13793097882177
 20
13.40814644821134
  0
LINE
  5
2E2
330
1F
100
AcDbEntity
  8
0
  6
CONTINUOUS
 62
     7
100
AcDbLine
 10
32.41317164049867
 20
4.745382678983744
 30
0.0
 11
32.46606545483939
 21
4.77591762804798
 31
0.0
  0
LINE
  5
2E3
330
1F
100
AcDbEntity
  8
0
  6
CONTINUOUS
 62
     7
100
AcDbLine
 10
28.5461961880921
 20
11.44318061451631
 30
0.0
 11
28.59909000243283
 21
11.47371556358054
 31
0.0
  0
LWPOLYLINE
  5
2E4
330
1F
100
AcDbEntity
  8
0
  6
CONTINUOUS
 62
     7
100
AcDbPolyline
 90
       11
 70
   128
 43
0.0
 10
34.44321216054442
 20
4.251287275721147
 10
34.42494821973143
 20
4.24753881690947
 10
34.41227534126214
 20
4.232953127322352
 10
34.40782521813727
 20
4.209687445838789
 10
34.41227534126214
 20
4.181283761560724
 10
34.42494821973143
 20
4.152066277939455
 10
34.44391452267813
 20
4.126483091999172
 10
34.46628680240856
 20
4.108429011887124
 10
34.488659082139
 20
4.100652607639727
 10
34.5076253850857
 20
4.104337766310367
 10
34.51999820513321
 20
4.118275533081422
  0
LWPOLYLINE
  5
2E5
330
1F
100
AcDbEntity
  8
0
  6
CONTINUOUS
 62
     7
100
AcDbPolyline
 90
       11
 70
   128
 43
0.0
 10
29.05639475269302
 20
13.58152868984437
 10
29.038130811873
 20
13.57778023103324
 10
29.02545793340367
 20
13.56319454144607
 10
29.02100781027879
 20
13.53992885996243
 10
29.02545793340367
 20
13.51152517568427
 10
29.038130811873
 20
13.4823076920629
 10
29.05709711481976
 20
13.45672450612253
 10
29.07946939455028
 20
13.43867042601042
 10
29.1018416742808
 20
13.430894021763
 10
29.12080797722756
 20
13.43457918043365
 10
29.13318079727812
 20
13.4485169472111
  0
ARC
  5
2E6
330
1F
100
AcDbEntity
  8
0
  6
CONTINUOUS
 62
     7
100
AcDbCircle
 10
34.53713123284957
 20
4.216835910773212
 30
0.0
 40
0.1036441380847112
100
AcDbArc
 50
160.5157103013319
 51
259.4789131659743
  0
ARC
  5
2E7
330
1F
100
AcDbEntity
  8
0
  6
CONTINUOUS
 62
     7
100
AcDbCircle
 10
29.15031382499144
 20
13.54707732489683
 30
0.0
 40
0.1036441380850655
100
AcDbArc
 50
160.5157103013349
 51
259.4789131659628
  0
ARC
  5
2E8
330
1F
100
AcDbEntity
  8
0
  6
CONTINUOUS
 62
     7
100
AcDbCircle
 10
34.96128208223879
 20
3.286434365624606
 30
0.0
 40
0.0343865509786204
100
AcDbArc
 50
230.7967147642811
 51
9.214036990468047
  0
LINE
  5
2E9
330
1F
100
AcDbEntity
  8
0
  6
CONTINUOUS
 62
     7
100
AcDbLine
 10
34.93954724650965
 20
3.2597879436503
 30
0.0
 11
34.89778897203013
 21
3.283902319003118
 31
0.0
  0
ARC
  5
2EA
330
1F
100
AcDbEntity
  8
0
  6
CONTINUOUS
 62
     7
100
AcDbCircle
 10
28.55663526506691
 20
14.37961260589573
 30
0.0
 40
0.0343865509786231
100
AcDbArc
 50
50.79671476428957
 51
189.2140369904594
  0
LINE
  5
2EB
330
1F
100
AcDbEntity
  8
0
  6
CONTINUOUS
 62
     7
100
AcDbLine
 10
28.52269240149
 20
14.37410652739962
 30
0.0
 11
28.52269240149
 21
14.32589344992977
 31
0.0
  0
ARC
  5
2EC
330
1F
100
AcDbEntity
  8
0
  6
CONTINUOUS
 62
     7
100
AcDbCircle
 10
34.99674377973842
 20
3.309671059127608
 30
0.0
 40
0.0377579170477674
100
AcDbArc
 50
304.0563508383033
 51
7.255829555087046
  0
ARC
  5
2ED
330
1F
100
AcDbEntity
  8
0
  6
CONTINUOUS
 62
     7
100
AcDbCircle
 10
28.59427991906218
 20
14.39656308377709
 30
0.0
 40
0.0396045067639132
100
AcDbArc
 50
54.38242252479284
 51
114.3071190461045
  0
LINE
  5
2EE
330
1F
100
AcDbEntity
  8
0
  6
CONTINUOUS
 62
     7
100
AcDbLine
 10
34.93954724650965
 20
3.2597879436503
 30
0.0
 11
32.45492991497819
 21
4.694126998378192
 31
0.0
  0
LINE
  5
2EF
330
1F
100
AcDbEntity
  8
0
  6
CONTINUOUS
 62
     7
100
AcDbLine
 10
32.45492991497819
 20
4.694126998378192
 30
0.0
 11
32.41317164049867
 21
4.71824137373101
 31
0.0
  0
LWPOLYLINE
  5
2F0
330
1F
100
AcDbEntity
  8
0
  6
CONTINUOUS
 62
     7
100
AcDbPolyline
 90
       23
 70
   128
 43
0.0
 10
31.02122915784798
 20
5.54893397014783
 10
30.85810785175429
 20
5.689584477640942
 10
30.69728749643978
 20
5.838589650178601
 10
30.53919882515081
 20
5.99555039971275
 10
30.384265254727
 20
6.160046330373316
 10
30.23290175154267
 20
6.331636864435628
 10
30.08551372008145
 20
6.509862422341889
 10
29.94249591712111
 20
6.694245653616219
 10
29.80423139443666
 20
6.884292715376446
 10
29.67109047285341
 20
7.079494595018343
 10
29.54342975039818
 20
7.279328473529669
 10
29.42159114720482
 20
7.483259125782649
 10
29.30590098973233
 20
7.690740354054335
 10
29.1966691367483
 20
7.901216450935447
 10
29.09418814941855
 20
8.114123687709478
 10
28.9987325077259
 20
8.32889182421567
 10
28.91055787531659
 20
8.544945636151908
 10
28.82990041474348
 20
8.76170645572692
 10
28.75697615494002
 20
8.9785937215353
 10
28.69198041261908
 20
9.195026533504349
 10
28.63508726914639
 20
9.410425208747931
 10
28.58644910428964
 20
9.624212834160327
 10
28.5461961880921
 20
9.835816811591602
  0
LINE
  5
2F1
330
1F
100
AcDbEntity
  8
0
  6
CONTINUOUS
 62
     7
100
AcDbLine
 10
31.02122915784798
 20
5.521792664895095
 30
0.0
 11
31.02122915784798
 21
5.54893397014783
 31
0.0
  0
LINE
  5
2F2
330
1F
100
AcDbEntity
  8
0
  6
CONTINUOUS
 62
     7
100
AcDbLine
 10
28.53661182631651
 20
6.956131719622986
 30
0.0
 11
31.02122915784798
 21
5.521792664895095
 31
0.0
  0
ARC
  5
2F3
330
1F
100
AcDbEntity
  8
0
  6
CONTINUOUS
 62
     7
100
AcDbCircle
 10
28.55291319088701
 20
6.981616084191058
 30
0.0
 40
0.0302520631411922
100
AcDbArc
 50
182.6054784856659
 51
237.3945216599703
  0
LINE
  5
2F4
330
1F
100
AcDbEntity
  8
0
  6
CONTINUOUS
 62
     7
100
AcDbLine
 10
28.52269240149
 20
9.849385258784473
 30
0.0
 11
28.52269240149
 21
6.980240870563875
 31
0.0
  0
LINE
  5
2F5
330
1F
100
AcDbEntity
  8
0
  6
CONTINUOUS
 62
     7
100
AcDbLine
 10
28.5461961880921
 20
9.835816811591602
 30
0.0
 11
28.52269240149
 21
9.849385258784473
 31
0.0
  0
LWPOLYLINE
  5
2F6
330
1F
100
AcDbEntity
  8
0
  6
CONTINUOUS
 62
     7
100
AcDbPolyline
 90
       27
 70
   128
 43
0.0
 10
28.87346190711814
 20
7.002776877599694
 10
28.86933628060123
 20
7.044394619389932
 10
28.8571991674676
 20
7.088357036287396
 10
28.83775593261597
 20
7.132109192418894
 10
28.81213654618265
 20
7.173108371502675
 10
28.78182991378444
 20
7.208971850276345
 10
28.74859734673621
 20
7.237615373712019
 10
28.71437020103934
 20
7.257374284342585
 10
28.68113763399111
 20
7.267100266102915
 10
28.65083100159291
 20
7.266228080285601
 10
28.62521161515958
 20
7.254808415160083
 10
28.60576838030795
 20
7.233504940154659
 10
28.59363126717432
 20
7.203555735801664
 10
28.5895056406574
 20
7.166701340997166
 10
28.59363126717432
 20
7.125083599206929
 10
28.60576838030795
 20
7.081121182309463
 10
28.62521161515958
 20
7.037369026177966
 10
28.65083100159291
 20
6.996369847094186
 10
28.68113763399111
 20
6.960506368320516
 10
28.71437020103934
 20
6.931862844884844
 10
28.74859734673621
 20
6.912103934254277
 10
28.78182991378444
 20
6.902377952493947
 10
28.81213654618265
 20
6.903250138311261
 10
28.83775593261598
 20
6.914669803436779
 10
28.8571991674676
 20
6.935973278442204
 10
28.86933628060123
 20
6.965922482795199
 10
28.87346190711814
 20
7.002776877599694
  0
LWPOLYLINE
  5
2F7
330
1F
100
AcDbEntity
  8
0
  6
CONTINUOUS
 62
     7
100
AcDbPolyline
 90
       24
 70
   128
 43
0.0
 10
29.13793097882187
 20
7.187648530892673
 10
29.13369838456664
 20
7.154531707289919
 10
29.12131451395403
 20
7.128757856301972
 10
29.10169782201493
 20
7.112238506549084
 10
29.07630318905008
 20
7.106198822631431
 10
29.04701401881376
 20
7.111086740275472
 10
29.01600255507336
 20
7.126539744990282
 10
28.9855687762265
 20
7.151411758108956
 10
28.95796981642499
 20
7.183858136200371
 10
28.93525256426044
 20
7.221472479833789
 10
28.91910185440141
 20
7.261465105216094
 10
28.91071551111355
 20
7.300869942276766
 10
28.91071551111355
 20
7.336764514516148
 10
28.91910185440141
 20
7.366486685717991
 10
28.93525256426045
 20
7.387832098414137
 10
28.95796981642499
 20
7.399217660993678
 10
28.9855687762265
 20
7.399798958365575
 10
29.01600255507336
 20
7.389532878363011
 10
29.04701401881376
 20
7.369180809175584
 10
29.07630318905008
 20
7.340252170670408
 10
29.10169782201493
 20
7.304892467625693
 10
29.12131451395403
 20
7.265724167456389
 10
29.13369838456664
 20
7.225652203803003
 10
29.13793097882187
 20
7.187648530892673
  0
LINE
  5
2F8
330
1F
100
AcDbEntity
  8
0
  6
CONTINUOUS
 62
     7
100
AcDbLine
 10
31.02122915784798
 20
5.54893397014783
 30
0.0
 11
31.0741229721887
 21
5.579468919212065
 31
0.0
  0
LINE
  5
2F9
330
1F
100
AcDbEntity
  8
0
  6
CONTINUOUS
 62
     7
100
AcDbLine
 10
28.5461961880921
 20
9.835816811591602
 30
0.0
 11
28.59909000243283
 21
9.866351760655837
 31
0.0
  0
LINE
  5
2FA
330
1F
100
AcDbEntity
  8
0
  6
CONTINUOUS
 62
     7
100
AcDbLine
 10
31.02122915784798
 20
5.521792664895095
 30
0.0
 11
31.0629874323275
 21
5.497678289542277
 31
0.0
  0
LINE
  5
2FB
330
1F
100
AcDbEntity
  8
0
  6
CONTINUOUS
 62
     7
100
AcDbLine
 10
31.0629874323275
 20
5.497678289542277
 30
0.0
 11
31.0741229721887
 21
5.504106699871588
 31
0.0
  0
LINE
  5
2FC
330
1F
100
AcDbEntity
  8
0
  6
CONTINUOUS
 62
     7
100
AcDbLine
 10
28.52269240149
 20
9.897598336254317
 30
0.0
 11
28.52269240149
 21
9.849385258784473
 31
0.0
  0
LINE
  5
2FD
330
1F
100
AcDbEntity
  8
0
  6
CONTINUOUS
 62
     7
100
AcDbLine
 10
28.52269240149
 20
9.897598336254317
 30
0.0
 11
28.53382794135121
 21
9.904026746583629
 31
0.0
  0
LINE
  5
2FE
330
1F
100
AcDbEntity
  8
0
  6
CONTINUOUS
 62
     7
100
AcDbLine
 10
28.57837010079604
 20
6.932017344270167
 30
0.0
 11
28.53661182631651
 21
6.956131719622986
 31
0.0
  0
LINE
  5
2FF
330
1F
100
AcDbEntity
  8
0
  6
CONTINUOUS
 62
     7
100
AcDbLine
 10
31.0629874323275
 20
5.497678289542277
 30
0.0
 11
28.57837010079604
 21
6.932017344270167
 31
0.0
  0
LWPOLYLINE
  5
300
330
1F
100
AcDbEntity
  8
0
  6
CONTINUOUS
 62
     7
100
AcDbPolyline
 90
       11
 70
   128
 43
0.0
 10
29.05639475269221
 20
7.361030772525692
 10
29.03813081187318
 20
7.35728231371449
 10
29.02545793340386
 20
7.342696624127334
 10
29.02100781027899
 20
7.319430942643713
 10
29.02545793340386
 20
7.291027258365575
 10
29.03813081187318
 20
7.261809774744232
 10
29.05709711481994
 20
7.236226588803882
 10
29.07946939455043
 20
7.218172508691788
 10
29.10184167428093
 20
7.210396104444373
 10
29.12080797722767
 20
7.214081263115022
 10
29.13318079727805
 20
7.228019029892101
  0
ARC
  5
301
330
1F
100
AcDbEntity
  8
0
  6
CONTINUOUS
 62
     7
100
AcDbCircle
 10
29.15031382499159
 20
7.326579407578134
 30
0.0
 40
0.1036441380850139
100
AcDbArc
 50
160.5157103013637
 51
259.4789131659176
  0
LWPOLYLINE
  5
302
330
1F
100
AcDbEntity
  8
0
  6
CONTINUOUS
 62
     7
100
AcDbPolyline
 90
       26
 70
   128
 43
0.0
 10
28.87067802215284
 20
7.004383980182022
 10
28.86630497888328
 20
7.046881996604182
 10
28.85346062346614
 20
7.091758714645644
 10
28.83295201399052
 20
7.136194365066836
 10
28.80606778181516
 20
7.177396892528908
 10
28.77449716212093
 20
7.212777390699117
 10
28.74022385305183
 20
7.240112772757064
 10
28.70540137266509
 20
7.257685456115541
 10
28.67221774547154
 20
7.264391284451328
 10
28.64275802080859
 20
7.259808905907778
 10
28.61887326152209
 20
7.244226248181587
 10
28.60206423488002
 20
7.218622426966702
 10
28.59338711384558
 20
7.184606224514319
 10
28.59338711384558
 20
7.144315003927365
 10
28.60206423488002
 20
7.10028041077606
 10
28.61887326152209
 20
7.055269300496009
 10
28.64275802080859
 20
7.012109886685388
 10
28.67221774547154
 20
6.973514034043141
 10
28.7054013726651
 20
6.941906861936396
 10
28.74022385305183
 20
6.919274365231668
 10
28.77449716212093
 20
6.907038626933417
 10
28.80606778181516
 20
6.905968463478818
 10
28.83295201399052
 20
6.91613111717351
 10
28.85346062346614
 20
6.936888031110229
 10
28.86630497888328
 20
6.96693497204774
 10
28.87067802215284
 20
7.004383980182022
  0
LWPOLYLINE
  5
303
330
1F
100
AcDbEntity
  8
0
  6
CONTINUOUS
 62
     7
100
AcDbPolyline
 90
       26
 70
   128
 43
0.0
 10
28.87067802215267
 20
13.8999746947291
 10
28.86630497888311
 20
13.94247271115126
 10
28.85346062346597
 20
13.98734942919272
 10
28.83295201399035
 20
14.03178507961391
 10
28.80606778181499
 20
14.07298760707598
 10
28.77449716212076
 20
14.1083681052462
 10
28.74022385305166
 20
14.13570348730414
 10
28.70540137266493
 20
14.15327617066262
 10
28.67221774547138
 20
14.15998199899841
 10
28.64275802080842
 20
14.15539962045485
 10
28.61887326152192
 20
14.13981696272866
 10
28.60206423487986
 20
14.11421314151378
 10
28.59338711384542
 20
14.0801969390614
 10
28.59338711384542
 20
14.03990571847444
 10
28.60206423487986
 20
13.99587112532314
 10
28.61887326152192
 20
13.95086001504309
 10
28.64275802080842
 20
13.90770060123247
 10
28.67221774547138
 20
13.86910474859022
 10
28.70540137266493
 20
13.83749757648348
 10
28.74022385305166
 20
13.81486507977875
 10
28.77449716212076
 20
13.80262934148049
 10
28.80606778181499
 20
13.8015591780259
 10
28.83295201399035
 20
13.81172183172059
 10
28.85346062346597
 20
13.83247874565731
 10
28.86630497888311
 20
13.86252568659482
 10
28.87067802215267
 20
13.8999746947291
  0
TEXT
  5
367
330
1F
100
AcDbEntity
  8
TB
 62
     3
100
AcDbText
 10
42.76747347533412
 20
5.51554995804219
 30
0.0
 40
0.2505937499999999
  1
212 Avenida Fabricante, San Clemente, CA. 92630
 50
90.0
100
AcDbText
  0
TEXT
  5
368
330
1F
100
AcDbEntity
  8
TB
 62
     3
100
AcDbText
 10
43.27058486555215
 20
5.51554995804219
 30
0.0
 40
0.2505937499999999
  1
800 582-7777 949 492-7777  FAX 949 361-5579
 50
90.0
100
AcDbText
  0
TEXT
  5
369
330
1F
100
AcDbEntity
  8
TB
 62
     3
100
AcDbText
 10
42.26588381009979
 20
5.51554995804219
 30
0.0
 40
0.3758906249999999
  1
SONANCE
 50
90.0
100
AcDbText
  0
TEXT
  5
36A
330
1F
100
AcDbEntity
  8
TB
 62
     3
100
AcDbText
 10
43.68743145771154
 20
5.51554995804219
 30
0.0
 40
0.2505937499999999
  1
www.sonance.com
 50
90.0
100
AcDbText
  0
ENDSEC
  0
SECTION
  2
OBJECTS
  0
DICTIONARY
  5
C
330
0
100
AcDbDictionary
  3
ACAD_CIP_PREVIOUS_PRODUCT_INFO
350
342
  3
ACAD_COLOR
350
337
  3
ACAD_DETAILVIEWSTYLE
350
33E
  3
ACAD_GROUP
350
D
  3
ACAD_LAYOUT
350
1A
  3
ACAD_MATERIAL
350
305
  3
ACAD_MLEADERSTYLE
350
33A
  3
ACAD_MLINESTYLE
350
17
  3
ACAD_PLOTSETTINGS
350
19
  3
ACAD_SCALELIST
350
47
  3
ACAD_SECTIONVIEWSTYLE
350
33C
  3
ACAD_VISUALSTYLE
350
31E
  3
ACDBHEADERROUNDTRIPXREC
350
52A
  3
ACDBVARIABLEDICTIONARY
350
421
  3
DWGPROPS
350
54E
  0
DICTIONARY
  5
54F
330
8
100
AcDbDictionary
280
     1
  3
ACAD_XREC_ROUNDTRIP
360
550
  0
DICTIONARY
  5
345
330
2
100
AcDbDictionary
280
     1
  3
ACAD_LAYERSTATES
360
346
  0
DICTIONARY
  5
36B
330
10
100
AcDbDictionary
280
     1
  3
ADSK_XREC_LAYER_RECONCILED
360
36C
  0
DICTIONARY
  5
36D
330
73
100
AcDbDictionary
280
     1
  3
ADSK_XREC_LAYER_RECONCILED
360
36E
  0
DICTIONARY
  5
36F
330
74
100
AcDbDictionary
280
     1
  3
ADSK_XREC_LAYER_RECONCILED
360
370
  0
DICTIONARY
  5
371
330
75
100
AcDbDictionary
280
     1
  3
ADSK_XREC_LAYER_RECONCILED
360
372
  0
DICTIONARY
  5
373
330
76
100
AcDbDictionary
280
     1
  3
ADSK_XREC_LAYER_RECONCILED
360
374
  0
DICTIONARY
  5
375
330
77
100
AcDbDictionary
280
     1
  3
ADSK_XREC_LAYER_RECONCILED
360
376
  0
DICTIONARY
  5
377
330
78
100
AcDbDictionary
280
     1
  3
ADSK_XREC_LAYER_RECONCILED
360
378
  0
DICTIONARY
  5
379
330
79
100
AcDbDictionary
280
     1
  3
ADSK_XREC_LAYER_RECONCILED
360
37A
  0
DICTIONARY
  5
37B
330
7A
100
AcDbDictionary
280
     1
  3
ADSK_XREC_LAYER_RECONCILED
360
37C
  0
DICTIONARY
  5
37D
330
7B
100
AcDbDictionary
280
     1
  3
ADSK_XREC_LAYER_RECONCILED
360
37E
  0
DICTIONARY
  5
37F
330
7C
100
AcDbDictionary
280
     1
  3
ADSK_XREC_LAYER_RECONCILED
360
380
  0
DICTIONARY
  5
381
330
7D
100
AcDbDictionary
280
     1
  3
ADSK_XREC_LAYER_RECONCILED
360
382
  0
DICTIONARY
  5
383
330
7E
100
AcDbDictionary
280
     1
  3
ADSK_XREC_LAYER_RECONCILED
360
384
  0
DICTIONARY
  5
385
330
7F
100
AcDbDictionary
280
     1
  3
ADSK_XREC_LAYER_RECONCILED
360
386
  0
DICTIONARY
  5
387
330
80
100
AcDbDictionary
280
     1
  3
ADSK_XREC_LAYER_RECONCILED
360
388
  0
DICTIONARY
  5
389
330
81
100
AcDbDictionary
280
     1
  3
ADSK_XREC_LAYER_RECONCILED
360
38A
  0
DICTIONARY
  5
38B
330
82
100
AcDbDictionary
280
     1
  3
ADSK_XREC_LAYER_RECONCILED
360
38C
  0
DICTIONARY
  5
38D
330
83
100
AcDbDictionary
280
     1
  3
ADSK_XREC_LAYER_RECONCILED
360
38E
  0
DICTIONARY
  5
38F
330
84
100
AcDbDictionary
280
     1
  3
ADSK_XREC_LAYER_RECONCILED
360
390
  0
XRECORD
  5
342
102
{ACAD_REACTORS
330
C
102
}
330
C
100
AcDbXrecord
300
ACD
300
2014
300
ACD_F_S
  0
DICTIONARY
  5
337
102
{ACAD_REACTORS
330
C
102
}
330
C
100
AcDbDictionary
  0
DICTIONARY
  5
33E
102
{ACAD_REACTORS
330
C
102
}
330
C
100
AcDbDictionary
  3
IMPERIAL24
350
33F
  0
DICTIONARY
  5
D
102
{ACAD_REACTORS
330
C
102
}
330
C
100
AcDbDictionary
  0
DICTIONARY
  5
1A
102
{ACAD_REACTORS
330
C
102
}
330
C
100
AcDbDictionary
  0
DICTIONARY
  5
305
102
{ACAD_REACTORS
330
C
102
}
330
C
100
AcDbDictionary
  3
BYBLOCK
350
30E
  3
BYLAYER
350
306
  3
GLOBAL
350
316
  0
DICTIONARY
  5
33A
102
{ACAD_REACTORS
330
C
102
}
330
C
100
AcDbDictionary
  3
STANDARD
350
33B
  0
DICTIONARY
  5
17
102
{ACAD_REACTORS
330
C
102
}
330
C
100
AcDbDictionary
  3
STANDARD
350
18
  0
DICTIONARY
  5
19
102
{ACAD_REACTORS
330
C
102
}
330
C
100
AcDbDictionary
  0
DICTIONARY
  5
47
102
{ACAD_REACTORS
330
C
102
}
330
C
100
AcDbDictionary
  3
A0
350
48
  3
A1
350
49
  3
A2
350
4A
  3
A3
350
4B
  3
A4
350
4C
  3
A5
350
4D
  3
A6
350
4E
  3
A7
350
4F
  3
A8
350
50
  3
A9
350
51
  3
B0
350
52
  3
B1
350
53
  3
B2
350
54
  3
B3
350
55
  3
B4
350
56
  3
B5
350
57
  3
B6
350
58
  3
B7
350
59
  3
B8
350
5A
  3
B9
350
5B
  3
C0
350
5C
  3
C1
350
5D
  3
C2
350
5E
  3
C3
350
5F
  3
C4
350
60
  3
C5
350
61
  3
C6
350
62
  3
C7
350
63
  3
C8
350
64
  3
C9
350
65
  3
D0
350
66
  3
D1
350
67
  3
D2
350
68
  0
DICTIONARY
  5
33C
102
{ACAD_REACTORS
330
C
102
}
330
C
100
AcDbDictionary
  3
IMPERIAL24
350
33D
  0
DICTIONARY
  5
31E
102
{ACAD_REACTORS
330
C
102
}
330
C
100
AcDbDictionary
  3
2DWIREFRAME
350
324
  3
3D_HIDDEN
350
520
  3
3DWIREFRAME
350
51F
  3
BASIC
350
323
  3
BRIGHTEN
350
32A
  3
COLORCHANGE
350
32E
  3
CONCEPTUAL
350
327
  3
DIM
350
329
  3
EDGECOLOROFF
350
336
  3
FACEPATTERN
350
32D
  3
FLAT
350
31F
  3
FLATWITHEDGES
350
320
  3
GOURAUD
350
321
  3
GOURAUDWITHEDGES
350
322
  3
HIDDEN
350
326
  3
JITTEROFF
350
334
  3
LINEPATTERN
350
32C
  3
OVERHANGOFF
350
335
  3
REALISTIC
350
328
  3
SHADED
350
333
  3
SHADED_WITH_EDGES
350
332
  3
SHADES_OF_GRAY
350
32F
  3
SKETCHY
350
330
  3
THICKEN
350
32B
  3
WIREFRAME
350
325
  3
X-RAY
350
331
  0
DICTIONARY
  5
52A
102
{ACAD_REACTORS
330
C
102
}
330
C
100
AcDbDictionary
  3
CEPSNID
350
534
  3
CEPSNTYPE
350
533
  3
COLORDICT
350
54C
  3
DIMSTYLEDATA
350
54A
  3
FINGERPRINTGUID
350
535
  3
HYPERLINKBASE
350
52D
  3
INSUNITS
350
532
  3
LAYOUTDICT
350
52F
  3
LWETCUNION
350
531
  3
MATERIALDICT
350
54D
  3
PLOTSETDICT
350
530
  3
PSVPSCALE
350
537
  3
PUCSBASE
350
53A
  3
PUCSORGBACK
350
540
  3
PUCSORGBOTTOM
350
53C
  3
PUCSORGFRONT
350
53F
  3
PUCSORGLEFT
350
53D
  3
PUCSORGRIGHT
350
53E
  3
PUCSORGTOP
350
53B
  3
PUCSORTHOREF
350
538
  3
PUCSORTHOVIEW
350
539
  3
STYLESHEET
350
52E
  3
TSTACKALIGN
350
52B
  3
TSTACKSIZE
350
52C
  3
UCSBASE
350
543
  3
UCSORGBACK
350
549
  3
UCSORGBOTTOM
350
545
  3
UCSORGFRONT
350
548
  3
UCSORGLEFT
350
546
  3
UCSORGRIGHT
350
547
  3
UCSORGTOP
350
544
  3
UCSORTHOREF
350
541
  3
UCSORTHOVIEW
350
542
  3
VERSIONGUID
350
536
  0
DICTIONARY
  5
421
102
{ACAD_REACTORS
330
C
102
}
330
C
100
AcDbDictionary
  3
CANNOSCALE
350
427
  3
CMLEADERSTYLE
350
423
  3
CTABLESTYLE
350
422
  3
CVIEWDETAILSTYLE
350
424
  3
CVIEWSECTIONSTYLE
350
425
  3
DIMASSOC
350
51C
  3
HIDETEXT
350
54B
  3
INDEXCTL
350
51B
  3
LAYEREVAL
350
429
  3
LAYERNOTIFY
350
42A
  3
LIGHTINGUNITS
350
428
  3
MSLTSCALE
350
426
  3
SORTENTS
350
51A
  0
XRECORD
  5
54E
102
{ACAD_REACTORS
330
C
102
}
330
C
100
AcDbXrecord
  1
DWGPROPS COOKIE
  2

  3

  4

  6

  7

  8
Todd Ryan
  9

300
=
301
=
302
=
303
=
304
=
305
=
306
=
307
=
308
=
309
=
 40
0.0
 41
2458010.105094294
 42
2458010.781532488
  1

 90
        0
  0
XRECORD
  5
550
102
{ACAD_REACTORS
330
54F
102
}
330
54F
100
AcDbXrecord
102
VTR_0.000_0.000_1.000_1.000_VISUALSTYLE
340
324
102
VTR_0.000_0.000_1.000_1.000_GRIDDISPLAY
 70
     3
102
VTR_0.000_0.000_1.000_1.000_GRIDMAJOR
 70
     5
102
VTR_0.000_0.000_1.000_1.000_DEFAULTLIGHTING
280
     1
102
VTR_0.000_0.000_1.000_1.000_DEFAULTLIGHTINGTYPE
 70
     1
102
VTR_0.000_0.000_1.000_1.000_BRIGHTNESS
141
0.0
102
VTR_0.000_0.000_1.000_1.000_CONTRAST
142
0.0
  0
DICTIONARY
  5
346
102
{ACAD_REACTORS
330
345
102
}
330
345
100
AcDbDictionary
  0
ACAD_PROXY_OBJECT
  5
36C
102
{ACAD_REACTORS
330
36B
102
}
330
36B
100
AcDbProxyObject
 90
      499
 91
      516
 93
       34
310
40C8804040
  0
ACAD_PROXY_OBJECT
  5
36E
102
{ACAD_REACTORS
330
36D
102
}
330
36D
100
AcDbProxyObject
 90
      499
 91
      516
 93
       34
310
40C8804040
  0
ACAD_PROXY_OBJECT
  5
370
102
{ACAD_REACTORS
330
36F
102
}
330
36F
100
AcDbProxyObject
 90
      499
 91
      516
 93
       34
310
40C8804040
  0
ACAD_PROXY_OBJECT
  5
372
102
{ACAD_REACTORS
330
371
102
}
330
371
100
AcDbProxyObject
 90
      499
 91
      516
 93
       34
310
40C8804040
  0
ACAD_PROXY_OBJECT
  5
374
102
{ACAD_REACTORS
330
373
102
}
330
373
100
AcDbProxyObject
 90
      499
 91
      516
 93
       34
310
40C8804040
  0
ACAD_PROXY_OBJECT
  5
376
102
{ACAD_REACTORS
330
375
102
}
330
375
100
AcDbProxyObject
 90
      499
 91
      516
 93
       34
310
40C8804040
  0
ACAD_PROXY_OBJECT
  5
378
102
{ACAD_REACTORS
330
377
102
}
330
377
100
AcDbProxyObject
 90
      499
 91
      516
 93
       34
310
40C8804040
  0
ACAD_PROXY_OBJECT
  5
37A
102
{ACAD_REACTORS
330
379
102
}
330
379
100
AcDbProxyObject
 90
      499
 91
      516
 93
       34
310
40C8804040
  0
ACAD_PROXY_OBJECT
  5
37C
102
{ACAD_REACTORS
330
37B
102
}
330
37B
100
AcDbProxyObject
 90
      499
 91
      516
 93
       34
310
40C8804040
  0
ACAD_PROXY_OBJECT
  5
37E
102
{ACAD_REACTORS
330
37D
102
}
330
37D
100
AcDbProxyObject
 90
      499
 91
      516
 93
       34
310
40C8804040
  0
ACAD_PROXY_OBJECT
  5
380
102
{ACAD_REACTORS
330
37F
102
}
330
37F
100
AcDbProxyObject
 90
      499
 91
      516
 93
       34
310
40C8804040
  0
ACAD_PROXY_OBJECT
  5
382
102
{ACAD_REACTORS
330
381
102
}
330
381
100
AcDbProxyObject
 90
      499
 91
      516
 93
       34
310
40C8804040
  0
ACAD_PROXY_OBJECT
  5
384
102
{ACAD_REACTORS
330
383
102
}
330
383
100
AcDbProxyObject
 90
      499
 91
      516
 93
       34
310
40C8804040
  0
ACAD_PROXY_OBJECT
  5
386
102
{ACAD_REACTORS
330
385
102
}
330
385
100
AcDbProxyObject
 90
      499
 91
      516
 93
       34
310
40C8804040
  0
ACAD_PROXY_OBJECT
  5
388
102
{ACAD_REACTORS
330
387
102
}
330
387
100
AcDbProxyObject
 90
      499
 91
      516
 93
       34
310
40C8804040
  0
ACAD_PROXY_OBJECT
  5
38A
102
{ACAD_REACTORS
330
389
102
}
330
389
100
AcDbProxyObject
 90
      499
 91
      516
 93
       34
310
40C8804040
  0
ACAD_PROXY_OBJECT
  5
38C
102
{ACAD_REACTORS
330
38B
102
}
330
38B
100
AcDbProxyObject
 90
      499
 91
      516
 93
       34
310
40C8804040
  0
ACAD_PROXY_OBJECT
  5
38E
102
{ACAD_REACTORS
330
38D
102
}
330
38D
100
AcDbProxyObject
 90
      499
 91
      516
 93
       34
310
40C8804040
  0
ACAD_PROXY_OBJECT
  5
390
102
{ACAD_REACTORS
330
38F
102
}
330
38F
100
AcDbProxyObject
 90
      499
 91
      516
 93
       34
310
40C8804040
  0
ACAD_PROXY_OBJECT
  5
33F
102
{ACAD_REACTORS
330
33E
102
}
102
{ACAD_XDICTIONARY
360
514
102
}
330
33E
100
AcDbProxyObject
 90
      499
 91
      510
 93
     1245
310
90A496D70657269616C3234481E5C0F42F5A8DC671FC056BD1B81E856B9F81E5C0F42F5A8DC671FA33E5C0F42F5A8DC671FA02000000000000741FA02AD129E2E20B1AB30B9102B34B2BBAA3CB832902E33101112BA3198911F1290129E2E20B1AB30B9102B34B2BBA232BA30B4B624B21F12AE2829A1A0A62290129E2E20B
310
1AB30B9102B34B2BBA9B1B0B632902E33101112B9B7111F12A33A33800
340
11
340
0
340
16
340
11
340
16
340
16
 94
        0
  0
MATERIAL
  5
30E
102
{ACAD_REACTORS
330
305
102
}
102
{ACAD_XDICTIONARY
360
551
102
}
330
305
100
AcDbMaterial
  1
BYBLOCK
 72
     0
 73
     2
 43
0.0208333333333333
 43
0.0
 43
0.0
 43
0.0
 43
0.0
 43
0.0208333333333333
 43
0.0
 43
0.0
 43
0.0
 43
0.0
 43
1.0
 43
0.0
 43
0.0
 43
0.0
 43
0.0
 43
1.0
 77
     0
 78
     2
 47
0.0208333333333333
 47
0.0
 47
0.0
 47
0.0
 47
0.0
 47
0.0208333333333333
 47
0.0
 47
0.0
 47
0.0
 47
0.0
 47
1.0
 47
0.0
 47
0.0
 47
0.0
 47
0.0
 47
1.0
171
     0
172
     2
 49
0.0208333333333333
 49
0.0
 49
0.0
 49
0.0
 49
0.0
 49
0.0208333333333333
 49
0.0
 49
0.0
 49
0.0
 49
0.0
 49
1.0
 49
0.0
 49
0.0
 49
0.0
 49
0.0
 49
1.0
175
     0
176
     2
142
0.0208333333333333
142
0.0
142
0.0
142
0.0
142
0.0
142
0.0208333333333333
142
0.0
142
0.0
142
0.0
142
0.0
142
1.0
142
0.0
142
0.0
142
0.0
142
0.0
142
1.0
179
     0
270
     2
144
0.0208333333333333
144
0.0
144
0.0
144
0.0
144
0.0
144
0.0208333333333333
144
0.0
144
0.0
144
0.0
144
0.0
144
1.0
144
0.0
144
0.0
144
0.0
144
0.0
144
1.0
274
     2
147
0.0208333333333333
147
0.0
147
0.0
147
0.0
147
0.0
147
0.0208333333333333
147
0.0
147
0.0
147
0.0
147
0.0
147
1.0
147
0.0
147
0.0
147
0.0
147
0.0
147
1.0
  0
MATERIAL
  5
306
102
{ACAD_REACTORS
330
305
102
}
102
{ACAD_XDICTIONARY
360
553
102
}
330
305
100
AcDbMaterial
  1
BYLAYER
 72
     0
 73
     2
 43
0.0208333333333333
 43
0.0
 43
0.0
 43
0.0
 43
0.0
 43
0.0208333333333333
 43
0.0
 43
0.0
 43
0.0
 43
0.0
 43
1.0
 43
0.0
 43
0.0
 43
0.0
 43
0.0
 43
1.0
 77
     0
 78
     2
 47
0.0208333333333333
 47
0.0
 47
0.0
 47
0.0
 47
0.0
 47
0.0208333333333333
 47
0.0
 47
0.0
 47
0.0
 47
0.0
 47
1.0
 47
0.0
 47
0.0
 47
0.0
 47
0.0
 47
1.0
171
     0
172
     2
 49
0.0208333333333333
 49
0.0
 49
0.0
 49
0.0
 49
0.0
 49
0.0208333333333333
 49
0.0
 49
0.0
 49
0.0
 49
0.0
 49
1.0
 49
0.0
 49
0.0
 49
0.0
 49
0.0
 49
1.0
175
     0
176
     2
142
0.0208333333333333
142
0.0
142
0.0
142
0.0
142
0.0
142
0.0208333333333333
142
0.0
142
0.0
142
0.0
142
0.0
142
1.0
142
0.0
142
0.0
142
0.0
142
0.0
142
1.0
179
     0
270
     2
144
0.0208333333333333
144
0.0
144
0.0
144
0.0
144
0.0
144
0.0208333333333333
144
0.0
144
0.0
144
0.0
144
0.0
144
1.0
144
0.0
144
0.0
144
0.0
144
0.0
144
1.0
274
     2
147
0.0208333333333333
147
0.0
147
0.0
147
0.0
147
0.0
147
0.0208333333333333
147
0.0
147
0.0
147
0.0
147
0.0
147
1.0
147
0.0
147
0.0
147
0.0
147
0.0
147
1.0
  0
MATERIAL
  5
316
102
{ACAD_REACTORS
330
305
102
}
102
{ACAD_XDICTIONARY
360
555
102
}
330
305
100
AcDbMaterial
  1
GLOBAL
 72
     0
 73
     2
 43
0.0208333333333333
 43
0.0
 43
0.0
 43
0.0
 43
0.0
 43
0.0208333333333333
 43
0.0
 43
0.0
 43
0.0
 43
0.0
 43
1.0
 43
0.0
 43
0.0
 43
0.0
 43
0.0
 43
1.0
 77
     0
 78
     2
 47
0.0208333333333333
 47
0.0
 47
0.0
 47
0.0
 47
0.0
 47
0.0208333333333333
 47
0.0
 47
0.0
 47
0.0
 47
0.0
 47
1.0
 47
0.0
 47
0.0
 47
0.0
 47
0.0
 47
1.0
171
     0
172
     2
 49
0.0208333333333333
 49
0.0
 49
0.0
 49
0.0
 49
0.0
 49
0.0208333333333333
 49
0.0
 49
0.0
 49
0.0
 49
0.0
 49
1.0
 49
0.0
 49
0.0
 49
0.0
 49
0.0
 49
1.0
175
     0
176
     2
142
0.0208333333333333
142
0.0
142
0.0
142
0.0
142
0.0
142
0.0208333333333333
142
0.0
142
0.0
142
0.0
142
0.0
142
1.0
142
0.0
142
0.0
142
0.0
142
0.0
142
1.0
179
     0
270
     2
144
0.0208333333333333
144
0.0
144
0.0
144
0.0
144
0.0
144
0.0208333333333333
144
0.0
144
0.0
144
0.0
144
0.0
144
1.0
144
0.0
144
0.0
144
0.0
144
0.0
144
1.0
274
     2
147
0.0208333333333333
147
0.0
147
0.0
147
0.0
147
0.0
147
0.0208333333333333
147
0.0
147
0.0
147
0.0
147
0.0
147
1.0
147
0.0
147
0.0
147
0.0
147
0.0
147
1.0
  0
ACAD_PROXY_OBJECT
  5
33B
102
{ACAD_REACTORS
330
33A
102
}
330
33A
100
AcDbProxyObject
 90
      499
 91
      505
 93
      610
310
40901902A4063FBFFFFFE056BD1B81E855B9FC0AD7A3703D0AD73F4214DD185B99185C9900AD7A3703D0AC73F90141901A02B5E8DC0F42B1CFC02B5E8DC0F42B1CFE5764000000000000300FC0
340
14
340
0
340
11
340
0
 94
        0
1001
ACAD_MLEADERVER
1070
     2
  0
MLINESTYLE
  5
18
102
{ACAD_REACTORS
330
17
102
}
330
17
100
AcDbMlineStyle
  2
STANDARD
 70
     0
  3

 62
   256
 51
90.0
 52
90.0
 71
     2
 49
0.5
 62
   256
  6
BYLAYER
 49
-0.5
 62
   256
  6
BYLAYER
  0
ACAD_PROXY_OBJECT
  5
48
102
{ACAD_REACTORS
330
47
102
}
330
47
100
AcDbProxyObject
 90
      499
 91
      503
 93
       41
310
903313A31580
  0
ACAD_PROXY_OBJECT
  5
49
102
{ACAD_REACTORS
330
47
102
}
330
47
100
AcDbProxyObject
 90
      499
 91
      503
 93
      105
310
903313A324000000000000004000
  0
ACAD_PROXY_OBJECT
  5
4A
102
{ACAD_REACTORS
330
47
102
}
330
47
100
AcDbProxyObject
 90
      499
 91
      503
 93
      105
310
903313A344000000000000104000
  0
ACAD_PROXY_OBJECT
  5
4B
102
{ACAD_REACTORS
330
47
102
}
330
47
100
AcDbProxyObject
 90
      499
 91
      503
 93
      105
310
903313A354000000000000144000
  0
ACAD_PROXY_OBJECT
  5
4C
102
{ACAD_REACTORS
330
47
102
}
330
47
100
AcDbProxyObject
 90
      499
 91
      503
 93
      105
310
903313A384000000000000204000
  0
ACAD_PROXY_OBJECT
  5
4D
102
{ACAD_REACTORS
330
47
102
}
330
47
100
AcDbProxyObject
 90
      499
 91
      503
 93
      113
310
904313A31304000000000000244000
  0
ACAD_PROXY_OBJECT
  5
4E
102
{ACAD_REACTORS
330
47
102
}
330
47
100
AcDbProxyObject
 90
      499
 91
      503
 93
      113
310
904313A31364000000000000304000
  0
ACAD_PROXY_OBJECT
  5
4F
102
{ACAD_REACTORS
330
47
102
}
330
47
100
AcDbProxyObject
 90
      499
 91
      503
 93
      113
310
904313A32304000000000000344000
  0
ACAD_PROXY_OBJECT
  5
50
102
{ACAD_REACTORS
330
47
102
}
330
47
100
AcDbProxyObject
 90
      499
 91
      503
 93
      113
310
904313A333040000000000003E4000
  0
ACAD_PROXY_OBJECT
  5
51
102
{ACAD_REACTORS
330
47
102
}
330
47
100
AcDbProxyObject
 90
      499
 91
      503
 93
      113
310
904313A34304000000000000444000
  0
ACAD_PROXY_OBJECT
  5
52
102
{ACAD_REACTORS
330
47
102
}
330
47
100
AcDbProxyObject
 90
      499
 91
      503
 93
      113
310
904313A35304000000000000494000
  0
ACAD_PROXY_OBJECT
  5
53
102
{ACAD_REACTORS
330
47
102
}
330
47
100
AcDbProxyObject
 90
      499
 91
      503
 93
      121
310
905313A3130304000000000000594000
  0
ACAD_PROXY_OBJECT
  5
54
102
{ACAD_REACTORS
330
47
102
}
330
47
100
AcDbProxyObject
 90
      499
 91
      503
 93
      105
310
903323A310000000000000010100
  0
ACAD_PROXY_OBJECT
  5
55
102
{ACAD_REACTORS
330
47
102
}
330
47
100
AcDbProxyObject
 90
      499
 91
      503
 93
      105
310
903343A310000000000000410100
  0
ACAD_PROXY_OBJECT
  5
56
102
{ACAD_REACTORS
330
47
102
}
330
47
100
AcDbProxyObject
 90
      499
 91
      503
 93
      105
310
903383A310000000000000810100
  0
ACAD_PROXY_OBJECT
  5
57
102
{ACAD_REACTORS
330
47
102
}
330
47
100
AcDbProxyObject
 90
      499
 91
      503
 93
      113
310
90431303A310000000000000910100
  0
ACAD_PROXY_OBJECT
  5
58
102
{ACAD_REACTORS
330
47
102
}
330
47
100
AcDbProxyObject
 90
      499
 91
      503
 93
      121
310
9053130303A310000000000001650100
  0
ACAD_PROXY_OBJECT
  5
59
102
{ACAD_REACTORS
330
47
102
}
330
47
100
AcDbProxyObject
 90
      499
 91
      503
 93
      257
310
90E312F31323822203D2031272D3022000000000000200FC000000000000284000
  0
ACAD_PROXY_OBJECT
  5
5A
102
{ACAD_REACTORS
330
47
102
}
330
47
100
AcDbProxyObject
 90
      499
 91
      503
 93
      249
310
90D312F363422203D2031272D3022000000000000240FC000000000000284000
  0
ACAD_PROXY_OBJECT
  5
5B
102
{ACAD_REACTORS
330
47
102
}
330
47
100
AcDbProxyObject
 90
      499
 91
      503
 93
      249
310
90D312F333222203D2031272D3022000000000000280FC000000000000284000
  0
ACAD_PROXY_OBJECT
  5
5C
102
{ACAD_REACTORS
330
47
102
}
330
47
100
AcDbProxyObject
 90
      499
 91
      503
 93
      249
310
90D312F313622203D2031272D30220000000000002C0FC000000000000284000
  0
ACAD_PROXY_OBJECT
  5
5D
102
{ACAD_REACTORS
330
47
102
}
330
47
100
AcDbProxyObject
 90
      499
 91
      503
 93
      249
310
90D332F333222203D2031272D30220000000000002E0FC000000000000284000
  0
ACAD_PROXY_OBJECT
  5
5E
102
{ACAD_REACTORS
330
47
102
}
330
47
100
AcDbProxyObject
 90
      499
 91
      503
 93
      241
310
90C312F3822203D2031272D3022000000000000300FC000000000000284000
  0
ACAD_PROXY_OBJECT
  5
5F
102
{ACAD_REACTORS
330
47
102
}
330
47
100
AcDbProxyObject
 90
      499
 91
      503
 93
      249
310
90D332F313622203D2031272D3022000000000000320FC000000000000284000
  0
ACAD_PROXY_OBJECT
  5
60
102
{ACAD_REACTORS
330
47
102
}
330
47
100
AcDbProxyObject
 90
      499
 91
      503
 93
      241
310
90C312F3422203D2031272D3022000000000000340FC000000000000284000
  0
ACAD_PROXY_OBJECT
  5
61
102
{ACAD_REACTORS
330
47
102
}
330
47
100
AcDbProxyObject
 90
      499
 91
      503
 93
      241
310
90C332F3822203D2031272D3022000000000000360FC000000000000284000
  0
ACAD_PROXY_OBJECT
  5
62
102
{ACAD_REACTORS
330
47
102
}
330
47
100
AcDbProxyObject
 90
      499
 91
      503
 93
      241
310
90C312F3222203D2031272D3022000000000000380FC000000000000284000
  0
ACAD_PROXY_OBJECT
  5
63
102
{ACAD_REACTORS
330
47
102
}
330
47
100
AcDbProxyObject
 90
      499
 91
      503
 93
      241
310
90C332F3422203D2031272D30220000000000003A0FC000000000000284000
  0
ACAD_PROXY_OBJECT
  5
64
102
{ACAD_REACTORS
330
47
102
}
330
47
100
AcDbProxyObject
 90
      499
 91
      503
 93
      161
310
90A3122203D2031272D30224000000000000284000
  0
ACAD_PROXY_OBJECT
  5
65
102
{ACAD_REACTORS
330
47
102
}
330
47
100
AcDbProxyObject
 90
      499
 91
      503
 93
      257
310
90E312D312F3222203D2031272D30220000000000003E0FC000000000000284000
  0
ACAD_PROXY_OBJECT
  5
66
102
{ACAD_REACTORS
330
47
102
}
330
47
100
AcDbProxyObject
 90
      499
 91
      503
 93
      225
310
90A3322203D2031272D302200000000000002100000000000000284000
  0
ACAD_PROXY_OBJECT
  5
67
102
{ACAD_REACTORS
330
47
102
}
330
47
100
AcDbProxyObject
 90
      499
 91
      503
 93
      225
310
90A3622203D2031272D302200000000000006100000000000000284000
  0
ACAD_PROXY_OBJECT
  5
68
102
{ACAD_REACTORS
330
47
102
}
330
47
100
AcDbProxyObject
 90
      499
 91
      503
 93
      249
310
90D31272D3022203D2031272D30220000000000000A100000000000000284000
  0
ACAD_PROXY_OBJECT
  5
33D
102
{ACAD_REACTORS
330
33C
102
}
102
{ACAD_XDICTIONARY
360
510
102
}
330
33C
100
AcDbProxyObject
 90
      499
 91
      509
 93
     2271
310
90A496D70657269616C32344A765C0F42F5A8DC671FE5C0F42F5A8DC671FA209258409E5840A25840A65840B05840B45C0F42F5A8DC6F1FA33A659703D0BD6A3719C7E5C0F42F5A8DC671FE5C0F42F5A8DC671FA02000000000000741FA02BE129E2E20B1AB30B9102B34B2BBAA3CB832902E33101112BA3198911F1290129
310
E2E20B1AB30B9102B34B2BBA9B2B1BA34B7B729BA30B93A24B21F1296929E2E20B1AB30B9102B34B2BBA9B2B1BA34B7B722B73224B21F12AE2829A1A0A62290129E2E20B1AB30B9102B34B2BBA9B1B0B632902E33101112B9B7111F12E0080A0C829CA6926662C206056BD1B81E85639FA0320D0305A88A9F643F27E32B996
310
9C2960E81F87FA0718D4DE3E87E32B9969C2960E85F9E5129FC49EA5FA7E
340
11
340
0
340
0
340
16
340
16
340
11
 94
        0
  0
ACAD_PROXY_OBJECT
  5
324
102
{ACAD_REACTORS
330
31E
102
}
330
31E
100
AcDbProxyObject
 90
      499
 91
      501
 93
      436
310
42CC9915DA5C99599C985B595049028333333333333E33F0000000000000F90107901411070040501600405405064090741402480A0340
1001
ACAD
1000
AcDbSavedByObjectVersion
1070
     0
  0
ACAD_PROXY_OBJECT
  5
520
102
{ACAD_REACTORS
330
31E
102
}
330
31E
100
AcDbProxyObject
 90
      499
 91
      501
 93
      500
310
424CD108121A5919195B90640502408333333333333E33F0000000000000F901079024090700405020000000000181990200405405064090740C02480A0340
1001
ACAD
1000
AcDbSavedByObjectVersion
1070
     0
  0
ACAD_PROXY_OBJECT
  5
51F
102
{ACAD_REACTORS
330
31E
102
}
330
31E
100
AcDbProxyObject
 90
      499
 91
      501
 93
      436
310
42CCD915DA5C99599C985B595059028333333333333E33F0000000000000F90107901411070040501600405405064090741402480A0340
1001
ACAD
1000
AcDbSavedByObjectVersion
1070
     0
  0
ACAD_PROXY_OBJECT
  5
323
102
{ACAD_REACTORS
330
31E
102
}
330
31E
100
AcDbProxyObject
 90
      499
 91
      501
 93
      388
310
4150985CDA58D07406404333333333333E33F0000000000000F90107A41107004050150841D405064090741402480A0350
1001
ACAD
1000
AcDbSavedByObjectVersion
1070
     0
  0
ACAD_PROXY_OBJECT
  5
32A
102
{ACAD_REACTORS
330
31E
102
}
330
31E
100
AcDbProxyObject
 90
      499
 91
      501
 93
      428
310
42109C9A59DA1D195B90C409028333333333333E33F0000000000000F9010790141107004050150841D405064090741402480A029950
1001
ACAD
1000
AcDbSavedByObjectVersion
1070
     0
  0
ACAD_PROXY_OBJECT
  5
32E
102
{ACAD_REACTORS
330
31E
102
}
330
31E
100
AcDbProxyObject
 90
      499
 91
      501
 93
      452
310
42D0DBDB1BDC90DA185B99D95104090240C333333333333E33F0000000000000F90108901411070040501508421405064090741402480A0350
1001
ACAD
1000
AcDbSavedByObjectVersion
1070
     0
  0
ACAD_PROXY_OBJECT
  5
327
102
{ACAD_REACTORS
330
31E
102
}
330
31E
100
AcDbProxyObject
 90
      499
 91
      501
 93
      500
310
4290DBDB98D95C1D1D585B10940D028333333333333E33F0000000000000F90107902409070040501000000000018199010841D405064090740C02480A0340
1001
ACAD
1000
AcDbSavedByObjectVersion
1070
     0
  0
ACAD_PROXY_OBJECT
  5
329
102
{ACAD_REACTORS
330
31E
102
}
330
31E
100
AcDbProxyObject
 90
      499
 91
      501
 93
      412
310
40D11A5B50B409028333333333333E33F0000000000000F9010790141107004050150841D405064090741402480A02677FFFFFD0
1001
ACAD
1000
AcDbSavedByObjectVersion
1070
     0
  0
ACAD_PROXY_OBJECT
  5
336
102
{ACAD_REACTORS
330
31E
102
}
330
31E
100
AcDbProxyObject
 90
      499
 91
      501
 93
      452
310
43115919D950DBDB1BDC93D999916409028333333333333E33F0000000000000F9010790141107004050150841D405064090741402480A0350
1001
ACAD
1000
AcDbSavedByObjectVersion
1070
     0
  0
ACAD_PROXY_OBJECT
  5
32D
102
{ACAD_REACTORS
330
31E
102
}
330
31E
100
AcDbProxyObject
 90
      499
 91
      501
 93
      444
310
42D19858D95C185D1D195C9B90F409028333333333333E33F0000000000000F9010790141107004050150841D405064090741402480A0350
1001
ACAD
1000
AcDbSavedByObjectVersion
1070
     0
  0
ACAD_PROXY_OBJECT
  5
31F
102
{ACAD_REACTORS
330
31E
102
}
330
31E
100
AcDbProxyObject
 90
      499
 91
      501
 93
      380
310
41119B185D240901404333333333333E33F0000000000000F9010740A907004050150841D405064090741402480A1B50
1001
ACAD
1000
AcDbSavedByObjectVersion
1070
     0
  0
ACAD_PROXY_OBJECT
  5
320
102
{ACAD_REACTORS
330
31E
102
}
330
31E
100
AcDbProxyObject
 90
      499
 91
      501
 93
      468
310
43519B185D15DA5D1A115919D95CD0140901404333333333333E33F0000000000000F90107409019070040501600405405064090741402480A1B50
1001
ACAD
1000
AcDbSavedByObjectVersion
1070
     0
  0
ACAD_PROXY_OBJECT
  5
321
102
{ACAD_REACTORS
330
31E
102
}
330
31E
100
AcDbProxyObject
 90
      499
 91
      501
 93
      404
310
41D1DBDD5C985D5910240902404333333333333E33F0000000000000F9010740A9070040501641D405064090741402480A1B50
1001
ACAD
1000
AcDbSavedByObjectVersion
1070
     0
  0
ACAD_PROXY_OBJECT
  5
322
102
{ACAD_REACTORS
330
31E
102
}
330
31E
100
AcDbProxyObject
 90
      499
 91
      501
 93
      492
310
4411DBDD5C985D5915DA5D1A115919D95CD0340902404333333333333E33F0000000000000F90107409019070040501600405405064090741402480A1B50
1001
ACAD
1000
AcDbSavedByObjectVersion
1070
     0
  0
ACAD_PROXY_OBJECT
  5
326
102
{ACAD_REACTORS
330
31E
102
}
330
31E
100
AcDbProxyObject
 90
      499
 91
      501
 93
      476
310
41921A5919195B90640502408333333333333E33F0000000000000F901079024090700405020000000000001110200405405064090740C02480A0340
1001
ACAD
1000
AcDbSavedByObjectVersion
1070
     0
  0
ACAD_PROXY_OBJECT
  5
334
102
{ACAD_REACTORS
330
31E
102
}
330
31E
100
AcDbProxyObject
 90
      499
 91
      501
 93
      428
310
42529A5D1D195C93D999914409028333333333333E33F0000000000000F9010790141107004050150A41D405064090741402480A0350
1001
ACAD
1000
AcDbSavedByObjectVersion
1070
     0
  0
ACAD_PROXY_OBJECT
  5
32C
102
{ACAD_REACTORS
330
31E
102
}
330
31E
100
AcDbProxyObject
 90
      499
 91
      501
 93
      444
310
42D31A5B995C185D1D195C9B90E409028333333333333E33F0000000000000F9010790141107004050750841D405064090741402483A0350
1001
ACAD
1000
AcDbSavedByObjectVersion
1070
     0
  0
ACAD_PROXY_OBJECT
  5
335
102
{ACAD_REACTORS
330
31E
102
}
330
31E
100
AcDbProxyObject
 90
      499
 91
      501
 93
      444
310
42D3DD995C9A185B99D3D999915409028333333333333E33F0000000000000F9010790141107004050150941D405064090741402480A0350
1001
ACAD
1000
AcDbSavedByObjectVersion
1070
     0
  0
ACAD_PROXY_OBJECT
  5
328
102
{ACAD_REACTORS
330
31E
102
}
330
31E
100
AcDbProxyObject
 90
      499
 91
      501
 93
      428
310
425499585B1A5CDD1A58D08409028333333333333E33F0000000000000F9010740A907004050150800405405064090740C02480A1B40
1001
ACAD
1000
AcDbSavedByObjectVersion
1070
     0
  0
ACAD_PROXY_OBJECT
  5
333
102
{ACAD_REACTORS
330
31E
102
}
330
31E
100
AcDbProxyObject
 90
      499
 91
      501
 93
      420
310
4194DA1859195911B40902404333333333333E33F0000000000000F9010740A41107004050150800405405064090840C02480A0B40
1001
ACAD
1000
AcDbSavedByObjectVersion
1070
     0
  0
ACAD_PROXY_OBJECT
  5
332
102
{ACAD_REACTORS
330
31E
102
}
330
31E
100
AcDbProxyObject
 90
      499
 91
      501
 93
      516
310
4454DA18591959081DDA5D1A08195919D95CD1A40902404333333333333E33F0000000000000F901074090142907004050250800405405064090740C02480A0B40
1001
ACAD
1000
AcDbSavedByObjectVersion
1070
     0
  0
ACAD_PROXY_OBJECT
  5
32F
102
{ACAD_REACTORS
330
31E
102
}
330
31E
100
AcDbProxyObject
 90
      499
 91
      501
 93
      532
310
4394DA1859195CC81BD98811DC985E5174090240C333333333333E33F0000000000000F901079024090741D01000000000000111010841D405064090740C02480A0340
1001
ACAD
1000
AcDbSavedByObjectVersion
1070
     0
  0
ACAD_PROXY_OBJECT
  5
330
102
{ACAD_REACTORS
330
31E
102
}
330
31E
100
AcDbProxyObject
 90
      499
 91
      501
 93
      476
310
41D4DAD95D18DA1E51840502408333333333333E33F0000000000000F901079024090741D01000000000000111010B41D405064090741802480A0340
1001
ACAD
1000
AcDbSavedByObjectVersion
1070
     0
  0
ACAD_PROXY_OBJECT
  5
32B
102
{ACAD_REACTORS
330
31E
102
}
330
31E
100
AcDbProxyObject
 90
      499
 91
      501
 93
      412
310
41D51A1A58DAD95B90D409028333333333333E33F0000000000000F9010790141107004050150C41D405064090741402480A0350
1001
ACAD
1000
AcDbSavedByObjectVersion
1070
     0
  0
ACAD_PROXY_OBJECT
  5
325
102
{ACAD_REACTORS
330
31E
102
}
330
31E
100
AcDbProxyObject
 90
      499
 91
      501
 93
      420
310
4255DA5C99599C985B595059028333333333333E33F0000000000000F90107901411070040501600405405064090740C02480A0340
1001
ACAD
1000
AcDbSavedByObjectVersion
1070
     0
  0
ACAD_PROXY_OBJECT
  5
331
102
{ACAD_REACTORS
330
31E
102
}
330
31E
100
AcDbProxyObject
 90
      499
 91
      501
 93
      404
310
41560B54985E51940902404000000000000E03F0000000000000F9010740501907004050150841D405064090740C02480A1B40
1001
ACAD
1000
AcDbSavedByObjectVersion
1070
     0
  0
XRECORD
  5
534
102
{ACAD_REACTORS
330
52A
102
}
330
52A
100
AcDbXrecord
340
0
  0
XRECORD
  5
533
102
{ACAD_REACTORS
330
52A
102
}
330
52A
100
AcDbXrecord
 90
        0
  0
XRECORD
  5
54C
102
{ACAD_REACTORS
330
52A
102
}
330
52A
100
AcDbXrecord
340
337
  0
XRECORD
  5
54A
102
{ACAD_REACTORS
330
52A
102
}
330
52A
100
AcDbXrecord
1000
DSTYLE
1002
{
1070
   179
 70
     2
1070
    41
 40
0.3715820312499999
1070
   271
 70
     2
1070
    44
 40
0.078740157480315
1070
    42
 40
0.0
1070
   147
 40
0.06
1070
    77
 70
     1
1070
   272
 70
     2
1070
   340
340
11
1070
   140
 40
0.5
1002
}
  0
XRECORD
  5
535
102
{ACAD_REACTORS
330
52A
102
}
330
52A
100
AcDbXrecord
  1
{96161D8C-F542-4791-B53B-643F30369652}
  0
XRECORD
  5
52D
102
{ACAD_REACTORS
330
52A
102
}
330
52A
100
AcDbXrecord
  1

  0
XRECORD
  5
532
102
{ACAD_REACTORS
330
52A
102
}
330
52A
100
AcDbXrecord
 90
        1
  0
XRECORD
  5
52F
102
{ACAD_REACTORS
330
52A
102
}
330
52A
100
AcDbXrecord
340
1A
  0
XRECORD
  5
531
102
{ACAD_REACTORS
330
52A
102
}
330
52A
100
AcDbXrecord
 90
    10269
  0
XRECORD
  5
54D
102
{ACAD_REACTORS
330
52A
102
}
330
52A
100
AcDbXrecord
340
305
  0
XRECORD
  5
530
102
{ACAD_REACTORS
330
52A
102
}
330
52A
100
AcDbXrecord
340
19
  0
XRECORD
  5
537
102
{ACAD_REACTORS
330
52A
102
}
330
52A
100
AcDbXrecord
 40
0.0
  0
XRECORD
  5
53A
102
{ACAD_REACTORS
330
52A
102
}
330
52A
100
AcDbXrecord
340
0
  0
XRECORD
  5
540
102
{ACAD_REACTORS
330
52A
102
}
330
52A
100
AcDbXrecord
 10
0.0
 20
0.0
 30
0.0
  0
XRECORD
  5
53C
102
{ACAD_REACTORS
330
52A
102
}
330
52A
100
AcDbXrecord
 10
0.0
 20
0.0
 30
0.0
  0
XRECORD
  5
53F
102
{ACAD_REACTORS
330
52A
102
}
330
52A
100
AcDbXrecord
 10
0.0
 20
0.0
 30
0.0
  0
XRECORD
  5
53D
102
{ACAD_REACTORS
330
52A
102
}
330
52A
100
AcDbXrecord
 10
0.0
 20
0.0
 30
0.0
  0
XRECORD
  5
53E
102
{ACAD_REACTORS
330
52A
102
}
330
52A
100
AcDbXrecord
 10
0.0
 20
0.0
 30
0.0
  0
XRECORD
  5
53B
102
{ACAD_REACTORS
330
52A
102
}
330
52A
100
AcDbXrecord
 10
0.0
 20
0.0
 30
0.0
  0
XRECORD
  5
538
102
{ACAD_REACTORS
330
52A
102
}
330
52A
100
AcDbXrecord
340
0
  0
XRECORD
  5
539
102
{ACAD_REACTORS
330
52A
102
}
330
52A
100
AcDbXrecord
 70
     0
  0
XRECORD
  5
52E
102
{ACAD_REACTORS
330
52A
102
}
330
52A
100
AcDbXrecord
  1

  0
XRECORD
  5
52B
102
{ACAD_REACTORS
330
52A
102
}
330
52A
100
AcDbXrecord
 90
        1
  0
XRECORD
  5
52C
102
{ACAD_REACTORS
330
52A
102
}
330
52A
100
AcDbXrecord
 90
       70
  0
XRECORD
  5
543
102
{ACAD_REACTORS
330
52A
102
}
330
52A
100
AcDbXrecord
340
0
  0
XRECORD
  5
549
102
{ACAD_REACTORS
330
52A
102
}
330
52A
100
AcDbXrecord
 10
0.0
 20
0.0
 30
0.0
  0
XRECORD
  5
545
102
{ACAD_REACTORS
330
52A
102
}
330
52A
100
AcDbXrecord
 10
0.0
 20
0.0
 30
0.0
  0
XRECORD
  5
548
102
{ACAD_REACTORS
330
52A
102
}
330
52A
100
AcDbXrecord
 10
0.0
 20
0.0
 30
0.0
  0
XRECORD
  5
546
102
{ACAD_REACTORS
330
52A
102
}
330
52A
100
AcDbXrecord
 10
0.0
 20
0.0
 30
0.0
  0
XRECORD
  5
547
102
{ACAD_REACTORS
330
52A
102
}
330
52A
100
AcDbXrecord
 10
0.0
 20
0.0
 30
0.0
  0
XRECORD
  5
544
102
{ACAD_REACTORS
330
52A
102
}
330
52A
100
AcDbXrecord
 10
0.0
 20
0.0
 30
0.0
  0
XRECORD
  5
541
102
{ACAD_REACTORS
330
52A
102
}
330
52A
100
AcDbXrecord
340
0
  0
XRECORD
  5
542
102
{ACAD_REACTORS
330
52A
102
}
330
52A
100
AcDbXrecord
 70
     0
  0
XRECORD
  5
536
102
{ACAD_REACTORS
330
52A
102
}
330
52A
100
AcDbXrecord
  1
{30586AB8-F272-4F54-A3D5-C19E50BB435C}
  0
DICTIONARYVAR
  5
427
102
{ACAD_REACTORS
330
421
102
}
330
421
100
DictionaryVariables
280
     0
  1
1:1
  0
DICTIONARYVAR
  5
423
102
{ACAD_REACTORS
330
421
102
}
330
421
100
DictionaryVariables
280
     0
  1
Standard
  0
DICTIONARYVAR
  5
422
102
{ACAD_REACTORS
330
421
102
}
330
421
100
DictionaryVariables
280
     0
  1
Standard
  0
DICTIONARYVAR
  5
424
102
{ACAD_REACTORS
330
421
102
}
330
421
100
DictionaryVariables
280
     0
  1
Imperial24
  0
DICTIONARYVAR
  5
425
102
{ACAD_REACTORS
330
421
102
}
330
421
100
DictionaryVariables
280
     0
  1
Imperial24
  0
DICTIONARYVAR
  5
51C
102
{ACAD_REACTORS
330
421
102
}
330
421
100
DictionaryVariables
280
     0
  1
1
  0
DICTIONARYVAR
  5
54B
102
{ACAD_REACTORS
330
421
102
}
330
421
100
DictionaryVariables
280
     0
  1
0
  0
DICTIONARYVAR
  5
51B
102
{ACAD_REACTORS
330
421
102
}
330
421
100
DictionaryVariables
280
     0
  1
0
  0
DICTIONARYVAR
  5
429
102
{ACAD_REACTORS
330
421
102
}
330
421
100
DictionaryVariables
280
     0
  1
1
  0
DICTIONARYVAR
  5
42A
102
{ACAD_REACTORS
330
421
102
}
330
421
100
DictionaryVariables
280
     0
  1
15
  0
DICTIONARYVAR
  5
428
102
{ACAD_REACTORS
330
421
102
}
330
421
100
DictionaryVariables
280
     0
  1
0
  0
DICTIONARYVAR
  5
426
102
{ACAD_REACTORS
330
421
102
}
330
421
100
DictionaryVariables
280
     0
  1
0
  0
DICTIONARYVAR
  5
51A
102
{ACAD_REACTORS
330
421
102
}
330
421
100
DictionaryVariables
280
     0
  1
127
  0
DICTIONARY
  5
514
330
33F
100
AcDbDictionary
280
     1
  0
DICTIONARY
  5
551
330
30E
100
AcDbDictionary
280
     1
  3
ACAD_XREC_ROUNDTRIP
360
552
  0
DICTIONARY
  5
553
330
306
100
AcDbDictionary
280
     1
  3
ACAD_XREC_ROUNDTRIP
360
554
  0
DICTIONARY
  5
555
330
316
100
AcDbDictionary
280
     1
  3
ACAD_XREC_ROUNDTRIP
360
556
  0
DICTIONARY
  5
510
330
33D
100
AcDbDictionary
280
     1
  0
XRECORD
  5
552
102
{ACAD_REACTORS
330
551
102
}
330
551
100
AcDbXrecord
102
MATERIAL
148
0.0
149
0.0
149
0.0
 93
        0
 94
      127
282
     0
 72
     0
 77
     0
171
     0
175
     0
179
     0
273
     0
  0
XRECORD
  5
554
102
{ACAD_REACTORS
330
553
102
}
330
553
100
AcDbXrecord
102
MATERIAL
148
0.0
149
0.0
149
0.0
 93
        0
 94
      127
282
     0
 72
     0
 77
     0
171
     0
175
     0
179
     0
273
     0
  0
XRECORD
  5
556
102
{ACAD_REACTORS
330
555
102
}
330
555
100
AcDbXrecord
102
MATERIAL
148
0.0
149
0.0
149
0.0
 93
        0
 94
      127
282
     0
 72
     0
 77
     0
171
     0
175
     0
179
     0
273
     0
  0
ENDSEC
  0
EOF
